#TITLE:Renaissance;
#SUBTITLE:;
#ARTIST:☺;
#TITLETRANSLIT:;
#SUBTITLETRANSLIT:;
#ARTISTTRANSLIT:;
#GENRE:Happy Hardcore;
#CREDIT:;
#BANNER:Renaissance-banner.png;
#BACKGROUND:Renaissance-bg.png;
#LYRICSPATH:;
#CDTITLE:;
#MUSIC:Renaissance.ogg;
#OFFSET:-0.003;
#SAMPLESTART:79.500;
#SAMPLELENGTH:13.420;
#SELECTABLE:YES;
#BPMS:0.000=160.000;
#STOPS:244.000=1.128
;
#BGCHANGES:0.000=Renaissance-bg.png=1.000=0=0=1=====,
16.000=In The Groove 2/657_JumpBack.mpg=1.000=0=0=1=====,
32.000=-random-=1.000=0=0=1===FadeLeft==,
48.000=-random-=1.000=0=0=1=====,
56.000=In The Groove 2/616_JumpBack.mpg=1.000=0=0=1=====,
72.000=In The Groove 2/452_JumpBack.mpg=1.000=0=0=1=====,
88.000=In The Groove 2/862_JumpBack.mpg=1.000=0=0=1=SongBgWithMovieViz====,
96.000=-random-=1.000=0=0=1=====,
104.000=-random-=1.000=0=0=1===SlideRight==,
112.000=-random-=1.000=0=0=1===SlideLeft==,
120.000=-random-=1.000=0=0=1===SlideRight==,
128.000=-random-=1.000=0=0=1=====,
144.000=-random-=1.000=0=0=1=====,
160.000=-random-=1.000=0=0=1===FadeLeft==,
176.000=In The Groove 2/980_JumpBack.mpg=1.000=0=0=1=SongBgWithMovieViz====,
180.000=In The Groove 2/961_JumpBack.mpg=1.000=0=0=1=====,
196.000=In The Groove 2/961_JumpBack.mpg=0.300=0=0=1=Kaleidoscope2x2====,
212.000=In The Groove 2/657_JumpBack.mpg=1.000=0=0=1=====,
228.000=In The Groove 2/657_JumpBack.mpg=0.300=0=0=1=Kaleidoscope2x2====,
244.000=In The Groove 2/586_JumpBack.mpg=1.000=0=0=1=SongBgWithMovieViz====0.5^0.5^0.5^1,
245.000=-random-=1.000=0=0=1=====,
261.000=-random-=1.000=0=0=1===FadeDown==,
277.000=Renaissance-bg.png=1.000=0=0=1=====,
99999=-nosongbg-=1.000=0=0=0 // don't automatically add -songbackground-
;
#BGCHANGES2:16.000=flash=1.000=0=0=1=====,
48.000=flash=1.000=0=0=1====1^1^0^1=,
52.000=flash=1.000=0=0=1====1^1^0^1=,
56.000=flash=1.000=0=0=1=====,
72.000=flash=1.000=0=0=1=====,
88.000=flash=1.000=0=0=1=====,
96.000=flash=1.000=0=0=1=====,
128.000=flash=1.000=0=0=1=====,
144.000=flash=1.000=0=0=1=====,
176.000=flash=1.000=0=0=1====1^1^0^1=,
180.000=flash=1.000=0=0=1=====,
244.000=flash=1.000=0=0=1=====,
245.000=flash=1.000=0=0=1=====,
277.000=flash=1.000=0=0=1=====,
;
#KEYSOUNDS:;
// cache tags:
#FIRSTBEAT:12.000;
#LASTBEAT:277.000;
#SONGFILENAME:/Songs/In The Groove 2/Renaissance/Renaissance.sm;
#HASMUSIC:1;
#HASBANNER:1;
#MUSICLENGTH:106.875;
// end cache tags

//---------------dance-single - K. Ward----------------
#NOTES:
     dance-single:
     K. Ward:
     Hard:
     8:
     0.460,0.000,0.187,0.094,0.070,314.000,20.000,10.000,0.000,0.000,16.000:
0000
0000
0000
0000
,
0000
0000
0000
0000
,
0000
0000
0000
0000
,
2200
0000
3300
0011
,
0100
1000
0100
0010
0100
1000
0100
0001
,
0020
0000
0100
0031
,
1000
0100
0010
0001
0100
1000
0100
0010
,
1000
1000
0001
0001
,
0100
0001
0010
0100
1000
0001
0010
0100
,
2000
0000
0010
3100
,
0010
0001
0010
0000
1000
0100
1000
0000
,
0010
0000
0000
0000
0100
0000
0000
0000
0001
0000
0000
0001
0010
0000
0001
0000
,
1000
0000
0000
0000
,
1100
0011
0110
1001
,
0100
0000
0100
0000
0010
0000
0010
0100
,
0000
0001
0000
0020
0000
0001
0031
0000
,
0100
0000
1000
0000
0100
0000
0001
1000
,
0000
0000
0100
0010
0000
0100
1000
0000
,
0010
0001
0010
0100
0001
1000
0010
0100
,
0001
1000
0001
1001
,
0100
0001
0010
0001
1000
0010
0100
0001
,
0010
0001
0100
0010
,
0101
0000
0000
0000
,
0110
1001
1100
0011
,
0200
0000
0000
1000
0000
0000
0310
0000
,
0004
0040
0000
0000
0000
0000
0000
0000
0033
0000
0000
0000
0000
0000
0000
0000
,
0200
0000
0000
1000
0000
0000
0310
0000
,
4000
0004
0000
0000
0000
0000
0000
0000
3003
0000
0000
0000
0000
0000
0000
0000
,
0100
0000
1000
0100
0001
0000
0010
0000
,
0004
0040
0000
0000
0000
0000
0000
0000
0000
0000
0000
0000
0033
0000
0000
0000
,
1000
0000
0010
0100
0001
0000
0010
0000
,
0400
0040
0000
0000
0000
0000
0000
0000
0330
0000
0000
0000
1001
0000
0000
0000
,
1000
0100
0010
0001
1000
0100
0010
0001
,
2000
0000
0010
3100
,
0001
0100
1000
0100
0001
0010
0001
1000
,
0001
0000
0000
0000
0001
0000
0000
0000
1000
0000
0000
1000
0010
0000
0100
0000
,
0001
0000
0010
0000
0001
0001
1000
0000
,
0001
0100
1000
0100
0001
1000
0001
0000
,
1000
0000
0001
0000
0010
0010
0001
0000
,
1000
0010
0100
0001
1000
0010
0100
0000
,
0001
0000
0001
0010
0001
0000
0001
1000
,
0001
0000
0010
0100
0010
0001
0010
0100
,
1000
0000
1000
0100
1000
0000
1000
0001
,
1000
0000
0010
0100
0001
0010
0100
0000
,
1001
0000
0000
0000
,
0001
0010
0100
1000
0001
0010
0001
0000
,
0100
0010
0000
0000
1000
0000
0000
0000
0100
0010
0000
0000
0001
0000
0000
0000
,
1000
0100
0010
0001
0100
1000
0100
0000
,
0001
0010
0000
0000
0001
0000
0000
0000
0100
0010
0000
0000
1000
0000
0000
0000
,
0001
0001
0100
0000
0010
0010
1000
0000
,
0100
0010
0100
1000
0001
0000
1001
0000
,
0100
0100
0010
0000
1000
1000
0001
0000
,
0010
0100
0010
0001
0101
0000
0000
0000
,
0021
0000
0000
0001
0000
0000
0130
0000
,
4000
0400
0000
0000
0000
0000
0000
0000
3300
0000
0000
0000
0000
0000
0000
0000
,
0020
0000
0000
0001
0000
0000
0130
0000
,
0004
4000
0000
0000
0000
0000
0000
0000
3003
0000
0000
0000
0000
0000
0000
0000
,
0010
0000
0100
0001
0010
0000
0100
0000
,
0040
0004
0000
0000
0000
0000
0000
0000
0033
0000
0000
0000
0000
0000
0000
0000
,
0100
0000
1000
0100
0001
0000
1000
0000
,
0040
0400
0000
0000
0000
0000
0000
0000
0330
0000
0000
0000
0011
0000
0000
0000
,
1001
0100
0100
0100
,
0100
0000
0000
0000
0100
0000
0000
0000
0100
0000
0000
0000
0100
0000
0000
0010
,
0100
0001
0010
0000
0010
0000
0010
0000
,
0010
0100
0100
0100
,
0100
1000
0010
0000
0010
0000
0100
0000
,
0100
0001
0001
1000
,
0001
0100
0010
0000
0100
0000
0001
0000
,
1000
0000
0100
0010
0001
0000
0100
0010
,
1000
1001
0000
0000
;

//---------------dance-single - ----------------
#NOTES:
     dance-single:
     :
     Medium:
     5:
     0.349,0.000,0.215,0.037,0.037,234.000,23.000,4.000,0.000,0.000,16.000:
0000
0000
0000
0000
,
0000
0000
0000
0000
,
0000
0000
0000
0000
,
1100
0000
0000
0011
0000
0000
0110
0000
,
0001
0000
0001
0010
0001
0000
0100
0000
,
2000
0000
0000
0000
3000
0000
0100
0010
,
0100
1000
0010
0100
,
0001
0010
0001
0000
0100
1000
0100
0000
,
0010
0000
0010
0100
0001
0000
0010
0000
,
0011
0000
0000
1000
,
0100
0010
0100
0000
1000
0000
0001
0000
,
0100
1000
0010
0001
,
0100
0110
0000
1001
,
0000
0110
1001
0000
,
0100
0000
0100
0000
0010
0000
0010
1000
,
0000
0100
0000
0100
0000
0000
0000
0000
,
1000
0000
1000
0000
0010
0000
0010
0100
,
0000
0000
0100
0010
0000
0000
0000
0000
,
1000
0001
1000
0000
0000
0000
0000
0000
,
0001
1000
0001
0000
0000
0000
0000
0000
,
0100
0010
0100
0000
0000
0000
0000
0000
,
0010
0001
0100
1000
,
1001
0000
0000
0000
,
1100
0110
1100
0110
,
0010
0000
0000
0100
0000
0000
0000
0000
,
4000
0004
0000
0000
0000
0000
0000
0000
3003
0000
0000
0000
0000
0000
0000
0000
,
0100
0000
0000
0001
0000
0000
1000
0000
,
4000
0004
0000
0000
0000
0000
0000
0000
3003
0000
0000
0000
0000
0000
0000
0000
,
0001
0010
0001
0000
1000
0000
0010
0000
,
0400
0040
0000
0000
0000
0000
0000
0000
0330
0000
0000
0000
0000
0000
0000
0000
,
0100
0001
0010
0000
0001
0000
1000
0000
,
0040
0400
0000
0000
0000
0000
0000
0000
0330
0000
0000
0000
0000
0000
0000
0000
,
0001
0010
0001
0010
0001
0000
0000
0000
,
1000
0100
1000
0100
1000
0000
0000
0000
,
0010
0100
0010
0100
0010
0000
0000
0000
,
1000
0001
1000
0001
1000
0000
0000
0000
,
0010
0000
0010
0000
0100
0000
0100
0001
,
0000
0010
0000
0001
0000
0000
0000
0000
,
1000
0000
1000
0100
1000
0000
0001
0000
,
0010
0100
0010
0000
1001
0000
0000
0000
,
0100
1000
0010
0001
,
0100
0010
0000
0010
0000
0000
0000
0000
,
0100
0001
0010
0000
0001
0000
1000
0000
,
0100
1000
0010
0001
,
1001
0000
0000
0000
,
1000
0001
1000
0000
0010
0000
0100
0000
,
0010
0010
0010
0000
,
0001
1000
0001
0000
0010
0000
0100
0000
,
1000
1000
1000
0000
,
0010
0100
0001
0000
0010
0000
0001
0000
,
0100
0100
0100
0000
,
0010
0001
0100
1000
,
0010
0100
1001
0000
,
1100
0000
0000
0110
0000
0000
0000
0000
,
4000
0004
0000
0000
0000
0000
0000
0000
3003
0000
0000
0000
0000
0000
0000
0000
,
0011
0000
0000
1100
0000
0000
0000
0000
,
0040
0400
0000
0000
0000
0000
0000
0000
0330
0000
0000
0000
0000
0000
0000
0000
,
0100
0010
0100
0000
0001
0000
0000
0000
,
4000
0004
0000
0000
0000
0000
0000
0000
3003
0000
0000
0000
0000
0000
0000
0000
,
0010
0100
0010
0000
0001
0000
0000
0000
,
4000
0004
0000
0000
0000
0000
0000
0000
3003
0000
0000
0000
0000
0000
0000
0000
,
1001
0000
1000
0100
1000
0100
1000
0000
,
0010
0200
0000
0300
,
0000
0000
0001
0010
0001
0010
0001
0000
,
1000
0200
0000
1300
,
1100
0010
0100
0010
,
0100
0001
1000
0002
,
0000
0103
0100
0010
,
0000
0000
1000
0001
1000
0000
0010
0000
,
0100
1001
0000
0000
;

//---------------dance-single - K. Ward----------------
#NOTES:
     dance-single:
     K. Ward:
     Easy:
     3:
     0.245,0.000,0.094,0.094,0.000,163.000,10.000,10.000,0.000,0.000,0.000:
0000
0000
0000
0000
,
0000
0000
0000
0000
,
0000
0000
0000
0000
,
1001
0000
0110
0000
,
0001
0001
0001
0001
,
0001
0000
0000
0000
,
1000
1000
1000
1000
,
1000
0000
0000
0000
,
0100
0100
0100
0100
,
0100
0000
0000
0000
,
0010
0010
0001
0000
,
1000
1000
0100
0000
,
1001
0000
0000
0000
,
0110
0110
0110
0000
,
0001
0000
1000
0000
0001
0000
1000
0001
,
0000
0000
0000
0000
,
0010
0000
0100
0000
0010
0000
0100
0010
,
0000
0000
0000
0000
,
1000
0000
0001
0000
1000
0000
0001
1000
,
0000
0000
0000
0000
,
0100
1000
0010
0100
,
0001
0000
0010
0000
,
1001
0000
0000
0000
,
0100
0100
0100
0100
,
0010
0000
0000
1000
0000
0000
0000
0000
,
0002
0000
0003
0000
,
0100
0000
0000
0010
0000
0000
0000
0000
,
2000
0000
3000
0000
,
0010
0010
0100
0001
,
0020
0000
0030
0000
,
0001
1000
0100
0010
,
0200
0000
0300
0000
,
1000
1000
1000
1000
,
1000
0000
0000
0000
,
0001
0001
0001
0001
,
0001
0000
0000
0000
,
0100
0010
0100
0001
,
0100
0010
1000
0000
,
1000
0010
1000
0100
,
0010
0000
0011
0000
,
1000
1000
0001
0001
,
0100
0000
0000
0100
0000
0000
0000
0000
,
0010
0010
1000
1000
,
0100
0000
0000
1000
0000
0000
0000
0000
,
1001
0000
0000
0000
,
0010
0100
0010
0000
,
1000
0001
1000
0000
,
0100
0010
0100
0000
,
1000
0001
1000
0000
,
0010
0010
0100
0000
,
0100
0100
0010
0000
,
2000
0000
3000
0000
,
0002
0000
0003
0000
,
1000
0000
0000
0010
0000
0000
0000
0000
,
0200
0000
0300
0000
,
0010
0000
0000
0100
0000
0000
0000
0000
,
0002
0000
0003
0000
,
1000
1000
0001
1000
,
0002
0000
0003
0000
,
0100
0100
0010
0010
,
2000
0000
3000
0000
,
0000
0100
0100
0100
,
0100
0100
0000
0000
,
0000
0001
0001
0001
,
0001
0001
0000
0000
,
0000
1000
1000
1000
,
1000
1000
0000
0000
,
0000
0010
0100
0001
,
0010
0100
0000
0010
,
0000
1001
0000
0000
;

//---------------dance-double - M.Emirzian----------------
#NOTES:
     dance-double:
     M.Emirzian:
     Easy:
     3:
     0.239,0.000,0.103,0.299,0.000,136.000,11.000,32.000,0.000,0.000,0.000:
00000000
00000000
00000000
00000000
,
00000000
00000000
00000000
00000000
,
00000000
00000000
00000000
00000000
,
00000000
00000000
00000000
00000000
,
10000000
00000000
00010000
00000000
,
02000000
00000000
03000000
00100000
,
10000000
00000000
01000000
00000000
,
00020000
00000000
00030000
00001000
,
00010000
00000000
00001000
00000000
,
00000020
00000000
00000030
00001000
,
00010000
00000000
00100000
00000000
,
00020000
00000000
00030000
00001000
,
00000010
00000000
00000001
00000000
,
00000010
00001000
00000100
00000001
,
00000100
00000000
00001000
00000001
,
00000000
00000100
00001000
00010000
,
01000000
00000000
00010000
00001000
,
00000000
00000010
00001000
00010000
,
01000000
00000000
10000000
00010000
,
00000000
00100000
00010000
00001000
,
00000100
00000000
00000001
00001000
,
00000000
00000010
00001000
00000001
,
00000220
00000000
00000000
00000330
,
00001000
00010000
00001000
00010000
,
00001000
00000000
00000000
01000000
,
20020000
00000000
00000000
30030000
,
00001000
00000000
00000000
00000010
,
00002002
00000000
00000000
00003003
,
00000100
00000000
00000000
01000000
,
00220000
00000000
00000000
00330000
,
00000000
00000000
00000000
00001000
,
00000022
00000000
00000000
00000033
,
00001000
00000000
10000000
00000000
,
00200000
00000000
00300000
01000000
,
00010000
00000000
00100000
00000000
,
02000000
00000000
03000000
10000000
,
00100000
00000000
00010000
00000000
,
00002000
00000000
00003000
00000100
,
00001000
00000000
00010000
00000000
,
00200000
00000000
00300000
00010000
,
00001000
00000000
00000010
00000000
,
00000002
00000000
00000003
00001000
,
00000010
00000000
00000100
00000000
,
00000002
00000000
00000003
00000010
,
00001000
00000000
00000000
00010000
,
00001000
00000000
00000100
00000000
,
00001000
00000000
00000000
00010000
,
00100000
00000000
00010000
00000000
,
00001000
00000000
00000000
00010000
,
01000000
00000000
10000000
00000000
,
00010000
00000000
00000000
00000000
,
01000000
00000000
00001000
00000000
,
00010000
00000000
00000000
00000000
,
00000100
00010000
00000100
00000000
,
00002200
00000000
00000000
00003300
,
00000010
00000100
00000001
00000000
,
00002200
00000000
00000000
00003300
,
00000010
00001000
00000010
00000000
,
02020000
00000000
00000000
03030000
,
00001000
00010000
00001000
00000000
,
00000022
00000000
00000000
00000033
,
00001001
00000100
00000000
00010000
,
00000000
00002000
00000000
00003000
,
00000010
00001000
00000000
00010000
,
00000000
00200000
00000000
00300000
,
00010000
00001000
00000000
00000100
,
00000000
00002000
00000000
00003000
,
00010000
01000000
00000000
10000000
,
00000000
00020000
00000000
00030000
,
01000000
10010000
00000000
00000000
;

//---------------dance-double - M.Emirzian----------------
#NOTES:
     dance-double:
     M.Emirzian:
     Medium:
     6:
     0.409,0.000,0.421,0.262,0.000,233.000,45.000,28.000,0.000,0.000,0.000:
00000000
00000000
00000000
00000000
,
00000000
00000000
00000000
00000000
,
00000000
00000000
00000000
00000000
,
00000000
00000000
00000000
00000000
,
10000000
00000000
01000000
00000000
00010000
00000000
00001000
00000100
,
00000001
00000000
00000000
00000000
00000000
00000000
00000001
00001000
,
00000100
00000000
00010000
00000000
00001000
00000000
00000100
00001000
,
00000000
00000000
00010000
00100000
00000000
10000000
01000000
10000000
,
00100000
00000000
00010000
00000000
00001000
00000000
00000010
00000001
,
00001000
00000000
00000000
00000000
00000000
00000000
00000010
00000100
,
00000001
00000000
00000010
00000000
00001000
00000000
00010000
00100000
,
00000000
00000000
10000000
01000000
00000000
00100000
00010000
10000000
,
01000000
00000000
00110000
00000000
,
01000000
00010000
00110000
00101000
,
00010000
00000000
00001000
00000000
00000100
00000000
00001000
00010000
,
00000000
00100000
00000000
00010000
00000000
00000010
00001000
00010000
,
01000000
00000000
00010000
00000000
00001000
00000000
00000100
00000001
,
00000000
00000000
00000010
00000100
00000000
00001000
00000001
00000000
,
00000100
00000000
00001000
00000000
00010000
00000000
01000000
00010000
,
00000000
00001000
00000000
00000010
00000000
00001000
00010000
00100000
,
00010000
00000000
00001000
00000000
01000000
00000000
00100000
10000000
,
00000000
00000000
01000000
00100000
00000000
00000000
10010000
00000000
,
02200000
00000000
00000000
03300000
,
10000000
00100000
01010000
01001000
,
00011000
00000000
00000000
00010100
00000000
00000000
00000000
00000000
,
00020020
00000000
00000000
00030030
,
00001001
00000000
00000000
00001100
00000000
00000000
00011000
00000000
,
00020200
00000000
00000000
00030300
,
01001000
00000000
00001000
00010000
01000000
00000000
11000000
00000000
,
02020000
00000000
00000000
03030000
,
00000000
00000000
10000000
00100000
00010000
00000000
00011000
00000000
,
00002200
00000000
00000000
00003300
,
00000001
00000000
00000010
00000000
00001000
00000000
00010000
00001000
,
00000100
00000000
00000000
00000000
00000000
00000000
00001000
00010000
,
01000000
00000000
00010000
00000000
00001000
00000000
01000000
00100000
,
00000000
00000000
10000000
01000000
00000000
00100000
00001000
00010000
,
00000100
00000000
00000010
00000000
00000001
00000000
00000100
00001000
,
00010000
00000000
00000000
00000000
00000000
00000000
00100000
00010000
,
00001000
00000000
00000010
00000000
00001000
00000000
00010000
00100000
,
00000000
00000000
10000000
01000000
00000000
10000000
00100000
00010000
,
00001000
00000000
00000100
00000000
00001000
00000000
00010000
00100000
,
00010000
00000000
00000000
00000000
00000000
00000000
00010000
00001000
,
00000010
00000000
00000001
00000000
00001000
00000000
00000010
00000100
,
00000000
00000000
00000001
00000010
00000000
00000100
00001000
00000000
,
00000202
00000000
00000000
00000303
,
00001100
00000000
00000000
00010100
00000000
00000000
00011000
00000000
,
02002000
00000000
00000000
03003000
,
00110000
00000000
00000000
10010000
00000000
00000000
01000000
00000000
,
00202000
00000000
00000000
00303000
,
00011000
00000000
00010000
00001000
00000100
00000000
00000101
00000000
,
00002020
00000000
00000000
00003030
,
00001100
00000000
00000010
00001000
00000100
00000000
00010000
00000000
,
00022000
00000000
00000000
00033000
,
01001000
00000000
00000000
10010000
00000000
00000000
00100000
00000000
,
22000000
00000000
00000000
33000000
,
00110000
00000000
00000000
00101000
00000000
00000000
00001000
00000000
,
02002000
00000000
00000000
03003000
,
00011000
00000000
00010000
00001000
00000010
00000000
00000011
00000000
,
00002002
00000000
00000000
00003003
,
00000000
00000000
00000010
00001000
00000100
00000000
00010100
00000000
,
00022000
00000000
00000000
00033000
,
01001000
00001000
00010000
00100000
,
00010000
00001000
00000100
00000000
00000000
00000000
00000000
00000000
,
00001000
00010000
01000000
00000000
10000000
00000000
00100000
00000000
,
01000000
00010000
00000000
00000000
10000000
01000000
00000000
00010000
,
00001000
00000100
00001000
00000000
00010000
00000000
01000000
00000000
,
00010000
00001000
00000010
00000000
00000000
00000000
00000000
00000000
,
00000001
00000100
00001000
00000000
00010000
00000000
01000000
00000000
,
00010000
00001000
00000000
00000000
00000100
00001000
00000000
00010000
,
00001000
01000000
01010000
00000000
00000000
00000000
00000000
00000000
;

//---------------dance-double - M.Emirzian----------------
#NOTES:
     dance-double:
     M.Emirzian:
     Hard:
     9:
     0.496,0.000,0.580,0.037,0.028,305.000,62.000,4.000,0.000,0.000,12.000:
00000000
00000000
00000000
00000000
,
00000000
00000000
00000000
00000000
,
00000000
00000000
00000000
00000000
,
00000000
00000000
00000000
00000000
,
00100000
00000000
10000000
01000000
00010000
00001000
00000100
00001000
,
00010000
00000000
00000000
00010010
00000000
00000000
00001000
00000100
,
00000001
00000100
00001000
00000001
00000100
00001000
00010000
01000000
,
00000000
00000000
00010000
00001000
00000000
00000010
00001000
00010000
,
00100000
00000000
10000000
01000000
00100000
00010000
01000000
00100000
,
00010000
00000000
00000000
00011000
00000000
00000000
00000010
00001000
,
00010000
00100000
00010000
00001000
00000010
00001000
00010000
00000100
,
00000000
00000000
00000001
00000100
00000000
00001000
00000001
00000100
,
00000010
00000000
00001000
00000000
00000100
00010000
00001000
01000000
,
00011000
00001100
00011000
00110000
,
10000000
00000000
11000000
00000000
10010000
00000000
00010000
00001000
,
00000000
00001001
00000000
00000110
00000000
00010100
00000000
00000100
,
00001000
00000000
01001000
00000000
00110000
00000000
10000000
01000000
,
00000000
00000000
00010000
00001000
00000000
00000100
00001000
00010000
,
00100000
00000000
00011000
00000000
00001010
00000000
00000001
00001000
,
00000000
00000110
00000000
00010010
00000000
00011000
00000000
01000000
,
00100000
00000000
01001000
00000000
00011000
00000000
01000000
00010000
,
00000000
00000000
00001000
00000010
00000000
00001000
00010000
00000000
,
02002000
00000000
00000000
03003000
,
11000000
01010000
00011000
00001010
,
00000011
00000000
00000000
00011000
00000000
00000000
10100000
00000000
,
00040000
04000000
00000000
00000000
00000000
00000000
00000000
00000000
00000000
00000000
03030000
00000000
00000000
00000000
00000000
00000000
,
01100000
00000000
00000000
00011000
00000000
00000000
00001001
00000000
,
00040000
00000400
00000000
00000000
00000000
00000000
00000000
00000000
00000000
00000000
00030300
00000000
00000000
00000000
00000000
00000000
,
00010010
00000000
00010000
00001000
00000100
00000000
00001000
00000000
,
00400000
00004000
00000000
00000000
00000000
00000000
00000000
00000000
00000000
00000000
00303000
00000000
00000000
00000000
00000000
00000000
,
10100000
00000000
00000000
00011000
00000000
00000000
00000011
00000000
,
00000100
00000000
00000010
00000100
00001000
00000000
00000001
00000000
,
00000100
00000000
00001000
00010000
00100000
00010000
00001000
00000100
,
00001000
00000000
00000000
01001000
00000000
00000000
00100000
00010000
,
00100000
10000000
01000000
00010000
01000000
10000000
00100000
00010000
,
00000000
00000000
00001000
00000010
00000000
00001000
00010000
01000000
,
00010000
00000000
00001000
00000100
00000001
00000010
00001000
00000010
,
00000001
00000000
00000000
00010100
00000000
00000000
00001000
00000100
,
00001000
00010000
00100000
00010000
00001000
00000010
00001000
00010000
,
00000000
00000000
00100000
10000000
00000000
00010000
01000000
10000000
,
01000000
00000000
00010000
10000000
01000000
00100000
00010000
01000000
,
00001000
00000000
00000000
00011000
00000000
00000000
00000010
00001000
,
00000100
00000010
00000001
00000100
00001000
00010000
01000000
10000000
,
00000000
00000000
00100000
01000000
00000000
00001000
00010000
00000100
,
00002200
00000000
00000000
00003300
,
00010010
00000000
00000000
01001000
00000000
00000000
10010000
00000000
,
01000000
00000000
10000000
00100000
00010000
00000000
00000000
00000000
,
11000000
00000000
00000000
00011000
00000000
00000000
00000101
00000000
,
00001000
00000000
00000001
00000100
00001000
00000000
00000000
00000000
,
00010010
00000000
00010000
00001000
00000010
00000000
00001000
00010000
,
00100000
10000000
01000000
00000000
,
00110000
00000000
00000000
01001000
00000000
00000000
00000110
00000000
,
00000001
00000000
00000010
00001000
00010000
00000000
00000100
00000000
,
00010100
00000000
00000000
01001000
00000000
00000000
10010000
00000000
,
00040000
00400000
00000000
00000000
00000000
00000000
00000000
00000000
00000000
00000000
00330000
00000000
00000000
00000000
00000000
00000000
,
11000000
00000000
00000000
00011000
00000000
00000000
00001010
00000000
,
00000400
00040000
00000000
00000000
00000000
00000000
00000000
00000000
00000000
00000000
00030300
00000000
00000000
00000000
00000000
00000000
,
01001000
00000000
00100000
10000000
01000000
00000000
00010000
00001000
,
00040000
00004000
00000000
00000000
00000000
00000000
00000000
00000000
00000000
00000000
00033000
00000000
00000000
00000000
00000000
00000000
,
00000101
00000000
00000000
00011000
00000000
00000000
10100000
00000000
,
00010000
00000000
10000000
01000000
00010000
00000000
00001000
00000000
,
01000100
00000000
00001000
00000000
00010000
00001000
00000010
00000001
,
00000100
00001000
00000100
00000000
00000000
00010010
00000000
00000000
,
00000100
00001000
00010000
01000000
00010000
00001000
00000100
00001000
,
00010000
00100000
00000000
00000000
10000000
00010000
00000000
10000000
,
01000000
00100000
00010000
00000000
00100000
00001000
00000100
00001000
,
00010000
00100000
00010000
00000000
00000000
01001000
00000000
00000000
,
00100000
00010000
01000000
10000000
01000000
00010000
00100000
00001000
,
00000100
00001000
00000000
00000000
00010000
00100000
00000000
00010000
,
00001000
00000010
00000001
00000000
00000000
00000000
00000000
00000000
;

//---------------dance-double - M.Emirzian----------------
#NOTES:
     dance-double:
     M.Emirzian:
     Challenge:
     11:
     0.668,0.000,0.327,0.037,0.206,461.000,35.000,4.000,0.000,0.000,0.000:
00000000
00000000
00000000
00000000
,
00000000
00000000
00000000
00000000
,
00000000
00000000
00000000
00000000
,
00000000
00000000
00000000
00000000
,
00000010
00000000
00001000
00010000
00100000
00010000
10000000
01000000
,
10000000
00100000
00010000
10000000
01000000
00010000
00100000
00010000
,
00001000
00000100
00001000
00000001
00000010
00000001
00000100
00001000
,
00000000
00000000
00000001
00000100
00000000
00000010
00001000
00000100
,
00010000
00000000
00001000
00000100
00001000
00100000
00001000
00000010
,
00001000
01000000
00001000
00000100
00001000
10000000
01000000
00010000
,
00000100
00000001
00001000
00100000
00000100
00010000
00100000
01000000
,
00000000
00000000
00001000
00010000
00000000
01000000
10000000
00100000
,
01000000
00000000
00010000
00000000
10000000
01000000
00010000
00000010
,
00000100
00000000
00000001
00000000
00001000
00000000
00000100
00000000
00000010
00000100
00000000
00001000
00000001
00000100
00001000
00010000
,
00001000
00000000
00100010
00000000
00011000
00000000
01000000
00100000
,
00000000
01001000
00000000
01000100
00000000
00001000
01000000
10000000
,
01000000
00000000
01001000
00000000
00010100
00000000
00000010
00001100
,
00000000
00000000
00000001
00010001
00000000
00000010
00010000
00100000
,
01000000
00000000
01000100
00000000
00011000
00000000
00100000
01000000
,
00000000
10010000
00000000
01001000
00000000
01000100
00000000
00001000
,
00011000
00000000
00100100
00000000
00011000
00000000
00000010
00001100
,
00000000
00000000
00000001
00010001
00000000
00000000
00001100
00000000
,
00002002
00000000
00000000
00003003
,
00000110
00010010
00011000
01000010
,
00011000
00000000
00000000
00000011
00000000
00000000
00010100
00000000
,
00000010
00001000
00000010
00010000
00001000
00010000
00001000
01000000
00010000
10000000
00010000
00000000
10000000
00000000
01000000
00000000
,
00100000
00000000
00000000
01001000
00000000
00000000
00100000
01000000
,
00010000
01000000
00010000
00100000
00001000
00010000
00001000
00010000
00000010
00001000
00000001
00000000
00000010
00000000
00000100
00000000
,
01000000
00000000
00100000
00010000
00000010
00000000
00010000
00001000
,
00010000
00000100
00010000
00000100
00010000
00001000
01000000
00010000
10000000
01000000
00100000
00000000
00010000
00000000
01000000
00000000
,
00100000
00000000
01000000
00001000
00000100
00000000
00000001
00001000
,
00000100
00000010
00000100
00000010
00000100
00010000
00001000
00010000
00001000
01000000
00100000
00000000
01000000
00000000
00000000
00000000
,
10010000
00000000
10000000
01000000
00010000
00000100
00010000
00100000
,
00010000
00000001
00000100
00001000
00000010
00001000
00010000
01000000
,
10000000
01000000
00010000
00100000
00010000
00001000
01000000
00100000
,
00000000
00000000
01000000
00010000
00000000
10000000
00100000
00010000
,
00001000
00000000
00000010
00001000
00100000
01000000
10000000
00100000
,
00010000
00100000
01000000
10000000
01000000
00001000
00000100
00000010
,
00010000
00001000
00000010
00000100
00010000
00001000
00000100
00000001
,
00000000
00000000
00000010
00000100
00000000
00001000
00000001
00000100
,
00001000
00000000
00010000
00100000
00010000
10000000
01000000
10000000
,
00100000
01000000
00010000
00000100
00010000
00100000
00010000
00000001
,
00000010
00001000
00100000
10000000
00100000
01000000
00010000
00000100
,
00000000
00000000
00001000
00000001
00000000
00000010
00000100
00001000
,
00002002
00000000
00000000
00003003
,
00000010
00001000
00000100
00000001
00000100
00001000
00000010
00010000
,
00100000
00010000
00001000
01000000
10000000
00100000
10000000
01000000
,
00010000
00100000
01000000
00010000
00000010
00000100
00001000
00000010
,
00001000
00010000
00001000
00000010
00000001
00000010
00001000
00000100
,
00001000
00010000
01000000
00100000
00001000
00010000
00100000
01000000
,
00000100
00010000
00100000
00010000
00000010
00000001
00000010
00000100
,
00001000
00010000
00100000
00010000
00000100
00000010
00001000
00100000
,
00001000
00010000
01000000
10000000
00100000
00000000
01000000
00010000
,
10010000
00000000
00000000
01001000
00000000
00000000
00000011
00000000
,
00001000
00000010
00001000
00000010
00010000
00001000
01000000
00010000
01000000
00100000
10000000
00000000
01000000
00000000
00100000
00000000
,
00010000
00000000
00000000
01001000
00000000
00000000
00010000
00001000
,
00000010
00000100
00001000
00000100
00001000
00000001
00000100
00000010
00001000
00000100
00010000
00000000
00001000
00000000
00000100
00000000
,
00000010
00000000
00100000
01000000
10000000
00000000
00010000
01000000
,
00100000
10000000
00100000
01000000
00010000
01000000
00001000
00010000
00000100
00001000
00000100
00000000
00000010
00000000
00000001
00000000
,
00000100
00000000
00000001
00010000
00001000
00000000
00000100
00001000
,
00010000
00000100
00010000
00001000
01000000
00100000
10000000
01000000
00010000
00001000
00010000
00000000
00000100
00000000
00000000
00000000
,
00001100
00000000
00000001
00000000
00000010
00000100
00001000
00000001
,
00000100
00100000
00001000
00000100
00100000
01000000
00010000
00000100
,
00010000
00100000
01000000
00001000
00010000
01000000
10000000
00100000
,
00010000
00100000
00000000
00000000
10000000
01000000
00000000
00100000
,
00010000
01000000
10000000
00000000
00100000
10000000
01000000
00010000
,
10000000
01000000
00010000
00100000
00010000
00001000
00000100
00001000
,
00000001
00000010
00000001
00000100
00010000
00100000
00010000
00000100
,
00001000
00000010
00000000
00000000
00010000
00001000
00000000
00010000
,
00100000
10000000
01000000
00000000
00000000
00000000
00000000
00000000
;

//---------------dance-single - K. Ward----------------
#NOTES:
     dance-single:
     K. Ward:
     Beginner:
     1:
     0.100,0.000,0.037,0.000,0.000,71.000,4.000,0.000,0.000,0.000,0.000:

0000
0000
0000
0000
,
0000
0000
0000
0000
,
0000
0000
0000
0000
,
0000
0000
0000
0000
,
0010
0000
0000
0000
,
0010
0000
0000
0000
,
0100
0000
0000
0000
,
0100
0000
0000
0000
,
0001
0000
0000
0000
,
0001
0000
0000
0000
,
1000
0000
0000
0000
,
1000
0000
0000
0000
,
1001
0000
0000
0000
,
0000
0000
0000
0000
,
0001
0000
0000
0000
,
0000
0000
0000
0000
,
1000
0000
0000
0000
,
0000
0000
0000
0000
,
1000
0000
0000
0000
,
0000
0000
0000
0000
,
0001
0000
0000
0000
,
0000
0000
0000
0000
,
1001
0000
0000
0000
,
0000
0000
0000
0000
,
0100
0000
0000
0000
,
0010
0000
0000
0000
,
1000
0000
0000
0000
,
0001
0000
0000
0000
,
0001
0000
0000
0000
,
1000
0000
0000
0000
,
0010
0000
0000
0000
,
0100
0000
0000
0000
,
1000
0000
1000
0000
,
1000
0000
0000
0000
,
0001
0000
0001
0000
,
0001
0000
0000
0000
,
1000
0000
1000
0000
,
0001
0000
0000
0000
,
0010
0000
0010
0000
,
0001
0000
0000
0000
,
1000
0000
0001
0000
,
0001
0000
0000
0000
,
0100
0000
0010
0000
,
0010
0000
0000
0000
,
0110
0000
0000
0000
,
0001
0000
0000
0000
,
1000
0000
0000
0000
,
1000
0000
0000
0000
,
0001
0000
0000
0000
,
0010
0000
0000
0000
,
0001
0000
0000
0000
,
0001
0000
0000
0000
,
1000
0000
0000
0000
,
0010
0000
0010
0000
,
0010
0000
0000
0000
,
0100
0000
0100
0000
,
0100
0000
0000
0000
,
0001
0000
1000
0000
,
1000
0000
0000
0000
,
1000
0000
0001
0000
,
0001
0000
0000
0000
,
0000
1000
0000
0000
,
0000
0010
0000
0000
,
0000
0100
0000
0000
,
0000
0010
0000
0000
,
0000
1000
0000
0000
,
0000
0001
0000
0000
,
0000
0001
0000
0000
,
0000
1000
0000
0001
,
0000
1001
0000
0000
;

//---------------dance-single - K. Ward----------------
#NOTES:
     dance-single:
     K. Ward:
     Challenge:
     9:
     0.614,0.000,0.103,0.318,0.290,414.000,11.000,34.000,20.000,0.000,16.000:
0000
0000
0000
0000
,
0000
0000
0000
0000
,
0000
0000
0000
0000
,
0001
0010
0001
0010
0001
0000
0010
0000
0000
0000
0100
0000
1001
0000
0000
0000
,
0010
0100
1000
0100
0010
1000
0001
0010
,
0001
0000
0000
0000
1000
0000
0000
0000
0010
0000
0000
0010
0001
0000
0010
0000
,
0100
0001
1000
0010
0100
1000
0100
0001
,
0020
0000
0001
0000
0100
0030
0001
0010
,
1000
0000
0010
0001
0100
0000
0001
0010
,
2000
0000
0000
0000
0010
0000
0000
0000
3100
0000
0000
0010
0001
0000
0100
0000
,
1000
0100
0001
0010
0001
0100
1000
0100
,
0001
0000
0000
0001
0010
0000
0001
0000
0000
0000
0100
0000
1000
0000
0100
0000
,
2000
3100
0002
0103
,
1000
0000
0100
0000
1000
0000
0100
0000
0001
0010
0000
0010
0001
1000
0010
0100
,
0010
1000
0010
1000
0010
0001
0010
0001
,
0010
1000
0010
1000
0010
0001
0010
0100
,
0001
1000
0001
1000
0001
0100
0001
0100
,
0001
0010
0001
0100
0000
1000
0100
0000
,
0001
0010
0001
0010
1000
0010
1000
0010
,
0001
0100
0001
0100
1000
0100
1000
0100
,
0001
0100
1000
0100
0001
0010
0001
0100
,
1000
0100
0001
0010
0000
0100
0010
0000
,
0001
0010
0000
0100
0010
0000
0001
0010
0000
0100
0010
0000
0001
0000
0000
0000
,
0100
1000
0000
0100
0010
0000
0100
1000
0000
0100
0010
0000
2000
0000
0000
0000
,
3002
0000
0200
0003
1300
0100
0001
0000
,
0040
0400
0000
0000
0000
0000
0000
0000
0330
0000
0MM0
0000
0010
0000
0001
0000
,
2000
0000
0020
3000
0130
1000
0100
0000
,
0004
0040
0000
0000
0000
0000
0000
0000
0033
0000
00MM
0000
0100
0000
1000
0000
,
0200
0000
0002
0300
0010
0010
0013
0000
,
0400
4000
0000
0000
0000
0000
0000
0000
3300
0000
MM00
0000
0010
0100
0000
0100
,
0002
0000
0020
0003
0230
0000
0310
0000
,
0004
4000
0000
0000
0000
0000
0000
0000
3003
0000
M00M
0000
1001
0000
0000
0000
,
0100
0001
0100
0010
0100
1000
0100
0001
,
0100
1000
0100
0001
0010
0000
1100
0000
,
0010
0001
0010
0100
1000
0100
0001
1000
,
0010
0000
0000
0000
0011
0000
0000
0000
1100
0000
0000
0010
0100
0000
0001
0000
,
0010
0000
0000
0010
0001
0000
0000
0001
0100
0000
0000
0100
1000
0000
0000
1000
,
0100
0000
0000
0100
0001
0000
0000
0001
0010
0000
0000
0010
0002
0000
0000
0000
,
1003
0000
0000
1000
0010
0000
0000
0010
0001
0000
0000
0001
0010
0000
0000
0010
,
0100
0000
0000
0100
0001
0000
0000
0001
0010
0000
0000
0010
0001
0000
0000
0000
,
1000
0100
0000
1000
0010
0000
0100
0000
0002
0000
0000
0000
2003
0000
0000
0000
,
3100
0010
0000
0100
0010
0000
0001
0000
2000
0000
0000
0000
3002
0000
0000
0000
,
1003
0100
0000
0010
0100
0000
1000
0000
0010
0000
0100
0000
0001
0000
1000
0000
,
0010
0100
0000
0001
0010
0000
0001
0000
1000
0000
0000
1000
0010
0000
0100
0000
,
0020
0100
0001
0230
,
0301
0100
1000
0100
0001
0100
1000
0100
,
0001
0000
1000
0000
0100
0000
1000
0000
0001
1000
0001
0000
0020
0000
0100
0000
,
0230
0000
1300
0000
0010
0100
0001
0000
,
1000
0000
0010
0000
0100
0000
0001
0000
0010
0100
0010
0000
0001
0000
0000
0000
,
1200
0000
0000
1000
0000
0000
1300
0000
0010
0000
0000
0100
0000
0000
0001
0000
,
0021
0000
0000
0001
0000
0000
0031
0000
0000
0000
MMMM
0000
0000
0000
0000
0000
,
0001
0000
0000
1000
0000
0000
0010
0000
0100
0000
0000
0001
0000
0000
0010
0000
,
0100
0000
0000
0010
0000
0000
0100
0000
1001
0000
0000
0000
0001
0000
1000
0000
,
0200
0000
0020
0300
0130
0000
1000
0000
,
0004
4000
0000
0000
0000
0000
0000
0000
3003
0000
0MM0
0000
0001
0000
1000
0000
,
0020
0000
0031
0000
0010
0100
0001
0000
,
4000
0400
0000
0000
0000
0000
0000
0000
3300
0000
MM00
0000
0001
0000
0010
0000
,
0200
0000
0020
0300
0001
0000
0130
0000
,
4000
0004
0000
0000
0000
0000
0000
0000
3003
0000
00MM
0000
1000
0010
0000
0010
,
0200
0000
0002
0300
0023
0000
0130
0000
,
0040
0004
0000
0000
0000
0000
0000
0000
0033
0000
00MM
0000
0110
0000
0000
0000
,
1001
0000
0100
1000
0100
0001
0010
0001
,
0100
0000
1000
0000
0100
0000
0000
0000
0001
0000
0000
0000
1000
0000
0000
0010
,
0100
0001
0010
0000
0001
0000
0100
0000
,
1000
0000
0100
0001
0010
0001
0000
0100
,
1000
0100
0010
0000
1000
0000
0001
0000
,
0020
0001
0100
0031
,
1000
0010
0100
0000
0001
0000
0010
0000
,
0001
0000
0100
1000
0100
0000
0001
0010
,
0100
1001
0000
0000
;
