#TITLE:Monolith;
#SUBTITLE:;
#ARTIST:Affinity;
#TITLETRANSLIT:;
#SUBTITLETRANSLIT:;
#ARTISTTRANSLIT:;
#GENRE:Hardcore;
#CREDIT:;
#BANNER:Monolith-banner.png;
#BACKGROUND:Monolith-bg.png;
#LYRICSPATH:;
#CDTITLE:;
#MUSIC:Monolith.ogg;
#OFFSET:0.004;
#SAMPLESTART:31.840;
#SAMPLELENGTH:11.860;
#SELECTABLE:YES;
#BPMS:0.000=49.000,8.000=196.000,315.000=65.320;
#STOPS:173.500=0.613
,234.000=0.914
;
#BGCHANGES:0.000=Monolith-bg.png=1.000=0=0=1=====,
8.000=In The Groove 2/785_JumpBack.mpg=1.400=0=0=1=====,
40.000=In The Groove 2/967_JumpBack.mpg=1.400=0=0=1=====,
72.000=In The Groove 2/770_JumpBack.mpg=1.000=0=0=1=SongBgWithMovieViz====,
73.000=Monolith-bg.png=1.000=0=0=1=====,
73.500=In The Groove 2/770_JumpBack.mpg=1.000=0=0=1=SongBgWithMovieViz====,
74.500=Monolith-bg.png=1.000=0=0=1=====,
75.500=In The Groove 2/770_JumpBack.mpg=1.000=0=0=1=SongBgWithMovieViz====,
76.000=Monolith-bg.png=1.000=0=0=1=====,
77.000=In The Groove 2/770_JumpBack.mpg=1.000=0=0=1=SongBgWithMovieViz====,
77.500=Monolith-bg.png=1.000=0=0=1=====,
78.500=In The Groove 2/773_JumpBack.mpg=1.000=0=0=1=SongBgWithMovieViz====,
80.000=In The Groove 2/763_JumpBack.mpg=1.400=0=0=1=====,
96.000=In The Groove 2/967_JumpBack.mpg=1.400=0=0=1===FadeLeft==,
112.500=In The Groove 2/770_JumpBack.mpg=1.000=0=0=1=====,
128.000=In The Groove 2/985_JumpBack.mpg=1.000=0=0=1===FadeRight==,
144.000=In The Groove 2/640_JumpBack.mpg=1.000=0=0=1=====,
160.000=In The Groove 2/769_JumpBack.mpg=1.000=0=0=1===SlideLeft==,
173.500=Monolith-bg.png=1.000=0=0=1=====,
174.000=In The Groove 2/769_JumpBack.mpg=1.000=0=0=1=====,
190.000=In The Groove 2/779_JumpBack.mpg=1.000=0=0=1===FadeUp==,
206.000=-random-=1.400=0=0=1===SlideLeft==,
214.000=-random-=1.400=0=0=1===SlideRight==,
222.000=-random-=1.400=0=0=1===SlideLeft==,
234.000=Monolith-bg.png=1.000=0=0=1=====,
235.000=-random-=1.400=0=0=1=====,
251.000=-random-=1.400=0=0=1===FadeLeft==,
267.500=-random-=1.400=0=0=1=====,
283.000=-random-=1.400=0=0=1===FadeDown==,
299.000=-random-=1.000=0=0=1=====,
315.000=Monolith-bg.png=1.000=0=0=1=====,
99999=-nosongbg-=1.000=0=0=0 // don't automatically add -songbackground-
;
#BGCHANGES2:8.000=white flash=1.000=0=0=1=====,
36.000=yellow flash=1.000=0=0=1=====,
40.000=white flash=1.000=0=0=1=====,
80.000=white flash=1.000=0=0=1=====,
108.000=yellow flash=1.000=0=0=1=====,
112.500=white flash=1.000=0=0=1=====,
144.000=yellow flash=1.000=0=0=1=====,
172.000=yellow flash=1.000=0=0=1=====,
173.500=yellow flash=2.000=0=0=1=====,
174.000=white flash=1.000=0=0=1=====,
234.000=yellow flash=2.000=0=0=1=====,
235.000=white flash=1.000=0=0=1=====,
263.000=yellow flash=1.000=0=0=1=====,
267.500=white flash=1.000=0=0=1=====,
299.000=yellow flash=1.000=0=0=1=====,
315.000=white flash=1.000=0=0=1=====,
;
#KEYSOUNDS:;
// cache tags:
#FIRSTBEAT:8.000;
#LASTBEAT:317.000;
#SONGFILENAME:/Songs/In The Groove 2/Monolith/Monolith.sm;
#HASMUSIC:1;
#HASBANNER:1;
#MUSICLENGTH:110.387;
// end cache tags

//---------------dance-single - K.W----------------
#NOTES:
     dance-single:
     K.W:
     Hard:
     9:
     0.674,0.000,0.335,0.045,0.054,479.000,37.000,5.000,8.000,0.000,0.000:
0000
0000
0000
0000
,
0000
0000
0000
0000
,
1000
0001
0100
0000
0001
0010
0100
0000
,
1000
0010
1000
0100
0001
0000
0010
0000
,
0001
1000
0010
0000
1000
0100
0010
0000
,
0001
0100
0001
0010
1000
0000
0100
0000
,
1000
0001
0100
0000
0001
0010
0100
0000
,
1000
0010
1000
0100
0001
0000
0010
0000
,
0001
1000
0010
0000
1000
0100
0010
0000
,
0001
0100
0001
0011
0000
0000
1100
0000
,
0001
0010
0001
0010
0100
0010
0100
0010
,
0001
0100
0001
0100
1000
0100
1000
0100
,
0001
0100
1000
0100
0001
0010
0100
1000
,
0100
0010
0001
0100
1000
0000
0110
0000
,
0001
0100
1000
0100
0001
0010
0001
0100
,
1000
0100
0001
0010
0100
0010
0100
1000
,
0010
0001
0010
0100
0001
0010
0100
0010
,
0100
1000
0100
1000
0002
0000
0013
0000
,
1100
0000
0001
0110
0000
1001
0000
0000
,
1000
0000
0100
0011
0000
0110
0000
0000
,
1000
0100
1000
0000
0010
0000
0100
0000
0001
0000
0010
0000
0001
0000
1000
0000
,
0000
1000
0010
0001
0010
0000
0100
0000
,
0001
0010
0001
0000
0100
0000
0010
0000
1000
0000
0100
0000
1000
0000
0001
0000
,
0000
0001
0100
1000
0100
0000
0001
0000
,
0010
0100
0010
0000
0100
0000
1000
0000
0100
0000
0010
0000
0001
0000
0010
0000
,
0000
0010
0100
1000
0010
0000
0100
0000
,
0001
0010
0001
0000
0100
0000
1000
0000
0100
0000
0001
0000
0010
0000
0001
0000
,
0000
0001
0010
0100
1000
0000
0110
0000
,
MMMM
0001
1000
0000
0010
0100
0000
0001
,
0010
0000
0000
0000
0100
0000
1000
0000
0000
0000
0010
0000
0100
0010
0100
0000
,
0000
0001
0010
0001
0000
0100
0010
1000
,
0000
0000
1000
0000
0010
0000
0100
0000
0001
0000
0010
0000
0001
1000
0001
0000
,
0000
1000
0001
0000
0100
0010
0000
1000
,
0100
0000
0000
0000
0010
0000
0001
0000
0000
0000
0100
0000
0010
0100
0010
0000
,
0000
1000
0100
1000
0000
0010
0100
0001
,
0000
0001
0100
0010
1000
0100
0010
0100
,
1000
0100
0010
1000
,
0010
0001
0100
0001
,
0100
1000
0100
1000
0100
0001
0010
0001
,
0010
0001
0100
1000
0200
0000
0301
0000
,
1000
0010
0001
0000
1000
0010
0001
0000
,
1000
0010
1000
0100
0001
0000
0010
0000
,
0001
0100
0001
0010
1000
0010
1000
0100
,
0101
0000
0010
1100
0000
1000
0100
0001
,
0100
1000
0000
0001
0000
1000
0000
0001
,
0100
1000
0100
1000
0000
0100
0001
0010
,
0001
0010
0000
0100
1000
0100
0000
1000
,
0001
1000
0001
0010
0000
0100
0010
0100
,
1000
0100
0000
1000
0001
0100
0010
0100
,
0000
0001
0010
0011
0000
1000
0100
0010
,
0100
1000
0000
0010
0110
0000
0001
0000
,
0010
0100
0010
0000
1100
0000
0001
0110
,
0000
1001
0000
0010
1100
0000
0000
0000
,
0000
0000
0000
0000
1010
0000
0001
0110
,
0000
1001
0000
0010
0101
0000
0000
0000
,
0000
0000
0000
0000
0001
0000
0010
1010
,
0000
0101
0000
1100
0010
0000
0100
0011
,
0000
1010
0000
0001
0011
0000
0100
1010
,
0000
0010
0101
0000
0110
0000
1000
0000
,
0010
0000
0100
0010
0000
1000
0100
0000
,
0010
0000
0001
0000
0000
0000
0100
0000
0010
0100
0010
0000
0000
0000
1000
0000
,
0100
1000
0000
0010
0100
0001
0000
0001
,
0100
0000
0010
0000
1000
0000
0100
0000
1000
0001
1000
0000
0000
0000
0001
0000
,
1001
0000
0010
0110
0000
0001
0011
0000
,
0100
0000
1100
0000
0000
0000
0010
0000
0100
0010
0100
0000
0000
0000
0001
0000
,
0010
0000
0001
0000
0100
0000
0010
0000
0000
0000
0010
0000
1000
0100
1000
0000
,
0010
0100
0001
0010
0011
0000
MMMM
1000
,
0010
1000
0001
0010
0000
0010
0001
0100
,
0001
0100
0000
0100
1000
0100
0001
0010
,
0001
0010
0001
0100
0000
0100
1000
0100
,
0001
0010
0002
0000
0013
0000
0100
0001
,
0010
0001
0100
1000
0100
0001
1000
0100
,
0001
0100
1000
0001
0100
0010
1000
0100
,
1000
0100
0001
0100
0001
0100
1000
0010
,
1000
0010
0001
0010
0001
0010
0100
0000
,
0001
0100
1000
0010
,
0001
0000
0100
0001
1000
0000
1000
0010
,
0001
0000
1000
0010
0001
0000
0100
0001
,
0010
0000
0000
0001
0000
0000
0100
0000
0000
0010
0000
0000
0100
0000
0000
0010
0000
0000
1001
0000
2200
0000
0000
0000
,
0000
3300
0000
0000
;

//---------------dance-single - K.W----------------
#NOTES:
     dance-single:
     K.W:
     Easy:
     5:
     0.371,0.000,0.317,0.018,0.000,250.000,35.000,2.000,0.000,0.000,0.000:
0000
0000
0000
0000
,
0000
0000
0000
0000
,
1010
0100
1000
0100
,
0001
0100
1000
0100
,
0001
0100
0001
0001
,
0100
0001
0001
0100
,
1000
0100
0010
0100
,
0001
0010
0100
0010
,
0100
1000
0001
1000
,
1000
0001
0001
0100
,
0010
0010
1000
0001
,
0001
1000
0010
1000
,
0010
1000
1000
0010
,
0100
1000
0100
0010
,
0001
0100
0010
0010
,
0001
0100
0100
1000
,
0010
1000
1000
0010
,
1000
0100
0010
0100
,
1001
0000
0000
0000
,
0110
0000
0000
0000
,
0001
1000
0100
0100
,
0001
0100
0001
1000
,
0100
1000
0010
1000
,
1000
0001
0001
0010
,
0100
0010
0001
1000
,
0001
0010
0001
1000
,
0100
1000
1000
0010
,
0100
0100
0001
1000
,
0000
0001
0010
0000
0001
0000
1000
0000
,
1000
0001
0100
0100
,
0010
1000
0001
1000
,
0100
0010
0100
1000
,
1001
0001
0100
0100
,
0001
0100
0010
0010
,
1100
0001
0010
0001
,
0011
0000
1100
0000
,
1001
0010
0000
0010
,
0000
0010
0100
0010
,
0000
0010
0000
0001
,
0000
1000
0010
0010
,
0000
0100
0000
0100
,
0000
0100
1000
0100
,
0000
0001
0000
1000
,
0110
0000
0000
1001
0000
0000
1000
0000
,
0000
0001
0000
0100
,
0100
0010
0000
1000
,
0000
0001
0000
0010
,
0010
0001
0000
0001
,
0000
1000
0000
0010
,
0010
0100
0000
0001
,
0000
1000
0000
0100
,
0100
1000
1001
0000
,
0110
0000
1001
0000
,
0000
0000
1001
0000
,
0110
0000
1001
0000
,
0000
0000
0001
0001
,
0001
0000
0110
0000
,
0110
0000
0001
0001
,
0001
0001
1001
0000
,
1000
0010
1100
0000
,
0001
1000
0011
0000
,
0001
0100
0110
0000
,
0010
0100
0110
0000
,
1000
0001
1001
0000
,
0010
0100
0110
0000
,
0001
0010
0011
0000
,
1000
0000
0001
0000
1001
0000
0000
1000
,
0100
1000
0010
0100
,
0001
0010
0001
1000
,
0100
1000
0010
0001
,
0100
1000
1100
0000
,
0001
0001
0010
0010
,
0001
1000
1000
0001
,
0100
0010
1000
0010
,
0001
0100
1000
1001
,
0000
1100
0000
0011
,
0000
1100
0000
0110
,
0000
1001
0000
0100
,
1000
0010
0001
2002
,
0000
3003
0000
0000
;

//---------------dance-single - ----------------
#NOTES:
     dance-single:
     :
     Medium:
     7:
     0.454,0.000,0.018,0.045,0.000,344.000,2.000,5.000,0.000,0.000,0.000:
0000
0000
0000
0000
,
0000
0000
0000
0000
,
1000
0100
1000
0000
0010
0000
0100
0000
,
0001
0010
0001
0000
0100
0000
0010
0000
,
1000
0001
1000
0000
0100
0000
0010
0000
,
0001
1000
0001
0000
0100
0000
0010
0000
,
1000
0010
1000
0000
0010
0000
1000
0000
,
0001
0100
0001
0000
1000
0000
0100
0000
,
0010
0001
0010
0000
0010
0000
0001
0000
,
1000
0010
0100
0000
0001
0000
0000
0000
,
1000
0100
0010
0100
,
0010
1000
0010
1000
,
0001
1000
0001
0010
,
0100
1000
0010
0100
,
0001
1000
0100
0010
,
0001
0100
0010
1000
,
0010
1000
0100
0010
,
0001
0100
0001
1000
,
0100
0000
1000
0010
0000
0100
0000
0001
,
0010
0000
0100
1000
0000
0010
0000
0100
,
0001
0000
1000
0000
0100
0010
0000
0001
,
0000
0100
0000
0010
1000
0000
0100
0010
,
0001
0000
0100
0000
0010
1000
0000
0001
,
0000
0010
0000
0100
0000
1000
0000
0001
,
0100
0000
0010
0000
1000
0001
0000
0010
,
0000
0100
0000
1000
0010
0000
0100
0001
,
0010
0000
0100
0000
1000
0001
0000
0100
,
0000
0010
0000
1000
0000
0100
0000
0010
,
0001
0000
1000
0000
0100
0010
0000
0001
,
0000
1000
0000
0010
0100
0000
0001
0010
,
0001
0000
1000
0000
0010
0100
0000
0001
,
0000
0010
0000
0100
0000
1000
0000
0001
,
0100
0000
0010
0000
1000
0100
0000
0010
,
0000
0001
0000
0100
0010
0000
1000
0100
,
0010
0000
0001
0000
1000
0010
0000
0100
,
0000
0001
0000
0010
0000
0100
0000
1000
,
0001
0000
1000
0100
1000
0000
1000
0000
,
0001
0000
0100
0010
1000
0000
1000
0000
,
0100
0000
0010
0001
0010
0000
0001
0000
,
0010
0000
0100
0001
0100
0000
0001
0000
,
1000
0000
1000
0100
1000
0000
0001
0000
,
0001
0000
0001
0100
0001
0000
1000
0000
,
0010
0000
0100
0001
0100
0000
0001
0000
,
1000
0000
0100
0100
0000
1000
0001
1000
,
0010
0100
0000
0001
0000
0010
0000
0100
,
0000
1000
0000
1000
0000
0001
0100
0000
,
0010
1000
0000
0100
0000
0010
0000
0001
,
0000
0000
1000
1000
0000
0010
0100
0001
,
0010
0100
0000
1000
0000
0001
0000
0100
,
0000
0010
0000
0010
0000
1000
0100
0000
,
0010
0001
0000
0001
0000
1000
0000
0010
,
0000
0000
0100
0100
0100
0000
0001
1000
,
0000
0100
0000
0010
0010
0000
0000
0000
,
1001
0000
0000
0000
1000
0000
0010
0100
,
0000
0001
0000
0010
0010
0000
0000
0000
,
1100
0000
0000
0000
1000
0000
0001
0100
,
0000
0010
0000
1000
0100
0000
0010
0001
,
0000
0100
0000
0010
1000
0000
0001
0010
,
0000
0100
0000
1000
0010
0000
0100
0000
,
0001
0000
0100
0001
0000
1000
0000
0100
,
0000
0010
0001
0000
0010
0001
0100
0000
,
1000
0000
0010
0100
0000
0001
0000
0010
,
0000
0100
1000
0000
0001
0100
0002
0000
,
0000
0000
0000
0003
0000
0100
0000
0001
,
0000
1000
0100
0000
0010
0000
0002
0000
,
0000
0000
0000
0003
0000
0100
0000
0001
,
0000
0100
0010
0000
1000
0000
0010
0000
,
1000
0000
0010
1000
0000
0001
0000
0010
,
0000
0100
1000
0000
0100
1000
0010
0000
,
0001
0000
0100
0010
0000
1000
0000
0100
,
0000
0010
0001
0000
1000
0010
2000
0000
,
0000
0000
0000
3000
0000
0010
0000
1000
,
0000
0001
0010
0000
0100
0000
2000
0000
,
0000
0000
0000
3000
0000
0010
0000
1000
,
0000
0010
0100
0000
0001
0000
0000
1000
,
0000
0100
0000
0100
0000
0010
0000
0001
,
0000
0100
0000
0100
0000
0010
0000
1000
,
0000
0100
0000
0100
0000
0010
0000
0001
,
0000
0100
0000
0100
0000
0010
2000
0000
,
0000
3000
0000
0000
;

//---------------dance-single - K. Ward----------------
#NOTES:
     dance-single:
     K. Ward:
     Challenge:
     11:
     0.929,0.000,0.553,0.263,0.430,628.000,61.000,29.000,6.000,6.000,0.000:
0000
0000
0000
0000
,
0000
0000
0000
0000
,
1000
0100
1000
0000
0010
0000
0001
0000
0010
0000
1000
0000
0010
0000
0001
0000
,
0010
0100
0001
0000
0010
0000
0001
0000
0100
0000
1000
0000
0100
0000
0001
0000
,
0010
0001
0010
0000
0100
0000
1000
0000
0100
0010
0100
0000
0010
0000
0001
0000
,
1000
0100
1000
0000
0001
0010
0001
0000
0100
0010
0100
0000
0001
1000
0001
1000
,
0001
0010
0001
0010
0100
0010
0100
0010
,
0001
0100
0001
0100
1000
0100
1000
0100
,
0001
0100
1000
0100
0010
1000
0001
0010
,
2002
0000
0000
0010
3003
0000
0110
0000
,
0001
0100
0010
0000
0001
0000
0010
0000
0100
0010
1000
0000
0100
0000
0010
0000
,
0100
0010
0001
0000
1000
0000
0010
0000
0100
0010
1000
0000
0100
0000
0010
0000
,
0100
1000
0010
0000
0100
0000
0010
0000
0100
0001
0010
0000
0100
0000
0010
0000
,
0001
0010
0001
0000
0100
0000
1000
0000
0100
0000
0010
0000
0110
0000
0000
0000
,
0001
1000
0100
0000
0010
0000
0001
0000
0010
0100
0010
0000
0100
0000
1000
0000
,
0010
0100
0001
0000
0010
0000
0100
0000
1000
0100
1000
0000
0010
0000
0100
0000
,
0001
0010
0001
0000
0100
0000
0010
0000
1000
0100
1000
0000
0010
0000
0100
0000
,
0001
1000
0001
0000
0010
0000
0100
0000
1000
0100
1000
0100
0010
0100
0010
0100
,
0010
0000
0001
0011
0000
1100
0000
0010
,
0011
0000
0010
0101
0000
0010
2100
0000
,
3001
0010
0001
0000
0100
0000
0010
0000
0010
1000
0100
0000
0100
0000
0010
0000
,
0100
0010
0100
0000
0100
0000
1000
0000
0001
0010
0001
0000
0100
0010
0100
0000
,
0001
1000
0100
0000
0100
0000
0010
0000
0100
1000
0100
0000
0010
0000
0001
0000
,
0100
0010
0100
0000
0100
0000
0001
0000
0001
0010
0100
0000
0010
0001
0100
0000
,
0010
0100
0010
0000
0010
0000
0100
0000
0100
0001
0010
0000
0010
0000
0100
0000
,
0010
0100
1000
0000
1000
0000
0010
0000
0010
0100
0001
0000
0001
0010
0100
0000
,
1000
0100
1000
0000
1000
0000
0010
0000
0010
0100
0001
0000
0010
0000
0100
0000
,
2200
0000
0000
0011
3300
0000
1001
0000
,
0000
1000
2000
0010
0010
3020
0000
0001
,
0032
0000
0000
0000
0010
0000
0023
0000
0000
0000
0100
0000
0130
0001
0010
0000
,
0000
1010
0100
0010
0100
0010
0001
0010
,
0100
0000
1000
0000
0100
0000
0001
0000
0100
0000
1000
0000
0001
1000
0001
0000
,
0000
0010
0020
0100
0130
0200
0000
1000
,
2300
0000
0100
3200
0000
0010
0310
0110
,
0000
1000
1000
1000
0010
0001
0001
0010
,
0100
0000
0100
0000
0010
0000
0001
0000
0010
0100
0010
0100
0010
0000
0000
0000
,
1001
0000
0100
0000
0010
0000
0100
0000
0001
1000
0001
0000
0010
0000
0001
0000
,
0010
0100
0010
0000
0100
0000
1000
0000
0100
0000
0010
0000
0101
0000
0000
0000
,
0000
0000
1001
0000
0100
1000
0100
0000
0010
0000
0001
0000
0001
0000
0010
0001
,
0100
0000
1000
0000
0100
0000
0010
0100
0010
0000
0100
0000
1010
0000
0000
0000
,
0000
0000
0001
0000
1000
0000
0100
0000
0010
0001
0010
0000
0100
0000
1000
0000
,
0001
0010
0001
0010
0001
0000
0100
0000
1000
0000
0100
0000
0010
0000
0100
0000
,
0001
1000
0001
1000
0001
0000
0100
0010
0100
0000
0001
0010
0001
0000
1000
0000
,
2200
0000
0000
0011
3300
1100
0010
0001
,
1000
0011
0000
1100
0000
0110
0000
0011
,
0100
0000
0010
0100
0010
0000
0002
0000
0000
0000
0013
0000
0100
0000
0010
0000
,
0010
0100
0001
0100
1000
0100
0001
0001
,
1000
1010
0000
0012
0000
1003
0001
0100
,
0001
1000
0001
0100
1000
0100
0001
1000
,
0100
0010
0100
0000
0010
0000
0011
0000
0000
0000
0001
0000
0010
0000
0001
0000
,
1000
0000
0010
0000
0100
0010
1000
0000
0100
0000
1000
0000
0010
0100
0001
0000
,
0010
0010
0010
0000
0110
0000
1100
0101
,
0000
1100
0000
0011
0202
0000
0000
0000
,
0010
0000
0000
0303
0000
0000
0MM0
0000
1001
0000
0000
0000
0100
0000
1010
0000
,
0000
0110
0000
0011
2020
0000
0000
0000
,
0001
0000
0000
3030
0000
0000
MM00
0000
1001
0000
0000
0000
0010
0000
0101
0000
,
0000
0110
0000
1001
0110
0000
1010
0101
,
0000
0011
0000
1100
0110
0000
0101
1010
,
0000
0000
0010
0000
0100
0001
0010
0000
1002
0000
1003
0000
100M
0100
1000
0000
,
0010
0000
0100
0000
0100
0001
0010
0000
0010
0000
0100
0000
0010
0100
0010
0000
,
0010
0000
0100
0000
1000
0010
0100
0000
0100
0001
0010
0000
0001
1000
0001
0000
,
0010
0000
0100
0000
0010
0001
0010
0000
0100
0000
1000
0000
0010
0100
0010
0000
,
0010
0000
0100
0000
0001
0100
0010
0000
0010
1000
0010
0000
0100
0010
0100
0000
,
0100
0000
0010
0000
0010
1000
0100
0000
0100
0000
0010
0000
0100
0010
0001
0000
,
0001
0000
0100
0000
0100
0010
1000
0000
1000
0100
0010
0000
0001
0010
0001
0000
,
0001
0000
0100
0000
0100
0010
1000
0000
0100
0000
0010
0000
2002
0000
0000
0000
,
0000
0010
3003
0000
1001
0000
0000
0110
,
1001
0000
0000
0000
1000
0100
1000
0000
1000
0000
0001
0000
0100
0010
0100
0000
,
0100
0000
0001
0000
0010
0100
0010
0000
0100
0000
1000
0000
0010
0100
0010
0000
,
0100
0100
0010
0020
0000
0001
0032
0010
,
0013
0000
0100
0000
0001
0000
0010
0000
0001
1000
0001
0000
M000
0000
1100
0000
,
0100
0010
0001
0100
1000
0100
0020
0001
,
0031
0000
0010
0000
0000
0000
0100
0000
0001
0010
0001
0000
1000
0000
0001
0000
,
0100
0000
0001
0000
0010
0100
0010
0000
0001
0000
0001
0000
0100
0010
0100
0000
,
0100
0000
0010
0000
0100
0001
0010
0000
0001
0010
0001
0000
0011
0000
0000
0000
,
1000
0010
0001
0010
0101
0000
1000
0100
,
0001
0000
0010
0000
0100
0000
0001
0000
0010
0001
0010
0001
0010
0000
0100
0000
,
1000
0100
0010
0001
0011
0000
0100
1000
,
1000
0000
0000
0100
0000
0000
0001
0000
0000
0001
0000
0000
0100
0000
0000
1000
0000
0000
1100
0000
0220
0000
0000
0000
,
0000
0330
0000
0000
;

//---------------dance-double - M.Emirzian----------------
#NOTES:
     dance-double:
     M.Emirzian:
     Easy:
     6:
     0.427,0.000,0.000,0.000,0.005,330.000,0.000,0.000,0.000,0.000,0.000:
00000000
00000000
00000000
00000000
,
00000000
00000000
00000000
00000000
,
00100000
00010000
10000000
01000000
,
00100000
00010000
01000000
00001000
,
00010000
00000100
00001000
00000100
,
00000010
00000000
00000001
00000000
00000010
00000000
00000100
00001000
,
00000100
00000000
00000001
00000000
00000100
00000000
00000010
00001000
,
00000010
00000100
00000001
00001000
,
00000100
00000000
00010000
00000000
00001000
00000000
01000000
00010000
,
01000000
00100000
10000000
01000000
,
00100000
00010000
10000000
00100000
,
00010000
00000000
00001000
00000000
00010000
00000000
00000100
00001000
,
00000100
00000010
00000001
00000010
,
00000100
00001000
00000001
00000100
,
00000010
00001000
00000100
00010000
,
00001000
01000000
00010000
10000000
,
01000000
00100000
00010000
10000000
,
01000000
00100000
00010000
00100000
,
00001000
00000000
00010000
00001000
00000000
00010000
00000000
00000010
,
00000100
00000000
00001000
00000001
00000000
00000100
00000010
00000000
,
00001000
00000001
00001000
00000001
,
00001000
00000000
00000100
00000000
00000010
00000001
00000010
00000000
,
00000100
00010000
00001000
01000000
,
00010000
00000000
01000000
00000000
00100000
10000000
00100000
00000000
,
01000000
00010000
00100000
01000000
,
10000000
00000000
01000000
00000000
00100000
00010000
00100000
00000000
,
00001000
00010000
00000100
00001000
,
00000100
00000000
00000010
00000000
00000001
00000010
00000001
00000000
,
00000100
00000010
00001000
00000100
,
00010000
00000000
00001000
00000000
00100000
00010000
00100000
00000000
,
01000000
10000000
00010000
01000000
,
00100000
00000000
10000000
00000000
01000000
00100000
01000000
00000000
,
10000000
00010000
01000000
00001000
,
00010000
00000000
00000100
00000000
00001000
00000010
00001000
00000000
,
00000100
00000010
00000001
00000010
,
00000100
00000000
00001000
00000000
00000001
00001000
00000001
00000000
,
00000100
00000010
00001000
00000100
,
00010000
00001000
01000000
00010000
,
10000000
01000000
00100000
00010000
,
10000000
00100000
01000000
00010000
,
00100000
00001000
00010000
00000100
,
00010000
00001000
00010000
00000100
,
00001000
00000010
00000100
00000001
,
00001000
00000000
00000000
00001000
00001000
00000000
00000100
00000000
,
00000010
00000001
00000100
00000010
,
00001000
00000100
00010000
00001000
,
01000000
00010000
01000000
00100000
,
10000000
01000000
00100000
00010000
,
00100000
00001000
01000000
00010000
,
00100000
00001000
00010000
00000100
,
00001000
00000100
00000010
00000100
,
00001000
00000000
00000010
00000000
00000100
00000000
00000001
00000100
,
00000000
00000010
00000000
00001000
00000010
00000000
00000000
00000000
,
00000000
00000000
00000000
00000000
00000010
00000000
00010000
00001000
,
00000000
00010000
00000000
00001000
01000000
00000000
00000000
00000000
,
00000000
00000000
00000000
00000000
00010000
00000000
01000000
00100000
,
00000000
10000000
00000000
01000000
00100000
00000000
00010000
10000000
,
00000000
00100000
00000000
01000000
00010000
00000000
10000000
01000000
,
00000000
00100000
00000000
00010000
10000000
00000000
01000000
00000000
,
00100000
00010000
01000000
00001000
,
00010000
00000000
00001000
00010000
00001000
00000000
00010000
00000000
,
00000100
00001000
00000010
00000100
,
00000001
00000000
00001000
00000100
00001000
00000000
00000010
00000000
,
00000100
00000001
00001000
00000100
,
00010000
00000000
00001000
01000000
00001000
00000000
00010000
00000000
,
00100000
10000000
01000000
00100000
,
00010000
00000000
01000000
00100000
01000000
00000000
00010000
00000000
,
10000000
01000000
00010000
00001000
,
00010000
00000000
00000100
00001000
00000100
00000000
00001000
00000000
,
00000010
00000100
00000001
00001000
,
00000100
00000000
00000010
00000001
00000010
00000000
00000001
00000000
,
00000100
00000010
00001000
00000100
,
00010000
00000000
00001000
01000000
00001000
00000000
00010000
00000000
,
01000000
00001000
00010000
00001000
,
00100000
00000000
00010000
01000000
00010000
00000000
00100000
00000000
,
10000000
00100000
01000000
00010000
,
00100000
01000000
10000000
00010000
,
01000000
00001000
00010000
00000100
,
00001000
00000000
00000000
00000010
00000000
00000000
00000100
00000000
00000000
00000001
00001000
00000000
;

//---------------dance-double - M.Emirzian----------------
#NOTES:
     dance-double:
     M.Emirzian:
     Medium:
     8:
     0.506,0.000,0.091,0.000,0.005,381.000,10.000,0.000,0.000,0.000,0.000:
00000000
00000000
00000000
00000000
,
00000000
00000000
00000000
00000000
,
00010000
10000000
01000000
00000000
00100000
00000000
00010000
00000000
,
10000000
00010000
01000000
00000000
00100000
00000000
10000000
00000000
,
01000000
00100000
00010000
00000000
01000000
00000000
00001000
00000000
,
00010000
00000100
00001000
00000000
00000010
00000000
00000100
00000000
,
00000001
00001000
00000100
00000000
00000010
00000000
00000001
00000000
,
00000010
00000100
00001000
00000000
00000001
00000000
00000100
00000000
,
00000010
00001000
00000100
00000000
00010000
00000000
00001000
00000000
,
01000000
00010000
10000000
01000000
00000000
00000000
00110000
00000000
,
00010000
01000000
00100000
00000000
10000000
00000000
00010000
00000000
,
00100000
01000000
10000000
00000000
01000000
00000000
00010000
00000000
,
01000000
10000000
01000000
00000000
00100000
00000000
00001000
00000000
,
00010000
00000100
00001000
00000000
00000010
00000000
00000100
00000000
,
00000001
00001000
00000100
00000000
00000010
00000000
00000001
00000000
,
00000100
00000010
00001000
00000000
00000100
00000000
00010000
00000000
,
00001000
01000000
00010000
00000000
01000000
00000000
00100000
00000000
,
10000000
01000000
00100000
00000000
00010000
00000000
01000000
00000000
,
00100000
00000000
10000000
01000000
00000000
00100000
00000000
00010000
,
10000000
00000000
00100000
01000000
00000000
00010000
10000000
01000000
,
00100000
00000000
00001000
00010000
00001000
01000000
00000000
00001000
,
00000000
00010000
00000000
00000100
00001000
00000000
00000010
00000000
,
00000100
00000000
00000001
00000010
00000100
00001000
00000000
00000001
,
00000000
00000100
00000000
00000010
00001000
00000000
00000100
00000000
,
00000010
00000000
00000001
00000100
00000010
00001000
00000000
00000100
,
00000000
00010000
00000000
00001000
01000000
00000000
00010000
00000000
,
00100000
00000000
01000000
10000000
01000000
00010000
00000000
01000000
,
00000000
10000000
00000000
00010000
01000000
00000000
00100000
00000000
,
01000000
00000000
00010000
10000000
01000000
00100000
00000000
00010000
,
00000000
01000000
00000000
00001000
00010000
00000000
00000100
00000000
,
00010000
00000000
00001000
00010000
00000100
00001000
00000000
00000010
,
00000000
00000100
00000000
00000001
00001000
00000000
00000100
00000000
,
00000010
00000000
00000001
00001000
00000010
00000100
00000000
00000001
,
00000000
00000100
00000000
00000010
00001000
00000000
00000100
00000000
,
00000010
00000000
00000100
00001000
00000100
00010000
00000000
00001000
,
00000000
01000000
00000000
00010000
01000000
00000000
00100000
00000000
,
10000000
01000000
00010000
00000000
00001000
00000000
00010000
00000000
,
01000000
10000000
01000000
00000000
10000000
00000000
00100000
00000000
,
00010000
00001000
00010000
00000000
01000000
00000000
00100000
00000000
,
00010000
10000000
01000000
00000000
00010000
00000000
00001000
00000000
,
00001000
00010000
00000100
00000000
00001000
00000000
00000010
00000000
,
00001000
00000100
00010000
00000000
00001000
00000000
00000100
00000000
,
00000001
00001000
00000100
00000000
00000010
00000000
00000001
00000000
,
00001000
00000000
00000010
00000100
00000000
00000001
00001000
00000000
,
00000100
00000010
00000000
00000100
00001000
00000000
00000010
00010000
,
00000000
00011000
00000000
01001000
00000000
00010000
01000000
00000000
,
00100000
10000000
00000000
01000000
00100000
00000000
00010000
01000000
,
00000000
01001000
00000000
00011000
00000000
00000100
00001000
00000000
,
00000100
00010000
00000000
00001000
01000000
00000000
00010000
00100000
,
00000000
00011000
00000000
00010100
00000000
00001000
00000100
00000000
,
00000010
00000001
00000000
00001000
00000010
00000000
00000100
00000001
,
00001000
00000000
00000100
00000000
00000010
00000000
00000001
00001000
,
00000000
00000010
00000000
00000100
00000101
00000000
00000000
00000000
,
00000000
00000000
00000000
00000000
00001000
00000000
01000000
00010000
,
00000000
00100000
00000000
01000000
10010000
00000000
00000000
00000000
,
00000000
00000000
00000000
00000000
01000000
00000000
00100000
10000000
,
00000000
01000000
00000000
00100000
00010000
00000000
01000000
00001000
,
00000000
00010000
00000000
00000100
00001000
00000000
00000010
00000100
,
00000000
00000001
00001000
00000100
00000110
00000000
00000001
00000000
,
00001000
00000010
00000100
00000001
00000000
00000100
00000000
00000010
,
00000000
00001000
00000100
00000000
00010000
00000000
00001000
00000000
,
01000000
00010000
10000000
01000000
00000000
00100000
00000000
00010000
,
00000000
00100000
10000000
00000000
00100000
00000000
00010000
00000000
,
10000000
01000000
00100000
00010000
00000000
01000000
00000000
00001000
,
00000000
00010000
00001000
00000000
01000000
00000000
00100000
00000000
,
01000000
00010000
00100000
00001000
00000000
00010000
00000000
00000100
,
00000000
00001000
00000010
00000000
00001000
00000000
00000100
00000000
,
00000010
00000001
00000100
00000010
00000000
00001000
00000000
00000100
,
00000000
00010000
00001000
00000000
00000100
00000000
00000001
00000000
,
00001000
00000100
00000010
00000001
00000000
00000100
00000000
00000010
,
00000000
00001000
00000100
00000000
00010000
00000000
00001000
00000000
,
01000000
00010000
10000000
01000000
00000000
00100000
00000000
00010000
,
00000000
10000000
00100000
00000000
10000000
00000000
01000000
00000000
,
00100000
00010000
10000000
01000000
00000000
00010000
00000000
00001000
,
00000000
00010000
00000100
00000000
00001000
00000000
00000010
00000000
,
00000100
00000000
00000001
00001000
00000100
00000000
00000010
00000000
,
00000001
00000000
00000100
00000010
00001000
00000000
00000100
00000000
,
00010000
00000000
00001000
01000000
00010000
00000000
10000000
00000000
,
01000000
00000000
00000000
00000000
00000000
00000000
00100000
00000000
00000000
00010000
00000000
00000000
01000000
00000000
00000000
00100000
00000000
00000000
10000000
00000000
00010000
00000000
00000000
00000000
;

//---------------dance-double - M.Emirzian----------------
#NOTES:
     dance-double:
     M.Emirzian:
     Challenge:
     12:
     0.994,0.000,0.444,0.109,0.688,707.000,49.000,12.000,6.000,6.000,0.000:
00000000
00000000
00000000
00000000
,
00000000
00000000
00000000
00000000
,
00000001
00000100
00000001
00000000
00001000
00000000
00000100
00000000
00001000
00000001
00001000
00000000
00000100
00000000
00010000
00000000
,
00001000
00010000
00001000
00000000
01000000
00000000
00010000
00000000
10000000
01000000
10000000
00000000
00100000
00000000
01000000
00000000
,
00010000
10000000
00010000
00000000
00100000
00000000
01000000
00000000
10000000
01000000
10000000
00000000
00010000
00000000
01000000
00000000
,
00100000
01000000
00100000
00000000
10000000
00000000
01000000
00000000
00100000
00010000
00100000
00000000
00001000
00000000
00010000
00000000
,
00000100
00010000
00000100
00000000
00010000
00000000
00001000
00000000
00010000
00000010
00010000
00000000
00001000
00000000
00010000
00000000
,
00000100
00001000
00000100
00000000
00000010
00000000
00000001
00000000
00001000
00000010
00000100
00000000
00000001
00000000
00001000
00000000
,
00000100
00000010
00000001
00000000
00000100
00000000
00000010
00000000
00001000
00000001
00000100
00000000
00000010
00000000
00001000
00000000
,
00000220
00000000
00000000
00011000
00000330
00000000
00101000
00000000
,
00100000
01000000
00100000
00000000
00010000
00000000
10000000
00000000
00100000
01000000
00010000
00000000
10000000
00000000
00010000
00000000
,
00100000
01000000
10000000
00000000
00010000
00000000
01000000
00000000
00100000
10000000
00010000
00000000
01000000
00000000
00010000
00000000
,
00100000
00001000
00010000
00000000
00001000
00000000
01000000
00000000
00001000
00010000
00000100
00000000
00010000
00000000
00000010
00000000
,
00001000
00000001
00000100
00000000
00000010
00000000
00001000
00000000
00000100
00000010
00000001
00000000
00001000
00000000
00000010
00000000
,
00000100
00000001
00001000
00000000
00000100
00000000
00000010
00000000
00000100
00001000
00000001
00000000
00000100
00000000
00001000
00000000
,
00010000
00001000
01000000
00000000
00001000
00000000
00010000
00000000
01000000
00100000
00010000
00000000
01000000
00000000
00100000
00000000
,
10000000
00010000
01000000
00000000
10000000
00000000
01000000
00000000
00010000
10000000
01000000
00000000
00100000
00000000
00010000
00000000
,
10000000
00100000
10000000
00100000
01000000
00010000
01000000
00001000
00010000
00000100
00010000
00000100
00001000
00000010
00000100
00000001
,
00000100
00000000
00000010
00001100
00000000
00000011
00000000
00000100
,
00001001
00000000
00000000
00000000
00001100
00000000
01000100
00000000
00000000
00000000
00010000
00000000
00001000
01000000
00001000
00000000
,
01000000
00000000
00010000
00000000
10000000
00000000
01000000
00000000
00100000
00010000
10000000
00000000
00100000
00000000
01000000
00000000
,
00010000
01000000
00100000
00000000
10000000
00000000
01000000
00000000
00100000
00010000
00100000
00000000
00001000
00010000
00001000
00010000
,
00000100
00000000
00001000
00000000
00000010
00000000
00000100
00000000
00000001
00001000
00000100
00000000
00000010
00000000
00000100
00000000
,
00001000
00000001
00000100
00000000
00000010
00000000
00000100
00000000
00000001
00001000
00000010
00000000
00001000
00000010
00001000
00000010
,
00010000
00000000
00000100
00000000
00010000
00000000
00001000
00000000
01000000
00010000
10000000
00000000
00100000
00000000
10000000
00000000
,
00010000
10000000
00010000
00000000
00100000
00000000
01000000
00000000
10000000
01000000
10000000
00000000
00010000
01000000
00010000
01000000
,
00100000
00000000
10000000
00000000
01000000
00000000
00100000
00000000
00010000
01000000
00010000
00000000
00100000
00000000
00001000
00000000
,
00022000
00000000
00000000
00000000
00000000
00000000
00100010
00000000
00000000
00033000
00000000
00000000
00001001
00000000
00000000
00000000
,
00000001
00000000
00000100
00000000
00000010
00000000
00001000
00000000
00000100
00000010
00000001
00000000
00000100
00000000
00000010
00000000
,
00001000
00000010
00000100
00000000
00000001
00000000
00001000
00000000
00000100
00010000
00001000
00000000
01000000
00010000
01000000
00010000
,
00100000
00000000
01000000
00000000
10000000
00000000
00100000
00000000
01000000
00010000
10000000
00000000
01000000
00000000
00100000
00000000
,
00010000
01000000
00100000
00000000
10000000
00000000
01000000
00000000
00100000
00010000
01000000
00000000
00001000
00010000
00001000
00010000
,
00000010
00000000
00010000
00000000
00000100
00000000
00001000
00000000
00000010
00000100
00000001
00000000
00001000
00000000
00000001
00000000
,
00000010
00000100
00001000
00000000
00000001
00000000
00000100
00000000
00000010
00001000
00000010
00000000
00000100
00000001
00000100
00000001
,
00001000
00000000
00000100
00000000
00010000
00000000
00001000
00000000
01000000
00010000
01000000
00000000
00100000
00000000
01000000
00000000
,
00010000
00100000
00010000
00000000
10000000
00000000
01000000
00000000
00100000
00010000
10000000
00000000
01000000
10000000
01000000
10000000
,
01000000
10000000
01000000
00000000
10000000
00000000
00010000
00000000
01000000
00100000
10000000
00000000
00010000
00000000
10000000
00000000
,
01000000
00100000
00010000
00000000
00100000
00000000
00010000
00000000
01000000
00001000
00010000
00000000
00001000
00000000
01000000
00000000
,
00001000
00010000
00000100
00000000
00010000
00000000
00001000
00000000
00010000
00000010
00001000
00000000
00000100
00000000
00000010
00000000
,
00000001
00001000
00000010
00000000
00000100
00000000
00000001
00000000
00001000
00000100
00000010
00000000
00000001
00000000
00000100
00000000
,
00000010
00010000
00001000
00000000
00000100
00000000
00000001
00000000
00001000
00000100
00000010
00000000
00000001
00000000
00001000
00000000
,
00000001
00000100
00000001
00001000
00000001
00000100
00000010
00001000
00000001
00001000
00000100
00001000
00000010
00010000
00001000
01000000
,
00001000
00010000
00001000
01000000
00010000
01000000
00001000
01000000
00010000
10000000
00100000
10000000
01000000
00000000
01100000
00000000
,
20020000
00000000
00000000
31130000
10000000
00100000
01000000
00010000
,
10000000
01000000
00010000
00001000
00010000
01000000
10000000
00100000
,
00000000
01001000
00000000
01000100
00000000
00010000
00001000
00010000
,
00000010
00000100
00000001
00001000
00000100
00000001
00000100
00001000
,
00000000
00010010
00000000
00100010
00000000
00010000
00001000
00000010
,
00001000
00010000
00001000
01000000
00010000
01000000
00100000
10000000
,
00000000
01100000
00000000
00011000
00000000
00001000
01000000
00010000
,
10000000
01000000
00100000
00001000
00010000
00100000
10000000
01000000
,
11000000
00000000
00011000
00000000
00010000
00000000
00001000
00010100
,
00000000
00100010
00000000
00011000
00020200
00000000
00000000
00000000
,
00001001
00000000
00000000
00030300
00000000
00000000
0000M00M
00000000
00001001
00000000
00000000
00000000
00000100
00000000
00001010
00000000
,
00000000
01000100
00000000
00001100
00000220
00000000
00000000
00000000
,
00011000
00000330
00000000
M00M0000
10010000
00000000
01000000
00110000
,
00000000
01000100
00000000
00011000
00100010
00000000
00001000
00010100
,
00000000
00010001
00000000
00001100
00010100
00000000
00010000
00101000
,
00000000
00000000
10001000
00000000
10000000
00010000
10000000
00000000
11000000
00000000
00110000
00000000
10000000
00000000
00100000
00000000
,
01000000
00000000
00010000
00000000
10000000
01000000
00100000
00000000
00010000
00000000
01000000
00000000
00001000
00010000
00000100
00000000
,
00100000
00000000
00001000
00000000
00010000
00001000
00010000
00000000
00000010
00001000
00000010
00001000
00000001
00000000
00000100
00000000
,
00000001
00000000
00001000
00000000
00000100
00000010
00000001
00000000
00001000
00000000
00000001
00000000
00000100
00000010
00001000
00000000
,
00000100
00000000
00000010
00000000
00000100
00001000
00000100
00000000
00000010
00000001
00000010
00000001
00001000
00000000
00000100
00000000
,
00010000
00000000
00001000
00000000
01000000
00010000
10000000
00000000
01000000
00000000
00100000
00000000
00010000
10000000
00100000
00000000
,
01000000
00000000
00010000
00000000
10000000
00100000
01000000
00000000
00010000
01000000
00010000
01000000
00100000
00000000
10000000
00000000
,
01000000
00000000
00010000
00000000
00001000
00100000
00010000
00000000
01000000
00000000
00001000
00000000
00022000
00000000
00000000
00000000
,
00000000
00100010
00033000
00000000
00100010
00000000
00001000
00010000
,
00000100
00000000
00001000
00000000
00000010
00000100
00000001
00000000
00000010
00000000
00000100
00000000
00001000
00000001
00000100
00000000
,
00000010
00000000
00001000
00000000
00000100
00000010
00000001
00000000
00000100
00000010
00000100
00000010
00001000
00000000
00000001
00000000
,
00000100
00000000
00001000
00000000
00010000
00001000
01000000
00000000
00010000
00000000
00100000
00000000
01000000
10000000
01000000
00000000
,
00100000
00000000
00010000
00000000
10000000
00100000
01000000
00000000
00010000
01000000
00010000
01000000
00100000
00000000
10000000
00000000
,
01000000
00000000
00100000
00000000
00010000
10000000
01000000
00000000
00010000
00000000
00001000
00000000
01000000
00001000
00010000
00000000
,
00000100
00000000
00000010
00000000
00000001
00001000
00000100
00000000
00000010
00000001
00000010
00000100
00001000
00000100
00001000
00000001
,
00000100
00000001
00000100
00000010
00001000
00000001
00001000
00000010
00010000
00001000
00100000
00001000
00010000
00001000
01000000
00010000
,
10000000
00010000
01000000
00010000
10000000
00100000
10000000
00010000
10000000
01000000
10000000
00010000
10000000
00000000
M00M0000
00000000
,
10000000
00000000
01000000
00000000
00100000
00000000
00010000
00000000
10000000
00010000
10000000
00000000
01000000
00000000
00100000
00000000
,
00010000
00000000
10000000
00000000
00100000
00000000
00010000
00000000
00001000
00010000
00001000
00010000
00001000
00000000
00000010
00000000
,
00000001
00000000
00000100
00000000
00001000
00000000
00000100
00000000
00000001
00001000
00000001
00000000
00000010
00000000
00000100
00000000
,
00001000
00000000
00000000
00000000
00000000
00000000
00000100
00000000
00000000
00000000
00000000
00000000
00010000
00000000
00000000
00000000
00000000
00000000
00001000
00000000
00000000
00000000
00000000
00000000
01000000
00000000
00000000
00010000
00000000
00000000
01000000
00000000
00000000
00010000
00000000
00000000
01000000
00000000
00000000
00000000
00100000
00000000
00000000
00000000
00000000
00000000
00000000
00000000
;

//---------------dance-double - J.Casarino----------------
#NOTES:
     dance-double:
     J.Casarino:
     Hard:
     9:
     0.744,0.000,0.534,0.109,0.014,504.000,59.000,12.000,15.000,2.000,0.000:
00000000
00000000
00000000
00000000
,
00000000
00000000
00000000
00000000
,
00000001
00000100
00000010
00000000
00001000
00000010
00000100
00000000
,
00000001
00000010
00001000
00010000
00001000
000M0000
00110000
00000000
,
10000000
00100000
01000000
00000000
00010000
01000000
00100000
00000000
,
10000000
01000000
00010000
00001000
00010000
0000M000
00001100
00000000
,
00000001
00000010
00001000
00000000
00010000
00100000
10000000
00000000
,
01000000
00010000
00001000
00000010
00001000
000M0000
00110000
00000000
,
10000000
01000000
00010000
00000000
00001000
00000100
00000001
00000000
,
00000010
00001000
00010000
00011000
00000000
000MM000
00110000
00000000
,
00001000
00010000
01000000
10000000
00100000
01000000
00010000
00100000
,
01000000
00010000
00001000
00000100
00001000
00010000
00000010
00000000
,
00000100
00000010
00001000
00000100
00000010
00000001
00000100
00000010
,
00000100
00001000
00010000
00001000
00100000
00000000
11000000
00000000
,
10000000
00100000
01000000
00010000
00100000
00001000
00010000
00000100
,
00001000
00000010
00000100
00000001
00000010
00000100
00001000
00000010
,
00010000
00001000
01000000
00010000
00100000
01000000
10000000
00010000
,
00100000
00001000
00010000
00000010
00010000
00001000
01000000
00001000
,
00011000
00000000
00000100
00001010
00000000
00001001
00000000
00000010
,
00000110
00000000
00000100
00010100
00000000
01001000
00100000
10000000
,
10100000
00000000
01010000
00000000
00001000
00010000
00100000
00010000
,
00000000
00001000
00000010
00001000
00010000
00000100
00010000
00000000
,
00001010
00000000
00000011
00000000
00001000
00000010
00001000
00000100
,
00000000
00001000
00000001
00000100
00000020
00001000
00001030
00000000
,
00010010
00000000
00010100
00000000
00001000
00100000
00010000
00100000
,
00000000
01000000
10000000
00010000
01000000
00010000
10000000
00100000
,
10100000
00000000
00110000
00000000
01000000
00001000
00100000
00001000
,
00000000
00010000
00000100
00000010
00000001
00000010
00000100
00010000
,
00001000
00000010
00001000
00000000
00000010
00000001
00000100
00001000
,
00000000
00010000
00100000
00010000
00001000
00100000
00010000
00010000
,
01000000
00100000
01000000
00000000
00010000
10000000
01000000
00100000
,
00000000
00010000
01000000
00100000
00010000
00001000
00000100
00000100
,
00000001
00000010
00000001
00000000
00000100
00001000
00010000
01000000
,
00000000
10000000
00100000
00010000
00001000
00010000
00100000
00100000
,
10000000
01000000
10000000
00000000
01000000
00010000
00001000
00000010
,
00000000
00000001
00000100
00001000
00010000
01000000
00100000
00010000
,
10000000
00100000
10000000
00100000
01000000
00010000
01000000
00010000
,
00100000
00001000
00100000
00001000
00010000
00000010
00010000
00000010
,
00001000
00000100
00001000
00000100
00000010
00000001
00000010
00000001
,
00000100
00001000
00000100
00001000
00010000
01000000
00010000
01000000
,
10000000
00100000
00010000
00001000
00000010
00000001
00000010
00001000
,
00010000
01000000
10000000
01000000
00010000
00001000
00000100
00000001
,
00000100
00001000
00010000
00000100
00001000
00000100
00000001
00000100
,
00000110
00000000
00000000
00000000
00001100
00000000
00020200
00030300
000M0M00
00000000
00001000
00000000
00000010
00000000
00000001
00000000
,
00000010
00002000
00000000
00000010
00000000
00000001
00000000
00003100
,
0000M000
00010000
00001000
00001000
00000000
00010000
00100000
10000000
,
00010000
02000000
00000000
00010000
00000000
03001000
0M000000
00010000
,
00000010
00001000
00000010
00000100
00000000
00001000
00010000
00001000
,
00100000
00010000
00000000
10000000
01000000
00100000
00010000
02000000
,
00000000
10000000
00000000
00010000
03000000
00001000
00010000
00100000
,
00010000
00001000
00000000
00100000
10000000
00100000
00010000
01000000
,
01100000
00000000
10010000
00000000
00110000
00000000
00001000
00011000
,
00000000
00010010
00000000
00000100
00002002
00000000
00000000
00000000
,
00000110
00000000
00003MM3
00000000
00000110
00000000
00001000
00010100
,
00000000
01001000
00000000
00100000
20020000
00000000
00000000
00000000
,
01100000
00000000
3MM30000
00000000
10010000
00000000
01010000
01001000
,
00000000
00011000
00000000
00010100
00001100
00000000
00000011
00001001
,
00000000
00000101
00000000
00001010
00010010
00000000
00011000
00101000
,
00000000
00000000
00000000
00000000
00000000
00000000
00000000
00000000
00011000
00000000
00000000
00000000
00000000
00000000
00000000
00000000
00001000
00000000
00000000
00000000
00010000
00000000
00000000
00000000
00001000
00000000
00000000
00000000
00000000
00000000
00000000
00000000
00022000
00000000
00000000
00000000
00000000
00000000
00000000
00000000
00033000
000MM000
00000000
00000000
00000000
00000000
00000000
00000000
00011000
00000000
00000000
00000000
00000000
00000000
00000000
00000000
00000000
00000000
00000000
00000000
00000000
00000000
00000000
00000000
,
00010010
00000000
00000100
00000001
00000010
00001000
00000000
00000010
,
00000001
00000100
00000010
00001000
00000100
00000000
00001100
00000000
,
00011000
00000000
00001000
01000000
00100000
10000000
00000000
01000000
,
00010000
00001000
00000010
00001000
00010000
00000000
01100000
00000000
,
10010000
00000000
00001000
01000000
00100000
00010000
00000000
00001000
,
01000000
00100000
00010000
00001000
00000010
00000000
00001001
00000000
,
00000110
00000000
00000001
00000010
00000001
00000100
00000000
00001000
,
00010000
00000010
00001000
00000001
00001001
00000000
00000100
00000100
,
00010000
00010000
01000000
10000000
00100000
00010000
00000000
00001000
,
00100000
00010000
01000000
00001000
00010000
00100000
00010000
00010000
,
00000010
00000010
00001000
00000001
00000100
00000010
00000000
00010000
,
00001000
00000100
00000010
00010000
00000010
00001000
00000001
00000001
,
00000100
00000100
00001000
00010000
00100000
10000000
00000000
00010000
,
01000000
10000000
01000000
00010000
00100000
00001000
00010000
00010000
,
01000000
01000000
10000000
00100000
00010000
00001000
00000000
00000010
,
00000100
00000001
00000100
00001000
00000010
00000000
00000001
00000010
,
00000001
00000010
00000100
00001000
00000100
00001000
00010000
00100000
,
00010000
00100000
01000000
10000000
00010000
10000000
01000000
00010000
,
00100000
01000000
00010000
00001000
00000100
00000010
00001000
00000100
,
00000010
00000000
00000000
00001000
00000000
00000000
00010000
00000000
00000000
00100000
00000000
00000000
01000000
00000000
00000000
00010000
00000000
00000000
00001000
00000000
00001000
00000000
00000000
00000000
;

//---------------dance-single - K. Ward----------------
#NOTES:
     dance-single:
     K. Ward:
     Beginner:
     1:
     0.118,0.000,0.100,0.000,0.000,80.000,11.000,0.000,0.000,0.000,0.000:

0000
0000
0000
0000
,
0000
0000
0000
0000
,
1000
0000
0000
0000
,
0000
0000
0000
0000
,
1000
0000
0000
0000
,
0000
0000
0000
0000
,
0001
0000
0000
0000
,
0000
0000
0000
0000
,
0001
0000
0000
0000
,
0000
0000
0000
0000
,
0100
0000
0000
0000
,
0100
0000
0000
0000
,
0100
0000
0000
0000
,
0000
0000
0000
0000
,
0010
0000
0000
0000
,
0010
0000
0000
0000
,
0010
0000
0000
0000
,
0000
0000
0000
0000
,
1001
0000
0000
0000
,
0000
0000
0000
0000
,
1001
0000
0000
0000
,
0000
0000
0000
0000
,
0010
0000
0000
0000
,
0001
0000
0000
0000
,
1000
0000
0000
0000
,
0100
0000
0000
0000
,
1000
0000
0000
0000
,
0001
0000
0000
0000
,
0000
0010
0000
0010
,
0000
0010
0000
0000
,
0000
0100
0000
0100
,
0000
0100
0000
0000
,
0000
0010
0000
0010
,
0000
0010
0000
0000
,
0000
0001
0000
0001
,
0000
0001
0000
0000
,
1001
0000
0000
0000
,
0000
0000
0000
0000
,
0001
0000
0001
0000
,
0001
0000
0000
0000
,
1001
0000
0000
0000
,
0000
0000
0000
0000
,
1000
0000
1000
0000
,
1000
0000
0010
0000
,
0000
0000
0100
0000
,
0000
0000
0010
0000
,
0000
0000
1000
0000
,
0000
0000
0001
0000
,
0000
0000
1000
0000
,
0000
0000
0001
0000
,
1000
0000
0001
0000
,
1000
0000
1001
0000
,
0000
0000
0000
0000
,
0000
0000
1001
0000
,
0000
0000
0000
0000
,
0000
0000
0110
0000
,
0000
0000
0110
0000
,
0000
0000
1001
0000
,
0000
0000
0000
0000
,
1000
0000
1000
0000
,
1000
0000
0000
0000
,
0001
0000
0001
0000
,
0001
0000
0000
0000
,
0100
0000
0100
0000
,
0100
0000
0000
0000
,
0010
0000
0010
0000
,
0010
0000
0000
1000
,
0000
1000
0000
0000
,
0000
0000
0000
0001
,
0000
0001
0000
0000
,
0000
0000
0000
0100
,
0000
0100
0000
0000
,
0000
0000
0000
0010
,
0000
0010
0000
0010
,
0000
0010
0000
1001
,
0000
0000
0000
0000
,
0000
0000
0000
0001
,
0000
0000
0000
1000
,
0000
0001
0000
1001
;
