#TITLE:Holy Guacamole;
#SUBTITLE:;
#ARTIST:Chucho Merchan;
#TITLETRANSLIT:;
#SUBTITLETRANSLIT:;
#ARTISTTRANSLIT:;
#GENRE:Latin;
#CREDIT:;
#BANNER:Holy Guacamole-banner.png;
#BACKGROUND:Holy Guacamole-bg.png;
#LYRICSPATH:;
#CDTITLE:;
#MUSIC:Holy Guacamole.ogg;
#OFFSET:0.027;
#SAMPLESTART:6.880;
#SAMPLELENGTH:11.920;
#SELECTABLE:YES;
#BPMS:0.000=140.000;
#STOPS:;
#BGCHANGES:0.000=Holy Guacamole-bg.png=1.000=0=0=1=====,
16.000=In The Groove 2/970_JumpBack.mpg=1.000=0=0=1=====,
32.000=In The Groove 2/614_JumpBack.mpg=1.000=0=0=1===FadeLeft==,
48.000=In The Groove 2/449_JumpBack.mpg=1.000=0=0=1===FadeRight==,
64.000=In The Groove 2/594_JumpBack.mpg=1.000=0=0=1===FadeUp==,
78.000=In The Groove 2/942_JumpBack.mpg=1.000=0=0=1=====,
94.000=In The Groove 2/921_JumpBack.mpg=1.000=0=0=1===SlideLeft==,
110.000=In The Groove 2/461_JumpBack.mpg=1.000=0=0=1===SlideRight==,
126.000=In The Groove 2/770_JumpBack.mpg=1.000=0=0=1===SlideUp==,
140.000=Holy Guacamole-bg.png=1.000=0=0=1====1^0^0^1=,
140.500=Holy Guacamole-bg.png=1.000=0=0=1====0^0^1^1=,
141.000=Holy Guacamole-bg.png=1.000=0=0=1====0^1^0^1=,
141.500=Holy Guacamole-bg.png=1.000=0=0=1=====,
142.000=In The Groove 2/455_JumpBack.mpg=1.000=0=0=1=SongBgWithMovieViz==FadeLeft==,
150.000=In The Groove 2/446_JumpBack_1.mpg=1.000=0=0=1===SlideLeft==,
166.000=In The Groove 2/750_JumpBack.mpg=1.000=0=0=1===SlideRight==,
182.000=In The Groove 2/982_JumpBack.mpg=1.000=0=0=1===SlideUp==,
198.000=In The Groove 2/747_JumpBack.mpg=1.000=0=0=1=====,
214.000=In The Groove 2/985_JumpBack.mpg=1.000=0=0=1=====,
230.000=In The Groove 2/803_JumpBack.mpg=1.000=1=0=1===CrossFade==,
243.750=Holy Guacamole-bg.png=1.000=0=0=1====1^0^0^1=,
244.500=Holy Guacamole-bg.png=1.000=0=0=1====0^1^0^1=,
245.000=Holy Guacamole-bg.png=1.000=0=0=1=====,
99999=-nosongbg-=1.000=0=0=0 // don't automatically add -songbackground-
;
#BGCHANGES2:16.000=white flash=1.000=0=0=1=====,
76.000=yellow flash=1.000=0=0=1=====,
78.000=white flash=1.000=0=0=1=====,
198.000=white flash=1.000=0=0=1=====,
214.000=white flash=1.000=0=0=1=====,
245.000=white flash=1.000=0=0=1=====,
;
#KEYSOUNDS:;
// cache tags:
#FIRSTBEAT:15.000;
#LASTBEAT:245.000;
#SONGFILENAME:/Songs/In The Groove 2/Holy Guacamole/Holy Guacamole.sm;
#HASMUSIC:1;
#HASBANNER:1;
#MUSICLENGTH:107.150;
// end cache tags

//---------------dance-single - ----------------
#NOTES:
     dance-single:
     :
     Medium:
     6:
     0.420,0.000,0.532,0.009,0.079,257.000,57.000,1.000,0.000,0.000,0.000:

0000
0000
0000
0000
,
0000
0000
0000
0000
,
0000
0000
0000
0000
,
0000
0000
0000
0000
,
1001
0000
1000
0100
1000
0000
0100
0000
,
0010
0000
1001
1010
,
0011
0000
0001
0100
0001
0000
1000
0000
,
0100
0001
0010
0110
,
1001
0000
1000
0010
1000
0000
0100
0000
,
0010
0000
0011
0101
,
1001
0000
1000
0100
0010
0000
0001
0000
,
1000
0000
0010
0100
0001
0000
0000
0000
,
1001
0000
0001
0010
0001
0000
0010
0000
,
0100
0000
1001
0101
,
1100
0000
1000
0010
0100
0000
0001
0000
,
0010
0100
0010
1001
,
0110
0000
0001
0100
0001
0000
0010
0000
,
0100
0000
1100
1010
,
1001
0000
0001
0010
0100
0000
0010
0000
,
0001
0000
1000
0000
0001
0000
1000
0000
0001
0000
0000
1000
0000
0000
0100
0000
,
0010
0000
0000
0000
1001
0000
0000
0000
0001
0000
0000
0100
0000
0000
0010
0000
,
1000
0000
0000
0000
1001
0000
0000
0000
1000
0000
0000
0001
0000
0000
0010
0000
,
0100
0000
0000
0000
1001
0000
0000
0000
1000
0000
0000
0001
0000
0000
0100
0000
,
0010
0000
0000
0000
1001
0000
0000
0000
1000
0000
0000
1000
0000
0000
0100
0000
,
0010
0000
0000
0000
0011
0000
0000
0000
0100
0000
0000
0010
0000
0000
1000
0000
,
0100
0000
0000
0000
1001
0000
0000
0000
0100
0000
0000
0001
0000
0000
0010
0000
,
0001
0000
0000
0000
0110
0000
0000
0000
1000
0000
0000
0100
0000
0000
0010
0000
,
0001
1100
0010
1000
,
0010
0100
0001
0000
0010
0000
0001
0000
,
1100
0110
0001
1000
,
0010
0100
0001
0000
0010
0000
0100
0000
,
0011
1010
0001
1000
,
0100
1000
0010
0000
0100
0000
0001
0000
,
1001
0000
0100
0010
,
1000
0000
0001
0000
1000
0000
0000
0000
0010
0000
0000
0000
0100
0000
0000
0001
,
0000
0010
0002
0000
1003
0000
0000
0000
,
0000
0000
0110
0000
,
1100
0000
0101
0000
0000
1000
0000
1000
,
0000
0100
0010
0001
0000
0001
0000
0100
,
0000
1000
0000
0010
0000
0100
0000
0001
,
0000
1000
0100
1000
0000
0100
0000
0010
,
0000
0001
0000
0001
1000
0001
1000
0000
,
0000
0000
1010
0000
0001
0100
0001
0000
,
0000
0000
1100
0000
1000
0100
0010
0000
,
0000
0000
0110
0000
0001
0100
0010
0000
,
0000
0000
0000
0000
1001
0000
0000
0000
1000
0000
0000
1000
0000
0000
1000
0000
,
1000
0000
0000
0000
1100
0000
0000
0000
0001
0000
0000
0001
0000
0000
0001
0000
,
0001
0000
0000
0000
0011
0000
0000
0000
0100
0000
0000
0100
0000
0000
0100
0000
,
0100
0000
0000
0000
1010
0000
0000
0000
0010
0000
0000
0010
0000
0000
0010
0000
,
0010
0000
0000
0000
0101
0000
0000
0000
1000
0000
0000
0100
0000
0000
0001
0000
,
0010
0000
0000
0000
1001
0000
0000
0000
0001
0000
0000
0100
0000
0000
1000
0000
,
0010
0000
0000
0000
1001
0000
0000
0000
1000
0000
0000
0100
0000
0000
0010
0000
,
0100
0000
0000
0000
0110
0000
0000
0000
0001
0000
0000
0100
0000
0000
0010
0000
,
0100
0000
0110
0000
1001
0000
0001
0001
,
0001
0100
0010
0000
,
1010
0000
1100
0000
1001
0000
0001
0010
,
0100
1000
0001
1000
,
1010
0000
0101
0000
0011
0000
1000
0100
,
1000
0010
0100
0000
,
1001
0000
0110
0000
1001
0000
1000
1000
,
1000
0000
0010
0000
0100
0000
0001
0010
,
0001
1001
0000
0000
;

//---------------dance-single - K.W----------------
#NOTES:
     dance-single:
     K.W:
     Hard:
     7:
     0.472,0.000,0.336,0.177,0.476,299.000,36.000,19.000,56.000,0.000,0.000:
0000
0000
0000
0000
,
0000
0000
0000
0000
,
0000
0000
0000
0000
,
0000
0000
0000
0000
,
1000
0000
0100
1000
0000
0100
1000
0000
0100
0000
0000
0000
0000
0000
1000
0000
,
0100
0000
0000
0010
0000
0000
0100
0000
0020
0000
0000
0000
0031
0000
0000
0000
,
0100
0000
0010
0100
0000
0010
0100
0000
0001
0000
0000
0000
0000
0000
1000
0000
,
1000
1010
0011
0110
,
1000
0000
0000
0100
0000
0000
1000
0000
1000
0000
000M
0000
0000
0000
0100
0000
,
0100
0000
0000
0100
0000
0000
0010
0000
0100
0000
0000
0000
1100
0000
0000
0000
,
0001
0010
0001
0000
0100
1000
0100
0000
,
0001
0010
0100
0010
0002
0000
1003
0000
,
0001
0000
0000
0100
0000
0000
0001
0000
0010
0000
0000
0000
0011
0000
0000
0000
,
1000
0000
0000
0100
0000
0000
0010
0000
0100
0000
0000
0000
1100
0000
0000
0000
,
0001
0000
0000
0001
0000
0000
0010
0000
0001
0000
0000
0000
0110
0000
0000
0000
,
0100
0000
0000
0100
0000
0000
0001
0000
0020
0000
0000
0000
0031
0000
0000
0000
,
1000
0000
0000
1000
0000
0000
0100
0000
0010
0000
0000
0000
0100
0000
0000
0000
,
0010
0000
0000
0010
0000
0000
0001
0000
1000
0000
0000
0000
0010
0000
0000
0000
,
0100
0001
0010
0100
0010
0000
0011
0000
,
1000
0100
1000
0100
1000
0000
0000
0000
0001
0000
0010
0001
0000
0010
0000
0011
,
0000
0000
0000
0000
MMMM
0000
0000
0000
0100
0000
0001
0100
0000
0001
0000
0101
,
0000
0000
0000
0000
MMMM
0000
0000
0000
1000
0000
0100
1000
0000
0100
0000
1100
,
0000
0000
0000
0000
MMMM
0000
0000
0000
0010
0000
1000
0010
0000
1000
0000
1010
,
0000
0000
0000
0000
MMMM
0000
0000
0000
1000
0000
0010
1000
0000
0010
0000
1010
,
0000
0000
0000
0000
MMMM
0000
0000
0000
0100
0000
1000
0100
0000
1000
0000
1100
,
0000
0000
0000
0000
MMMM
0000
0000
0000
0001
0000
0100
0001
0000
0100
0000
0101
,
0000
0000
0000
0000
MMMM
0000
0000
0000
0010
0000
0001
0010
0000
0001
0000
0011
,
0000
0000
0000
0000
MMMM
0000
0000
0000
2200
0000
0000
0000
3300
0000
0000
0022
,
0000
0000
0000
0033
0000
0000
0000
0000
0220
0000
0000
0000
0330
0000
0000
2002
,
0000
0000
0000
3003
0000
0000
0000
0000
1000
0000
0010
0100
0000
0001
0000
0011
,
0000
0000
0000
0000
0100
0000
0010
0000
1000
0000
0100
0010
0000
0100
0000
1100
,
0000
0000
0000
0000
0000
0000
0000
0000
1000
0000
0100
1000
0000
1000
0000
0002
,
0000
0000
0000
0000
0003
0000
0000
0000
0010
0000
0001
1000
0000
0100
0000
0200
,
0000
0000
0000
0000
0300
0000
0000
0000
0010
0000
0100
0010
0000
1000
0000
0001
,
0000
0000
0010
0000
0100
0000
1000
0000
0010
0000
0100
0010
0000
0100
0000
2000
,
0000
3000
0110
0000
,
0000
0000
1001
0000
,
0000
0000
0000
0000
0MM0
0000
0000
0000
0100
0000
0000
0010
0000
0000
0100
0000
,
0100
0000
0000
0000
0000
0000
0001
0000
0010
0000
0000
0010
0000
0000
1001
0000
,
0000
0000
0000
0000
0000
0000
0000
0000
1000
0000
0000
0100
0000
0000
1000
0000
,
1000
0000
0000
0000
0000
0000
0001
0000
1000
0000
0000
0110
0000
0000
0000
0000
,
M000
0000
0M0M
0000
00M0
0000
0000
0000
0001
0000
0010
0001
0000
0010
0001
0000
,
0010
0000
0000
0000
0000
0000
0001
0000
1000
0000
0000
0100
0000
0000
0010
0000
,
0200
0000
0000
0000
1300
0000
0000
0000
0010
0000
0100
0001
0000
0010
0001
0000
,
0010
0000
0000
0001
0001
0000
0101
0000
,
1000
0000
0100
0000
1100
0000
0000
0000
0001
0000
0000
0010
0000
0000
0001
0000
,
0001
0000
M000
0000
0000
0000
0010
0000
0010
0000
0000
0100
0000
0000
0010
0000
,
0001
0000
1100
0000
0010
0100
0001
0000
,
0001
0100
0010
0000
0100
1000
0100
0000
,
0001
0010
0001
0010
0001
0000
0000
0000
1000
0000
0001
1000
0000
0001
0000
1001
,
0000
0000
0000
0000
MMMM
0000
0000
0000
0010
0000
0100
0010
0000
0100
0000
0110
,
0000
0000
0000
0000
MMMM
0000
0000
0000
0001
0000
1000
0001
0000
1000
0000
1001
,
0000
0000
0000
0000
MMMM
0000
0000
0000
0100
0000
0010
0100
0000
0010
0000
0110
,
0000
0000
0000
0000
MMMM
0000
0000
0000
1000
0000
0100
1000
0000
0100
0000
0020
,
0000
0000
0000
0000
0130
0000
0000
0000
0100
0000
0010
0100
0000
0010
0000
0002
,
0000
0000
0013
0000
1000
0010
0001
0000
,
0001
0000
0010
0000
0100
0000
0000
0000
0001
0000
0010
0001
0000
0010
0000
0011
,
0000
0000
0000
0000
0000
0000
0000
0000
1000
0000
0100
1000
0000
0100
0000
0020
,
0000
0000
0000
0000
0130
0000
0000
0000
0100
0000
0010
0100
0000
0010
0000
0002
,
0000
0000
1003
0000
1000
0010
0001
0000
,
0001
0000
0010
0000
0100
0000
0100
0000
0001
0000
0010
0001
0000
0010
0000
0001
,
0000
0110
1100
0000
0000
0000
0000
0000
;

//---------------dance-single - K.W----------------
#NOTES:
     dance-single:
     K.W:
     Easy:
     3:
     0.213,0.000,0.271,0.009,0.000,130.000,29.000,1.000,0.000,0.000,0.000:
0000
0000
0000
0000
,
0000
0000
0000
0000
,
0000
0000
0000
0000
,
0000
0000
0000
0000
,
0010
0000
1000
0000
,
0010
0010
0000
0000
,
0100
0000
0001
0000
,
0010
0010
0000
0000
,
0001
0000
1000
0000
,
0001
0001
0000
0000
,
1000
0100
0010
0000
,
0010
0110
0000
0000
,
0001
0000
0010
0000
,
1000
0010
0001
0010
,
1000
0000
0001
0000
,
0010
0001
0100
0010
,
1000
0000
0001
0000
,
0010
0001
0100
0010
,
1000
0000
0001
0000
,
0110
0000
1100
0000
,
0000
0000
0011
0000
,
0000
0000
1100
0000
,
0000
0000
1001
0000
,
0000
0000
0110
0110
,
0000
0000
1100
1100
,
0000
0000
0011
0011
,
0000
0000
1001
1001
,
0000
0000
0001
0100
,
0010
0000
1000
0100
,
1000
0000
0001
0010
,
0001
0000
1000
1000
,
1000
0000
0010
0010
,
0100
0000
0001
0010
,
0001
0000
1000
0100
,
0010
0000
0000
0000
0000
0000
0000
0000
0020
0000
0000
0000
0000
0000
0000
0030
,
0000
0000
1001
0000
,
0000
0000
0000
0000
,
0000
0000
0001
1000
,
0001
0000
1000
1000
,
0000
0000
0001
1000
,
0001
0000
0001
0001
,
0000
0000
1000
0010
,
0100
0000
0001
0001
,
0000
0000
1000
0100
,
0010
0000
0100
0100
,
0000
0000
1000
0001
,
1000
0000
0001
0010
,
0100
1000
0001
0000
,
1000
0000
0010
0010
,
0000
0000
0110
0000
,
0000
0000
0011
0000
,
0000
0000
1100
0000
,
0000
0000
1001
0000
,
0000
0000
1001
1001
,
0000
0000
1100
1100
,
0000
0000
0011
0011
,
0000
0000
0110
0110
,
0110
0000
1000
0100
,
0010
0000
0010
0100
,
1000
0000
0001
0010
,
0001
0000
1000
0100
,
1000
1001
0000
0000
;

//---------------dance-single - C. Foy----------------
#NOTES:
     dance-single:
     C. Foy:
     Challenge:
     10:
     0.624,0.000,0.056,0.159,0.985,445.000,6.000,17.000,165.000,0.000,0.000:
0000
0000
0000
0000
,
0000
0000
0000
0000
,
0000
0000
0000
0000
,
0000
0000
0000
0000
0000
0000
0000
0000
0000
0000
0000
0000
0000
0000
0000
0000
0000
0000
1000
0100
1000
0100
0000
0000
,
100M
0000
0000
0010
000M
0000
0200
0000
001M
0000
0300
0000
000M
0000
0010
0000
,
100M
0000
0000
0100
000M
0000
0000
0000
000M
0000
0000
0000
000M
0000
0000
0000
,
010M
0000
0000
1000
000M
0000
0020
0000
100M
0030
0000
0000
000M
0000
0100
0000
,
100M
0000
0010
1000
001M
0100
0010
1000
0001
0100
0010
0100
0001
0010
0100
0010
,
M100
0000
0000
0010
M000
0000
0002
0000
M100
0003
0000
0000
M000
0000
0100
0000
,
M001
0000
0000
0100
M000
0000
0000
0000
M000
0000
0000
0000
M000
0000
0000
0000
,
M010
0000
0000
0100
M000
0000
0020
0000
M100
0000
0030
0000
M000
0000
0100
0000
,
M010
0000
0100
0001
M100
0010
0100
0001
1000
0100
0010
0100
1000
0001
0100
0001
,
01M0
0000
0000
0001
00M0
0000
0200
0000
00M1
0300
0000
0000
00M0
0000
0001
0000
,
10M0
0000
0000
0100
00M0
0000
0000
0000
00M0
0000
0000
0000
00M0
0000
0000
0000
,
10M0
0000
0000
0100
00M0
0000
2000
0000
00M1
3000
0000
0000
00M0
0000
0100
0000
,
00M1
0000
0100
0001
10M0
0100
1000
0001
0010
0100
1000
0100
0010
0001
1000
0001
,
1M00
0000
0000
0001
0M00
0000
2000
0000
0M10
3000
0000
0000
0M00
0000
1000
0000
,
0M01
0000
0000
0010
0M00
0000
0000
0000
0M00
0000
0000
0000
0M00
0000
0000
0000
,
0M01
0000
0000
1000
0M00
0000
0020
0000
1M00
0030
0000
0000
0M00
0000
0010
0000
,
1000
0100
0010
0001
0010
0100
1000
0010
0100
0000
0001
1000
0000
0100
0000
0010
,
0000
0100
1000
0100
1000
0000
0000
0000
1000
0010
0100
0001
0000
0010
0000
0001
,
0000
0010
0001
0010
0001
0000
0000
0000
1000
0000
0100
0010
0000
0010
0000
0001
,
0000
1000
0001
1000
0001
0000
0000
0000
0100
0001
1000
0010
0000
0100
0000
0001
,
0000
1000
0010
1000
0010
0000
0000
0000
0100
0000
0001
1000
0000
0001
0000
0100
,
0000
0001
0100
0001
0100
0000
0000
0000
0010
1000
0001
0010
0000
0010
0000
0001
,
0000
0100
0010
0100
0010
0000
0000
0000
1000
0000
0100
0010
0000
0010
0000
0001
,
0000
1000
0001
1000
0001
0000
0000
0000
0100
0010
1000
0001
0000
0010
0000
0010
,
0000
0100
1000
0100
1000
0000
0000
0000
1000
0000
0000
0100
0000
0010
0000
0100
,
0000
1000
0100
0010
0001
0000
0000
0000
0100
0000
0010
1000
0000
0100
0000
0010
,
0000
0001
0010
0100
1000
0000
0000
0000
0010
0000
0100
0001
0000
0010
0000
0100
,
0000
1000
0010
0100
0001
0000
0000
0000
0100
0000
0010
1000
0000
0100
0000
1000
,
0000
0001
0100
0010
1000
0000
0000
0000
0100
0000
0000
0010
0000
0100
0000
1000
,
0000
0010
0100
0010
1000
0000
0000
0000
0100
0000
0010
0100
0000
0010
0000
0001
,
0000
0100
0001
0100
0010
0000
0000
0000
1000
0000
1000
0001
0000
0100
0000
0010
,
0000
1000
0010
0100
0010
0000
1000
0000
0100
0000
0010
0100
0000
0100
0000
1000
,
0000
1100
1001
0101
1001
0000
0000
M1MM
,
0000
0000
MMMM
0000
,
0000
0000
0000
0000
0000
0000
0000
0000
0000
0000
0000
0000
0010
0000
0100
0000
0010
0000
0100
0000
0000
0000
0000
0000
M001
0000
0000
0000
0000
0000
0000
0000
0000
0010
0000
0000
M000
0000
0000
0000
0000
0000
0020
0000
0000
0000
0000
0000
,
M001
0000
0030
0000
M000
0000
0001
0000
M100
0000
0000
0010
M000
0000
0200
0000
,
M002
0300
0000
0023
M000
0000
0030
0000
M100
0000
0000
0010
M000
0000
0020
0000
,
M100
0030
0000
0000
M000
0000
0010
0000
M001
0000
0100
0010
M100
0001
0100
0001
,
1000
0001
0010
0100
1000
0100
0010
0100
001M
0000
0000
0010
000M
0000
0200
0000
,
001M
0000
0300
0000
000M
0000
0100
0000
100M
0000
0000
0010
000M
0000
0000
0000
,
000M
0000
0000
0000
000M
0000
0000
0000
001M
0000
0000
1000
000M
0000
0200
0000
,
001M
0000
0300
0000
000M
0000
0100
0000
100M
0000
0010
0100
001M
1000
0010
0100
,
0001
1000
0010
0100
0001
1000
0010
1000
0M10
0000
0000
0010
0M00
0000
2000
0000
,
0M10
3000
0000
0000
0M00
0000
1000
0000
0M10
0000
0000
0010
0M00
0000
0000
0000
,
0M00
0000
0000
0000
0M00
0000
0000
0000
1M00
0000
0000
0001
0M00
0000
0020
0000
,
0M01
0030
0000
0000
0M00
0000
0001
0000
1M00
0000
0010
1000
0M01
1000
0010
0100
,
0001
1000
0100
0010
0100
1000
0001
0010
MM01
0000
0010
0001
MM00
0001
0000
0010
,
MM00
0001
0010
0001
MM10
0000
0000
0000
01MM
1000
0100
1000
00MM
1000
0000
0100
,
00MM
0100
1000
0100
10MM
0000
0000
0000
M0M1
0000
0100
0001
M0M0
0001
0000
0100
,
M0M0
0100
0001
0100
M0M1
0000
0000
0000
M10M
0010
0100
0010
M00M
0100
0000
0100
,
M00M
0010
0100
0010
M10M
0000
0000
0000
0MM1
0000
0001
1000
0MM0
0001
0000
1000
,
0MM0
1000
0001
1000
0MM1
0000
0000
0000
1M0M
0010
1000
0010
0M0M
0010
0000
1000
,
0M0M
1000
0010
1000
0M1M
0000
0000
0000
M1M0
0000
0100
0001
M0M0
0001
0000
0100
,
M0M0
0000
0000
0000
0MM1
0000
0001
0000
1MM0
0000
1000
0001
0MM0
1000
0000
0001
,
0MM0
0000
0000
0000
0000
0000
0000
0000
0001
0000
1000
0010
0000
0100
0000
0100
,
0000
0001
0100
0010
1000
0000
0000
0000
1000
0000
0100
0010
0000
0100
0000
0010
,
0000
0001
1000
0010
0100
0000
0000
0000
0010
1000
0001
0100
0000
0010
0000
0010
,
0000
0000
1000
0000
0100
0000
1000
0000
0010
0100
0001
1000
0000
0010
0000
0010
,
0000
0110
1001
0000
0000
0000
0000
0000
;

//---------------dance-double - M.Emirzian----------------
#NOTES:
     dance-double:
     M.Emirzian:
     Easy:
     2:
     0.139,0.000,0.019,0.019,0.000,100.000,2.000,2.000,0.000,0.000,0.000:
00000000
00000000
00000000
00000000
,
00000000
00000000
00000000
00000000
,
00000000
00000000
00000000
00000000
,
00000000
00000000
00000000
00000000
,
00010000
00000000
01000000
00000000
,
00001000
00000000
00000000
00000000
,
00010000
00000000
00001000
00000000
,
00000010
00000000
00000000
00000000
,
00000001
00000000
00000100
00000000
,
00000010
00000000
00000000
00000000
,
00001000
00000000
00000100
00000000
,
00010000
00000000
00000000
00000000
,
00001000
00000000
01000000
00000000
,
00010000
00000000
00000000
00000000
,
00001000
00000000
00000100
00000000
,
00001000
00000000
00000000
00000000
,
00010000
00000000
00100000
00000000
,
10000000
00000000
00000000
00000000
,
01000000
00000000
00100000
00000000
,
00010000
00000000
01000000
01000000
,
00000000
00000000
00001000
00001000
,
00000000
00000000
00010000
00010000
,
00000000
00000000
00000100
00000100
,
00000000
00000000
00000001
00000001
,
00000000
00000000
00001000
00001000
,
00000000
00000000
00010000
00010000
,
00000000
00000000
10000000
10000000
,
00000000
00000000
00100000
00100000
,
00000000
00000000
01000000
01000000
,
00000000
00000000
00001000
00001000
,
00000000
00000000
00000010
00000010
,
00000000
00000000
00000001
00000001
,
00000000
00000000
00001000
00001000
,
00000000
00000000
00000100
00000100
,
00000000
00000000
00010000
00010000
,
00000000
00000000
00022000
00000000
,
00000000
00000000
00000000
00000000
,
00000000
00033000
00100000
00000000
,
10000000
00000000
01000000
00000000
,
00000000
00000000
00010000
00000000
,
10000000
00000000
01000000
00000000
,
00000000
00000000
00001000
00000000
,
00010000
00000000
00001000
00000000
,
00000000
00000000
00000100
00000000
,
00000001
00000000
00001000
00000000
,
00000000
00000000
00000100
00000000
,
00000001
00000000
00000010
00000000
,
00000000
00000000
00001000
00000000
,
00010000
00000000
00100000
00000000
,
00000000
00000000
10000000
10000000
,
00000000
00000000
00010000
00010000
,
00000000
00000000
00001000
00001000
,
00000000
00000000
00000001
00000001
,
00000000
00000000
00000100
00000100
,
00000000
00000000
00010000
00010000
,
00000000
00000000
00001000
00001000
,
00000000
00000000
01000000
01000000
,
00000000
00000000
00100000
00100000
,
00000000
00000000
10000000
10000000
,
00000000
00000000
01000000
01000000
,
00000000
00000000
00100000
00100000
,
00000000
00011000
00000000
00000000
;

//---------------dance-double - M.Emirzian----------------
#NOTES:
     dance-double:
     M.Emirzian:
     Medium:
     5:
     0.343,0.000,0.028,0.140,0.009,239.000,3.000,15.000,0.000,0.000,0.000:
00000000
00000000
00000000
00000000
,
00000000
00000000
00000000
00000000
,
00000000
00000000
00000000
00000000
,
00000000
00000000
00000000
00000000
,
01000000
00000000
00000000
00100000
00010000
00000000
00000000
00100000
,
01000000
10000000
00010000
01000000
,
00001000
00000000
00000000
00010000
00000100
00000000
00000000
00001000
,
00000010
00000100
00000001
00000010
,
00001000
00000000
00000000
00000010
00000001
00000000
00000000
00000100
,
00000010
00001000
00000100
00010000
,
00001000
00000000
00000000
00010000
00000100
00000000
00000000
00010000
,
00001000
01000000
00100000
10000000
,
01000000
00000000
00000000
00100000
01000000
00000000
00000000
10000000
,
00010000
01000000
00001000
00010000
,
00000100
00000000
00000000
00000010
00000100
00000000
00000000
00001000
,
00000001
00000100
00000010
00001000
,
00000100
00000000
00000000
00010000
00001000
00000000
00000000
00010000
,
00000100
00010000
00001000
01000000
,
00010000
00000000
00000000
10000000
01000000
00000000
00000000
00100000
,
00010000
01000000
00100000
10000000
01000000
00000000
00100000
00001000
,
00200000
00000000
00000000
00000000
00301000
00000000
00010000
00000100
,
00010000
00000000
00001000
00000000
00000100
00000000
00000001
00001000
,
00000002
00000000
00000000
00000000
00000103
00000000
00001000
00010000
,
00001000
00000000
00000100
00000000
00001000
00000000
00010000
00001000
,
00020000
00000000
00000000
00000000
01030000
00000000
10000000
00100000
,
10000000
00000000
00010000
00000000
00100000
00000000
01000000
10000000
,
02000000
00000000
00000000
00000000
03010000
00000000
00001000
00010000
,
00001000
00000000
00000100
00000000
00000001
00000000
00000010
00000100
,
00000020
00000000
00000000
00000000
00000031
00000000
00000100
00000010
,
00001000
00000000
00000100
00000000
00010000
00000000
00001000
00010000
,
00002000
00000000
00000000
00000000
00013000
00000000
01000000
10000000
,
01000000
00000000
00100000
00000000
00010000
00000000
01000000
00100000
,
02000000
00000000
00000000
00000000
03010000
00000000
01000000
00001000
,
00010000
00000000
00000100
00000000
00001000
00000000
00000010
00000100
,
00000020
00000000
00000000
00000000
00000000
00000000
00000000
00000000
00001030
00000000
00000000
00000000
00000100
00000000
00000000
00000010
,
00000000
00000000
00000001
00001000
00002002
00000000
00000000
00000000
,
00000000
00000000
00000000
00000000
,
00000000
00000000
00003003
00000000
00000100
00000000
00000000
00000010
,
00010000
00000000
00001000
00000000
,
01001000
00000000
00000000
00000000
00001000
00000000
00000000
01000000
,
00010000
00000000
00000000
00100000
00010000
00000000
10000000
00000000
,
00100000
01000000
00001000
00010000
00000100
00000000
00000000
00001000
,
00000010
00000000
00000000
00000100
00000001
00000000
00000010
00000000
,
00000100
00000000
00001000
00000000
00000001
00000000
00000000
00000100
,
00001000
00000000
00000000
00010000
00001000
00000000
00000100
00000000
,
00001000
00000000
00010000
00000000
00100000
00000000
00000000
10000000
,
01000000
00000000
00000000
00100000
00010000
00000000
01000000
00000000
,
00001000
00000000
00010000
00000000
00000100
00000000
00000000
00000010
,
00000100
00000000
00000000
00001000
00000001
00000000
00000100
00000000
,
00000010
00000000
00001000
00000000
00000100
00000000
00010000
00001000
,
00020000
00000000
00000000
00000000
01030000
00000000
00100000
00010000
,
00100000
00000000
01000000
00000000
10000000
00000000
00100000
01000000
,
00200000
00000000
00000000
00000000
01300000
00000000
00001000
00010000
,
00001000
00000000
00000010
00000000
00000001
00000000
00000100
00000010
,
00000200
00000000
00000000
00000000
00000301
00000000
00000010
00000100
,
00010000
00000000
00001000
00000000
00000100
00000000
00001000
00010000
,
00002000
00000000
00000000
00000000
00013000
00000000
01000000
10000000
,
01000000
00000000
00100000
00000000
00010000
00000000
01000000
00100000
,
02000000
00000000
00000000
00000000
03010000
00000000
00100000
01000000
,
10000000
00000000
01000000
00000000
00010000
00000000
00001000
00010000
,
00001000
00000000
00000000
00000000
00000100
00000000
00000000
00000000
00000001
00000000
00000000
00000000
00000010
00000000
00000000
00000100
,
00000000
00001000
00001001
00000000
00000000
00000000
00000000
00000000
;

//---------------dance-double - M.Emirzian----------------
#NOTES:
     dance-double:
     M.Emirzian:
     Hard:
     7:
     0.493,0.000,0.168,0.028,0.303,349.000,18.000,3.000,6.000,0.000,0.000:
00000000
00000000
00000000
00000000
,
00000000
00000000
00000000
00000000
,
00000000
00000000
00000000
00000000
,
00000000
00000000
00000000
00000000
,
00010000
00000000
00000000
01000000
00000000
00000000
10000000
00000000
01000000
00000000
0M000000
00000000
00000000
00000000
00010000
00000000
,
00100000
00000000
00000000
00001000
00000000
00000000
00000000
00000000
00011000
00000000
00000000
00000000
00010010
00000000
00000000
00000000
,
00001000
00000100
00000010
00000100
00010000
00000000
00001010
00000000
,
00000100
00000001
00000010
00001000
00000010
00000001
00000100
00000000
,
00000010
00000000
00000000
00001000
00000000
00000000
00000100
00000000
00010000
00000000
000M0000
00000000
00000000
00000000
00001000
00000000
,
00010000
00000000
00000000
01000000
00000000
00000000
00000000
00000000
10000000
00000000
00000000
00000000
10100000
00000000
00000000
00000000
,
01000000
00010000
00100000
00001000
00010000
00000000
01001000
00000000
,
00010000
00001000
00000010
00000100
00000010
00001000
00010000
00000000
,
00000100
00000000
00000000
00000010
00000000
00000000
00000001
00000000
00000010
00000000
000000M0
00000000
00000000
00000000
00000100
00000000
,
00001000
00000000
00000000
00000001
00000000
00000000
00000000
00000000
00000100
00000000
00000000
00000000
00001010
00000000
00000000
00000000
,
00000100
00010000
00001000
01000000
00100000
00000000
10010000
00000000
,
00100000
01000000
10000000
00100000
01000000
00100000
10000000
00000000
,
01000000
00000000
00000000
00100000
00000000
00000000
00001000
00000000
00010000
00000000
000M0000
00000000
00000000
00000000
00001000
00000000
,
00000100
00000000
00000000
00000001
00000000
00000000
00000000
00000000
00000010
00000000
00000000
00000000
00001100
00000000
00000000
00000000
,
00000001
00000100
00000010
00000100
00000001
00000000
00001010
00000000
,
00010000
00000000
00001000
00000000
01000000
00000000
00001000
00000000
00010000
00000000
00001000
00010000
00000000
00001000
00000000
01000000
,
00000000
00000000
00010000
00000000
10000000
00000000
00000000
00000000
00100000
00000000
10000000
01000000
00000000
00100000
00000000
00001000
,
00000000
00010000
00001000
00000000
00010000
00100000
00010000
00001000
,
00000010
00001000
00010000
00000000
00001000
00000100
00000010
00000100
,
00001000
00000000
00010000
00000000
00000010
00000000
00000000
00000000
00001000
00000000
00000100
00000010
00000000
00000100
00000000
00001000
,
00000000
00000000
00000001
00000000
00000100
00000000
00000000
00000000
00000010
00000000
00001000
00000100
00000000
00010000
00000000
00001000
,
00000000
00000100
00001000
00000000
00010000
00100000
10000000
00100000
,
00010000
00001000
01000000
00000000
00100000
10000000
01000000
10000000
,
00100000
00000000
00010000
00000000
00001000
00000000
00000000
00000000
00010000
00000000
00001000
01000000
00000000
00100000
00000000
01000000
,
00000000
00000000
00010000
00000000
10000000
00000000
00000000
00000000
01000000
00000000
00100000
00010000
00000000
00100000
00000000
01000000
,
00000000
10000000
00100000
00000000
01000000
00100000
00010000
00001000
,
00010000
00100000
01000000
00000000
00001000
00010000
01000000
00010000
,
00001000
00000000
00000100
00000000
00001000
00000000
00000000
00000000
00010000
00000000
00001000
01000000
00000000
00001000
00000000
00010000
,
00000000
00000000
00000100
00000000
00001000
00000000
00000000
00000000
00000010
00000000
00010000
00001000
00000000
00010000
00000000
00000100
,
00000000
00000010
00000100
00000000
00001000
00000010
00000100
00001000
,
00010000
00000000
00001000
00000000
00000100
00000000
00000000
00000000
00000001
00000000
00001000
00000100
00000000
00000010
00000000
00000001
,
00000000
00000100
00000010
00001000
00000200
00000000
00000000
00000000
,
00020300
00000000
00032000
00000000
,
01003000
00000000
00000000
00000000
10100000
00000000
00000000
00000000
10000000
00000000
00000000
01000000
00000000
00000000
00100000
00000000
,
00010000
00000000
00000000
00000000
00000000
00000000
10000000
00000000
00100000
00000000
00000000
00010000
00000000
00000000
00100000
00000000
,
10000000
00000000
01000000
00000000
00000000
00000000
00000000
00000000
00100000
00000000
00000000
00001000
00000000
00000000
00010000
00000000
,
00000100
00000000
00000000
00000000
00000000
00000000
00000010
00000000
00000001
00000000
00000000
00001000
00000000
00000000
00000000
00000000
,
00000010
00000000
00000000
00000000
00001000
00000000
00000000
00000000
00000100
00000000
00000000
00000010
00000000
00000000
00000001
00000000
,
00001000
00000000
0000M000
00000000
00000000
00000000
00000001
00000000
00000100
00000000
00000000
00000010
00000000
00000000
00000000
00000000
,
00011000
00000000
01001000
00000000
00010000
01000000
00100000
01000000
,
00001000
00000000
00110000
00000000
01000000
10000000
00100000
00010000
,
00100000
00000000
10000000
00000000
01000000
00000000
00000000
00000000
00100000
00000000
00000000
00010000
00000000
00000000
01000000
00000000
,
00001000
00000000
0000M000
00000000
00000000
00000000
00010000
00000000
00001000
00000000
00000000
00000010
00000000
00000000
00000000
00000000
,
00000001
00000000
00001100
00000000
00000001
00000100
00000010
00001000
,
00000100
00000000
00000000
00000000
00010100
00000000
00000000
00000000
00001100
00000000
00000000
00010100
00000000
00000000
00001000
00000000
,
00000100
00000000
00001000
00000000
00010000
00000000
00000000
00000000
00001000
00000000
00010000
00001000
00000000
01000000
00000000
00001000
,
00000000
00000000
00010000
00000000
01000000
00000000
00000000
00000000
10000000
00000000
00100000
01000000
00000000
00100000
00000000
10000000
,
00000000
01000000
00100000
00000000
00010000
01000000
00100000
00010000
,
00001000
00010000
00100000
00000000
00010000
00001000
00000010
00001000
,
00010000
00000000
01000000
00000000
00010000
00000000
00000000
00000000
00001000
00000000
00010000
00000100
00000000
00010000
00000000
00001000
,
00000000
00000000
00000100
00000000
00000001
00000000
00000000
00000000
00000010
00000000
00000100
00001000
00000000
00000100
00000000
00000010
,
00000000
00000001
00000100
00000000
00001000
00010000
00001000
00000100
,
00000010
00010000
00001000
00000000
00000010
00001000
00010000
00100000
,
01000000
00000000
00100000
00000000
00010000
00000000
00000000
00000000
00001000
00000000
01000000
00010000
00000000
00100000
00000000
01000000
,
00000000
00000000
00100000
00000000
00010000
00000000
00000000
00000000
10000000
00000000
00100000
00010000
00000000
00001000
00000000
01000000
,
00000000
00001000
00010000
00000000
01000000
00100000
00010000
01000000
,
00100000
00000000
00010000
00000000
00001000
00000000
00000000
00000000
00000010
00000000
00000100
00001000
00000000
00000010
00000000
00000100
,
00000000
00000001
00001001
00000000
00000000
00000000
00000000
00000000
;

//---------------dance-double - M.Emirzian----------------
#NOTES:
     dance-double:
     M.Emirzian:
     Challenge:
     9:
     0.639,0.000,0.495,0.084,0.742,417.000,53.000,9.000,19.000,1.000,0.000:
00000000
00000000
00000000
00000000
,
00000000
00000000
00000000
00000000
,
00000000
00000000
00000000
00000000
,
00000000
00000000
00000000
00000000
,
01000100
00000000
00000000
01001000
00000000
00000000
00010000
00000000
01010000
00000000
00000000
00000000
00000000
00000000
00001000
00000000
,
00011000
00000000
00000000
00010010
00000000
00000000
00000000
00000000
00001100
00000000
00000000
00000000
00010010
00000000
00000000
00000000
,
00000100
00000010
00000001
00000100
00000010
00000100
00000001
00000000
,
00000010
00001000
00010000
00100000
00010000
00001000
00000100
00000000
,
00011000
00000000
00000000
00100010
00000000
00000000
00010000
00000000
01001000
00000000
00000000
00000000
00000000
00000000
01000000
00000000
,
01001000
00000000
00000000
01100000
00000000
00000000
00000000
00000000
01001000
00000000
00000000
00000000
00011000
00000000
00000000
00000000
,
00001000
00010000
00100000
01000000
00100000
10000000
00010000
00000000
,
00100000
01000000
10000000
00100000
00010000
00001000
01000000
00000000
,
00011000
00000000
00000000
01000100
00000000
00000000
00001000
00000000
00010010
00000000
00000000
00000000
00000000
00000000
00000010
00000000
,
00001100
00000000
00000000
00001001
00000000
00000000
00000000
00000000
00010010
00000000
00000000
00000000
00011000
00000000
00000000
00000000
,
00001000
00010000
00100000
01000000
00100000
00010000
00001000
00000000
,
00100000
01000000
10000000
00100000
00010000
00001000
01000000
00000000
,
00110000
00000000
00000000
10010000
00000000
00000000
01000000
00000000
00110000
00000000
00000000
00000000
00000000
00000000
01000000
00000000
,
01001000
00000000
00000000
01000100
00000000
00000000
00000000
00000000
00010100
00000000
00000000
00000000
00001010
00000000
00000000
00000000
,
00000100
00000001
00000100
00001000
00010000
00001000
00000100
00000000
,
00001000
00000000
00010000
00000000
00000100
00000000
00010000
00000000
00001000
01000000
00001000
00010000
00000000
01000000
00000000
10000000
,
00000000
00100000
01000000
00010000
10000000
00000000
00000000
00000000
01000000
00100000
00010000
01000000
00000000
00100000
00000000
01000000
,
00000000
00001000
00010000
00000100
00001000
00000000
00000000
00000000
00000001
00000100
00000010
00000100
00000000
00000001
00000000
00001000
,
00000000
00000100
00000010
00000100
00010000
00000000
00000000
00000000
00001000
00010000
00000100
00010000
00000000
00001000
00000000
01000000
,
00000000
00010000
01000000
00100000
10000000
00000000
00000000
00000000
01000000
00100000
00010000
10000000
00000000
00100000
00000000
01000000
,
00000000
00100000
10000000
00010000
01000000
00000000
00000000
00000000
00001000
00010000
00000100
00010000
00000000
00001000
00000000
00000100
,
00000000
00000001
00000010
00000100
00000010
00000000
00000000
00000000
00000001
00000100
00000010
00001000
00000000
00000100
00000000
00010000
,
00000000
00001000
00010000
00000100
00010000
00000000
00000000
00000000
00001000
01000000
00001000
00010000
00000000
00100000
00000000
10000000
,
00000000
01000000
00100000
01000000
10000000
00000000
00000000
00000000
00010000
01000000
00100000
10000000
00000000
01000000
00000000
00020000
,
MMM00000
00000000
00000000
00000000
01000000
00000000
00000000
00030000
10000000
00100000
01000000
00001000
00000000
00010000
00000000
00000200
,
000MM000
00000000
00000000
00000000
00010000
00000000
00000000
00000300
00000010
00000100
00001000
00000001
00000000
00000100
00000000
00000010
,
00000000
00000000
00000000
00000000
00011000
00000000
00000000
00000000
01000000
10000000
00010000
00100000
00000000
01000000
00000000
20000000
,
0MMM0000
00000000
00000000
00000000
01000000
00000000
00000000
00000000
30100000
01000000
00001000
00010000
00000000
00000100
00000000
00000020
,
0000MM0M
00000000
00000000
00000000
00000100
00000000
00000000
00000000
00000031
00000100
00000010
00001000
00000000
00000100
00000000
00020000
,
0000MM00
00000000
00000000
00000000
00000100
00000000
00000000
00000000
00031000
01000000
00010000
00100000
00000000
01000000
00000000
10000000
,
00000000
00000000
00010000
00000000
01000000
00000000
00100000
00000000
10000000
01000000
00100000
00001000
00000000
00010000
00000000
00000100
,
00000000
00000010
00000001
00000100
00000010
00000000
00001000
00000000
,
00000100
00010000
00001000
00000200
,
00000020
00000000
00000000
00000000
00011000
00000330
00000000
00000000
00000110
00000000
00000000
00010010
00000000
00000000
00001000
00000000
,
00001100
00000000
00000000
00000000
00000000
00000000
00010000
00000000
00011000
00000000
00000000
01001000
00000000
00000000
00010000
00000000
,
00100000
01010000
00000000
00000000
00100000
10000000
01000000
00100000
,
00001000
00010000
00000100
00000000
00010000
00001000
00000100
00000010
,
00000100
00000000
00001000
00000000
00010000
00000000
00000000
00000000
00011000
00000000
00000000
01000100
00000000
00000000
00001000
00000000
,
00010010
00000000
00000000
00000000
00000000
00000000
00000010
00000000
00001100
00000000
00000000
00010100
00000000
00000000
00000000
00000000
,
00001001
00000000
00001100
00000000
00010000
00001000
00000100
00001000
,
00010000
00100000
01000000
00000000
00100000
00010000
00001000
00010000
,
00100000
00000000
10000000
00000000
01000000
00000000
00000000
00000000
00110000
00000000
00000000
00100010
00000000
00000000
00001000
00000000
,
00010100
00000000
00000000
00000000
00000000
00000000
00001000
00000000
00011000
00000000
00000000
00010100
00000000
00000000
00000000
00000000
,
00001010
00000000
00000011
00000000
00000001
00000010
00001000
00000010
,
00000001
00000000
00000100
00000000
00001000
00000000
00000000
00000000
00010000
00000000
00000000
00001000
00000000
00000000
01000000
00000000
,
00001000
00000000
00010000
00000000
01000100
00000000
00000000
00000000
00001000
00010000
00001000
01000000
00000000
00010000
00000000
00100000
,
00000000
01000000
10000000
00010000
01000000
00000000
00000000
00000000
00100000
10000000
00010000
01000000
00000000
00001000
00000000
00010000
,
00000000
00000100
00010000
00000100
00001000
00000000
00000000
00000000
00000001
00000100
00000010
00001000
00000000
00000100
00000000
00000010
,
00000000
00000100
00001000
00000001
00000100
00000000
00000000
00000000
00000010
00010000
00001000
01000000
00000000
00001000
00000000
00010000
,
00000000
01000000
00100000
01000000
10000000
00000000
00000000
00000000
00010000
01000000
00100000
10000000
00000000
01000000
00000000
00100000
,
00000000
00001000
00010000
00000100
00001000
00000000
00000000
00000000
00000001
00000010
00000001
00000100
00000000
00000010
00000000
00000100
,
00000000
00000001
00000100
00000010
00001000
00000000
00000000
00000000
00000100
00010000
00001000
01000000
00000000
00100000
00000000
10000000
,
00000000
01000000
00100000
00010000
10000000
00000000
00000000
00000000
00100000
01000000
00100000
10000000
00000000
01000000
00000000
00100000
,
00000000
00001000
00010000
00000100
00001000
00000000
00000000
00000000
00000001
00000010
00000100
00001000
00000000
00000001
00000000
00000200
,
0000M0MM
00000000
00000000
00000000
00000001
00000000
00000000
00000000
00000310
00010000
00001000
01000000
00000000
00010000
00000000
00200000
,
MM0M0000
00000000
00000000
00000000
00010000
00000000
00000000
00000000
01300000
10000000
00010000
00100000
00000000
01000000
00000000
00100000
,
00000000
00000000
00001000
00000000
00010000
00000000
00000100
00000000
00001000
00000010
00000100
00000001
00000000
00000010
00000000
00000100
,
00000000
00000110
00010100
00000000
00000000
00000000
00000000
00000000
;

//---------------dance-single - K. Ward----------------
#NOTES:
     dance-single:
     K. Ward:
     Beginner:
     1:
     0.088,0.000,0.009,0.000,0.000,65.000,1.000,0.000,0.000,0.000,0.000:
0000
0000
0000
0000
,
0000
0000
0000
0000
,
0000
0000
0000
0000
,
0000
0000
0000
0000
,
0001
0000
0000
0000
,
1000
0000
0000
0000
,
0100
0000
0000
0000
,
1000
0000
0000
0000
,
0010
0000
0000
0000
,
0001
0000
0000
0000
,
1000
0000
0000
0000
,
0100
0000
0000
0000
,
0010
0000
0000
0000
,
0001
0000
0000
0000
,
1000
0000
0000
0000
,
0010
0000
0000
0000
,
1000
0000
0000
0000
,
0001
0000
0000
0000
,
0010
0000
0000
0000
,
0010
0000
0010
0000
,
0000
0000
0100
0000
,
0000
0000
0010
0000
,
0000
0000
0100
0000
,
0000
0000
0010
0000
,
0000
0000
0001
0000
,
0000
0000
0100
0000
,
0000
0000
0010
0000
,
0000
0000
1000
0000
,
0000
0000
0010
0000
,
0000
0000
0001
0000
,
1000
0000
0001
0000
,
0000
0000
0010
0000
,
0000
0000
0001
0000
,
0000
0000
1000
0000
,
0001
0000
1000
0000
,
0000
0000
1000
0000
,
0000
0000
0000
0000
,
0000
0000
0001
0000
,
0001
0000
0001
0000
,
0000
0000
1000
0000
,
1000
0000
1000
0000
,
0000
0000
0010
0000
,
0010
0000
0010
0000
,
0000
0000
0100
0000
,
0100
0000
0100
0000
,
0000
0000
0001
0000
,
0000
0000
1000
0000
,
0000
0000
0001
0000
,
0001
0000
0001
0000
,
0000
0000
1000
0000
,
0000
0000
0100
0000
,
0000
0000
1000
0000
,
0000
0000
0010
0000
,
0000
0000
1000
0000
,
0000
0000
0100
0000
,
0000
0000
1000
0000
,
0000
0000
0001
0000
,
0000
0000
0010
0000
,
0000
0000
0100
0000
,
0000
0000
1000
0000
,
0000
0000
0001
0000
,
0000
1001
0000
0000
;
