#TITLE:Lipstick Kiss;
#SUBTITLE:;
#ARTIST:Ernest + Julio;
#TITLETRANSLIT:;
#SUBTITLETRANSLIT:;
#ARTISTTRANSLIT:;
#GENRE:Rock;
#CREDIT:;
#BANNER:Lipstick Kiss-banner.png;
#BACKGROUND:Lipstick Kiss-bg.png;
#LYRICSPATH:;
#CDTITLE:;
#MUSIC:Lipstick Kiss.ogg;
#OFFSET:0.008;
#SAMPLESTART:32.000;
#SAMPLELENGTH:11.960;
#SELECTABLE:YES;
#BPMS:0.000=165.000;
#STOPS:;
#BGCHANGES:0.000=Lipstick Kiss-bg.png=1.000=0=0=1=====,
16.000=In The Groove 2/461_JumpBack.mpg=1.000=0=0=1=====,
32.000=In The Groove 2/449_JumpBack.mpg=1.000=0=0=1===FadeLeft==,
40.000=In The Groove 2/449_JumpBack.mpg=1.000=1=0=1=SongBgWithMovieViz==CrossFade==,
44.000=In The Groove 2/429_JumpBack.mpg=1.000=0=0=1=====,
60.000=In The Groove 2/431_JumpBack.mpg=0.300=0=0=1=Kaleidoscope2x2====,
76.000=In The Groove 2/759_JumpBack.mpg=1.000=0=0=1===SlideLeft==,
88.000=In The Groove 2/461_JumpBack.mpg=1.000=0=0=1=====,
96.000=In The Groove 2/461_JumpBack.mpg=0.300=0=0=1=Checkerboard1File2x2====,
104.000=In The Groove 2/651_JumpBack.mpg=1.000=0=0=1=====,
112.000=In The Groove 2/651_JumpBack.mpg=0.300=0=0=1=Checkerboard1File2x2====,
120.000=In The Groove 2/620_JumpBack.mpg=1.000=0=0=1=====,
128.000=In The Groove 2/620_JumpBack.mpg=0.300=0=0=1=Checkerboard1File2x2====,
136.000=In The Groove 2/920_JumpBack.mpg=1.000=0=0=1=====,
144.000=In The Groove 2/920_JumpBack.mpg=0.300=0=0=1=Checkerboard1File2x2====,
152.000=In The Groove 2/429_JumpBack.mpg=1.000=0=0=1=SongBgWithMovieViz====,
168.000=In The Groove 2/464_JumpBack.mpg=1.000=1=0=1=SongBgWithMovieViz==CrossFade==0.5^0.5^0.5^1,
184.000=In The Groove 2/952_JumpBack.mpg=1.000=0=0=1=====,
216.000=In The Groove 2/964_JumpBack.mpg=1.000=0=0=1=====,
224.000=In The Groove 2/964_JumpBack.mpg=0.300=0=0=1=Checkerboard1File2x2====,
232.000=In The Groove 2/449_JumpBack.mpg=1.000=0=0=1=====,
240.000=In The Groove 2/449_JumpBack.mpg=0.300=0=0=1=Checkerboard1File2x2====,
248.000=In The Groove 2/464_JumpBack.mpg=1.000=0=0=1=====,
256.000=In The Groove 2/464_JumpBack.mpg=0.300=0=0=1=Checkerboard1File2x2====,
264.000=In The Groove 2/461_JumpBack.mpg=1.000=0=0=1=====,
272.000=In The Groove 2/461_JumpBack.mpg=0.300=0=0=1=Checkerboard1File2x2====,
280.000=In The Groove 2/429_JumpBack.mpg=1.000=0=0=1=SongBgWithMovieViz====,
284.000=Lipstick Kiss-bg.png=1.000=0=0=1=====,
99999=-nosongbg-=1.000=0=0=0 // don't automatically add -songbackground-
;
#BGCHANGES2:16.000=white flash=1.000=0=0=1=====,
44.000=yellow flash=1.000=0=0=1=====,
88.000=white flash=1.000=0=0=1=====,
104.000=white flash=1.000=0=0=1=====,
120.000=white flash=1.000=0=0=1=====,
152.000=white flash=1.000=0=0=1=====,
184.000=white flash=1.000=0=0=1=====,
216.000=white flash=1.000=0=0=1=====,
284.000=white flash=1.000=0=0=1=====,
;
#KEYSOUNDS:;
// cache tags:
#FIRSTBEAT:16.000;
#LASTBEAT:284.000;
#SONGFILENAME:/Songs/In The Groove 2/Lipstick Kiss/Lipstick Kiss.sm;
#HASMUSIC:1;
#HASBANNER:1;
#MUSICLENGTH:106.181;
// end cache tags

//---------------dance-single - R. McKanna----------------
#NOTES:
     dance-single:
     R. McKanna:
     Hard:
     7:
     0.480,0.000,0.339,0.509,0.028,267.000,36.000,54.000,23.000,0.000,0.000:
0000
0000
0000
0000
,
0000
0000
0000
0000
,
0000
0000
0000
0000
,
0000
0000
0000
0000
,
0010
0000
0000
0000
0000
0100
0001
0010
,
0000
0010
0000
0010
0000
0010
0000
0000
,
0200
0000
0000
1000
0000
0000
1000
0000
,
0000
1000
0000
0000
1300
0000
1000
0000
,
0100
0000
0000
0000
0000
0100
1000
0010
,
0000
0010
0000
0010
0000
0010
0000
0000
,
0100
0001
0010
0100
1000
0010
0100
0001
,
0020
0000
0130
0020
0000
0031
0000
0000
,
0200
0000
0310
0200
0000
0301
0000
0000
,
2000
0000
3100
2000
0000
3010
0000
0000
,
0200
0000
0301
0020
0000
0031
0000
1000
,
0200
0000
0310
0200
0000
1300
0000
1000
,
0010
0000
0101
0000
0000
1000
0000
1000
,
0001
0000
0011
0000
0000
0100
0000
0100
,
0002
0000
2003
0000
,
3001
0000
0100
0000
0000
0100
0000
0100
,
0000
0000
1001
0000
0000
0100
0000
0100
,
0020
0000
0000
0130
,
1001
0000
0000
0000
0000
1000
0001
1000
,
0000
1010
0000
1000
0000
1100
0000
0000
,
0020
0000
0000
0100
0000
0000
0001
0000
,
0000
0100
0000
0000
0031
0000
0100
0000
,
0110
0000
0000
0000
0000
1000
0001
0010
,
0000
0100
0000
1000
0000
0010
0000
0000
,
2000
0000
0000
0001
0000
0000
0010
0000
,
0000
0100
0000
0000
3010
0000
0001
0000
,
1001
0000
0000
0000
0000
0010
1000
0001
,
0000
0011
0000
0001
0000
0101
0000
0000
,
0200
0000
0000
0010
0000
0000
1000
0000
,
0000
0010
0000
0000
1300
0000
0010
0000
,
0110
0000
0000
0000
0000
0001
1000
0100
,
0000
0010
0000
0001
0000
0100
0000
0000
,
0002
0000
0000
1000
0000
0000
0100
0000
,
0000
0010
0000
0000
0103
0000
1000
0000
,
2MMM
0000
0001
0001
0001
000M
00M0
0010
,
0010
00M0
0100
0000
0000
0000
0000
0000
,
000M
0001
0001
000M
0000
0000
0M00
0100
,
0100
0100
0M00
0000
00M0
0010
3000
0001
,
MMM2
0000
0000
0000
00M0
0010
0010
00M0
,
0M00
0100
0100
0M00
1000
0000
0000
0000
,
0000
0000
00M0
0010
0010
00M0
0000
0000
,
M000
1000
1000
1000
M000
0000
0M03
0100
,
0100
0000
0000
0000
0001
0000
0000
0100
0010
0000
0100
0000
0001
0000
0000
0000
,
1000
0000
0000
0000
0001
0000
0000
1000
0100
0000
0010
0000
0010
0000
0100
0000
,
1000
0000
0000
0000
0001
0000
0000
0010
0100
0000
1000
0000
0001
0000
0000
0000
,
0010
0000
0000
0000
0100
0000
0000
0010
0001
0000
1000
0000
1000
0000
0010
0000
,
0100
0000
0000
0000
0001
0000
0000
1000
0010
0000
1000
0000
0001
0000
0000
0000
,
1000
0000
0000
0000
0001
0000
0000
0100
0010
0000
1000
0000
1000
0000
0001
0000
,
0200
0320
2030
3002
,
0203
0000
0000
0300
,
1001
0000
0000
0000
0000
0001
1000
0001
,
0100
0001
0010
0001
1000
0100
0010
0000
,
0202
0000
0303
0220
0000
0330
0202
0000
,
0303
0220
0000
0330
0101
0000
0110
0000
,
1001
0000
0000
0000
0000
0001
1000
0100
,
1000
0010
1000
0001
0100
0010
1000
0000
,
2002
0000
3003
2020
0000
3030
0202
0000
,
0303
0220
0000
0330
1100
0000
0011
0000
,
1001
0000
0000
0000
0000
1000
0001
1000
,
0010
1000
0100
1000
0010
0100
0001
0000
,
2020
0000
3030
0220
0000
0330
2020
0000
,
3030
0220
0000
0330
1010
0000
0110
0000
,
1001
0000
0000
0000
0000
1000
0001
0010
,
0001
0100
0001
1000
0001
0010
0100
0000
,
2001
3002
2003
3001
,
2002
0000
0000
3003
,
1000
0100
0001
1000
0001
0100
1000
0010
,
1001
0000
0000
0000
;

//---------------dance-single - C. Foy----------------
#NOTES:
     dance-single:
     C. Foy:
     Easy:
     3:
     0.192,0.000,0.038,0.104,0.000,128.000,4.000,11.000,0.000,0.000,0.000:
0000
0000
0000
0000
,
0000
0000
0000
0000
,
0000
0000
0000
0000
,
0000
0000
0000
0000
,
1001
0000
0000
0000
0000
0000
0000
0100
,
0000
0010
0000
0100
0000
0010
0000
0000
,
2000
0000
0000
0000
,
0000
0000
0000
0000
,
3100
0000
0000
0000
0000
0000
0000
1000
,
0000
0010
0000
1000
0000
0010
0000
0000
,
1000
0100
1000
0100
,
1000
0000
0000
1000
0000
0000
0000
0000
,
0001
0000
0000
0100
0000
0000
0000
0000
,
0010
0000
0000
0010
0000
0000
0000
0000
,
1000
0000
0000
0010
0000
0000
0000
0000
,
0100
0000
0000
0100
0000
0000
0000
0000
,
0010
0000
1000
0000
,
0100
0000
0010
0000
,
0100
0000
1000
0000
,
0010
0000
0100
0000
,
1000
0000
0100
0000
,
0010
0000
1000
0000
,
0100
0000
0000
0000
0000
0000
0000
1000
,
0000
0001
0000
1000
0000
0001
0000
0000
,
0200
0000
0000
0000
,
0000
0000
0000
0000
,
0310
0000
0000
0000
0000
0000
0000
1000
,
0000
0010
0000
1000
0000
0010
0000
0000
,
2000
0000
0000
0000
,
0000
0000
0000
0000
,
3001
0000
0000
0000
0000
0000
0000
1000
,
0000
0010
0000
1000
0000
0010
0000
0000
,
0200
0000
0000
0000
,
0000
0000
0000
0000
,
0301
0000
0000
0000
0000
0000
0000
0010
,
0000
0001
0000
0010
0000
0001
0000
0000
,
0020
0000
0000
0000
,
0000
0000
0000
0000
,
0130
0000
0000
0010
,
0000
0100
0000
0001
,
0000
0100
0000
0010
,
0000
0001
0000
0100
,
0000
1000
0000
0100
,
0000
0010
0000
1000
,
0000
0010
0000
0001
,
0000
0010
0000
0100
,
0000
0001
0000
0010
,
0000
1000
0000
0010
,
0000
0001
0000
0100
,
0000
0010
0000
1000
,
0000
0010
0000
0001
,
0000
0010
0000
0100
,
0000
0001
0000
0000
,
2002
0000
0000
3003
,
1001
0000
0000
0000
0000
0000
0000
0001
,
0000
1000
0000
0001
0000
1000
0000
0000
,
0002
0000
0000
0000
,
0000
0000
0000
0000
,
1003
0000
0000
0000
0000
0000
0000
0010
,
0000
0100
0000
0010
0000
0100
0000
0000
,
0002
0000
0000
0003
,
1000
0001
1000
0001
,
0010
0000
0000
0000
0000
0000
0000
0100
,
0000
1000
0000
0100
0000
1000
0000
0000
,
0020
0000
0000
0000
,
0000
0000
0000
0000
,
0130
0000
0000
0000
0000
0000
0000
0010
,
0000
1000
0000
0010
0000
1000
0000
0000
,
0100
0010
0100
0010
,
0002
0000
0000
0000
,
1003
0001
1000
0001
,
1001
0000
0000
0000
;

//---------------dance-single - C. Foy----------------
#NOTES:
     dance-single:
     C. Foy:
     Medium:
     6:
     0.299,0.000,0.113,0.122,0.000,197.000,12.000,13.000,0.000,0.000,0.000:
0000
0000
0000
0000
,
0000
0000
0000
0000
,
0000
0000
0000
0000
,
0000
0000
0000
0000
,
1001
0000
0000
0000
0000
1000
0001
1000
,
0000
0010
0000
0100
0000
0001
0000
0000
,
2000
0000
0000
0100
0000
0000
0100
0000
,
0000
0001
0000
0000
0001
0000
0000
0000
,
3100
0000
0000
0000
0000
1000
0001
1000
,
0000
0010
0000
0100
0000
0001
0000
0000
,
1000
0100
1000
0000
0001
1000
0001
0000
,
1000
0000
0000
1001
0000
0000
0000
0000
,
0010
0000
0000
0110
0000
0000
0000
0000
,
1000
0000
0000
0101
0000
0000
0000
0000
,
0001
0000
0000
1001
0000
0000
0000
0000
,
0100
0000
0000
1100
0000
0000
0000
0000
,
0001
1000
0010
0000
,
0100
0010
0001
0000
,
0010
1000
0100
0000
,
0010
0000
0100
0000
,
1000
0000
0010
0000
,
0001
0000
0010
0000
,
1000
0000
0000
0000
0000
1000
0001
1000
,
0000
0001
0000
0100
0000
0010
0000
0000
,
0200
0000
0000
0010
0000
0000
0010
0000
,
0000
0001
0000
0000
0001
0000
0000
0000
,
0310
0000
0000
0000
0000
1000
0010
1000
,
0000
0010
0000
0100
0000
0001
0000
0000
,
0020
0000
0000
0001
0000
0000
0001
0000
,
0000
0100
0000
0000
0100
0000
0000
0000
,
0031
0000
0000
0000
0000
1000
0100
1000
,
0000
0010
0000
0100
0000
0001
0000
0000
,
0200
0000
0000
0010
0000
0000
0001
0000
,
0000
0010
0000
0000
0010
0000
0000
0000
,
0301
0000
0000
0000
0000
1000
0010
1000
,
0000
0100
0000
0010
0000
0100
0000
0000
,
0020
0000
0000
0001
0000
0000
0100
0000
,
0000
0001
0000
0000
0100
0000
0000
0000
,
0130
0000
0000
0000
0000
0000
0000
0010
,
0000
1000
0000
0000
,
0000
0001
0100
0000
0000
0000
0000
0100
,
1000
0100
0000
0000
0000
0010
0000
0100
,
0001
0000
0000
0000
0000
0100
1000
0000
,
0000
0010
0000
0000
0001
0000
0000
0000
,
0000
0000
0000
0010
1000
0000
0000
0000
,
0000
0100
0001
0100
0000
0000
0000
1000
,
0000
0000
0000
0010
0010
0000
0000
1000
,
0000
0100
0000
1000
,
0000
0010
0001
0000
0000
0000
0000
0010
,
0100
0010
0000
0000
0000
1000
0000
0100
,
0001
0000
0000
0000
0000
0100
0010
0000
,
0000
0001
0000
0000
0000
0000
0000
0000
,
0100
0010
1000
0100
,
2002
0000
0000
3003
,
1001
0000
0000
0000
0000
0001
0100
0001
,
0000
1000
0000
0100
0000
0010
0000
0000
,
0002
0000
0000
0100
0000
0000
1000
0000
,
0000
0010
0000
0000
0100
0000
0000
0000
,
1003
0000
0000
0000
0000
0001
0100
0001
,
0000
0100
0000
1000
0000
0100
0000
0000
,
2002
0000
0000
3003
,
0001
1000
0001
0000
0100
0010
0100
0000
,
1001
0000
0000
0000
0000
1000
0001
1000
,
0000
0100
0000
0001
0000
0100
0000
0000
,
0020
0000
0000
0001
0000
0000
0100
0000
,
0000
1000
0000
0000
0100
0000
0000
0000
,
0031
0000
0000
0000
0000
0001
1000
0001
,
0000
1000
0000
0001
0000
0100
0000
0000
,
0010
0001
0010
1000
,
2002
0000
0000
3003
,
1000
0010
1000
0000
0001
0100
0001
0000
,
1001
0000
0000
0000
;

//---------------dance-single - C. Foy----------------
#NOTES:
     dance-single:
     C. Foy:
     Challenge:
     9:
     0.470,0.000,0.094,0.226,0.353,315.000,10.000,24.000,27.000,0.000,0.000:
0000
0000
0000
0000
,
0000
0000
0000
0000
,
0000
0000
0000
0000
,
0000
0000
0000
0000
,
1001
0000
0000
0000
0000
1000
0010
0100
,
0000
0001
0000
0010
0000
0100
0000
0000
,
2000
0000
0000
0100
0000
0000
0100
0000
,
0000
0001
0000
0000
0002
3000
0203
0000
,
0310
0000
0000
0000
0000
1000
0001
0100
,
0000
0000
0001
0000
0000
0000
0010
0000
0002
0000
0100
0000
0003
0000
0000
0001
,
0010
0001
M000
0M00
M000
0010
0001
M000
0010
0001
M000
0M00
M000
0010
0001
0010
,
0001
0000
0000
0000
1000
0000
0101
0000
0000
0000
0020
0000
0000
0030
0000
0000
,
1000
0000
0000
0000
0100
0000
0011
0000
0000
0000
0200
0000
0000
0300
0000
0000
,
0010
0000
0000
0000
1000
0000
0110
0000
0000
0000
0002
0000
0000
0003
0000
0000
,
0010
0000
0000
0000
0100
0000
1010
0000
0000
0000
2000
0000
0000
3000
0000
0000
,
0001
0000
0000
0000
0100
0000
1010
0000
0000
0000
0200
0000
0000
0300
0000
0000
,
0001
0000
0000
0000
1000
0000
0000
1000
0010
0000
0200
0000
0000
0300
0000
0000
,
0001
0000
0000
0000
1000
0000
0000
0001
0100
0000
0020
0000
0000
0030
0000
0000
,
0010
0000
0000
0000
0100
0000
0000
0100
0001
0000
0020
0000
0000
0030
0000
0000
,
0001
0000
1000
0000
0010
0100
0000
0010
,
0010
0000
1000
0000
0100
0010
0000
0010
,
0001
0100
1000
0200
,
0301
0000
0000
0000
0000
1000
0010
0100
,
0000
0001
0000
0010
0000
1000
0000
0000
,
0020
0000
0000
0001
0000
0000
0100
0000
,
0000
1000
0000
0000
0100
0000
0100
0000
,
0031
0000
0000
0000
1000
0000
0000
0000
0010
0000
0100
0000
0001
0000
0000
0010
,
0100
0000
0000
0000
0001
0000
0000
0001
0100
0000
1000
0000
0010
0000
0000
0010
,
0100
0000
0000
0000
0001
0000
0000
0001
0100
0000
0010
0000
1000
0000
0000
0100
,
1000
0000
0100
0000
0001
0000
0000
0001
0100
0000
0010
0000
0001
0000
0001
0010
,
0100
0000
0000
0000
0000
1000
0010
0100
,
0000
0001
0000
1000
0000
0010
0000
0000
,
0200
0000
0000
0010
0000
0000
1000
0000
,
0000
0010
0000
0000
0002
0300
0010
0000
,
1003
0000
0000
0000
0001
0000
0000
0000
0010
0000
0010
0000
1000
0000
0000
1000
,
0010
0000
0000
0000
1000
0000
0000
1000
0010
0000
0001
0000
0100
0000
0000
0100
,
0010
0000
0000
0000
1000
0000
0000
1000
0010
0000
0100
0000
0001
0000
0000
0010
,
0001
0000
0010
0000
1000
0000
0000
1000
0010
0000
0100
0000
1000
0000
1000
0100
,
0010
0000
0001
1000
0010
0000
0000
0010
,
0000
1000
0000
0100
0000
0000
0000
0000
0000
0000
0000
0000
,
0000
0001
0100
0000
0000
0000
0000
0100
,
1000
0020
0000
0030
0000
0001
0000
0010
,
1000
0000
0000
0000
0000
0100
1000
0000
,
0000
0000
0000
0010
0000
0000
0000
0000
0010
0000
0000
0000
0001
0000
0000
0000
0000
0000
0000
0000
0000
0000
0000
0000
,
0000
0000
0000
0010
0100
0000
0000
0000
,
0000
0100
1000
0100
0000
0000
0000
0001
,
0000
0000
0000
0000
0000
0000
0000
0000
0000
0010
0000
0000
0100
0000
0000
0000
0000
0000
1000
0100
1000
0000
0000
0000
,
0000
0000
0010
0000
0000
0000
0100
0001
0100
0000
0000
0000
0000
0000
0000
0000
0010
0100
0010
0100
0000
0000
0000
0000
,
0000
0000
0000
0100
0000
0000
0010
1000
0010
0000
0000
0000
0000
0000
0000
0000
0000
0000
0100
0001
0100
0000
0000
0000
,
0010
0000
0000
1000
0000
0000
0001
0010
0001
0000
0000
0000
0000
0000
0000
1000
0100
1000
0100
1000
0000
0000
0000
0000
,
0010
0000
0000
0000
0000
0100
1000
0000
,
0000
0000
0000
0100
0000
0000
0010
0100
0010
0000
0000
0000
1000
0000
0000
0001
0100
0001
0100
0000
0000
0000
0000
0000
,
0100
0000
0000
0000
0000
0000
0010
1000
0010
0000
0000
0000
0100
0000
0000
0000
0000
0000
0010
0000
0000
0000
0000
0000
,
2002
0000
0000
3003
,
1001
0000
0000
0000
0000
0001
0100
0010
,
0000
1000
0000
0100
0000
0001
0000
0000
,
0200
0000
0000
0001
0000
0000
0010
0000
,
0000
1000
0000
0000
0020
0300
0001
0000
,
0130
0000
0000
0000
0000
0001
0100
0001
,
0000
0100
0000
1000
0000
0100
0000
0000
,
2002
0000
0000
0000
0000
0000
0000
0000
0000
0000
0000
0000
3003
0000
1000
0100
,
000M
000M
0010
000M
M000
0M00
M000
0001
00M0
00M0
1000
0001
00M0
0M00
00M0
M000
,
0100
0000
0000
0000
0000
0100
0001
1000
,
0000
0100
0000
0001
0000
0100
0000
0000
,
0020
0000
0000
0001
0000
0000
0100
0000
,
0000
1000
0000
0000
0100
0000
0000
0000
,
0031
0000
0000
0000
0001
0000
0000
0000
0010
0000
0010
0000
1000
0000
0000
1000
,
0010
0000
0000
0000
1000
0000
0000
1000
0010
0000
0001
0000
0100
0000
0000
0100
,
0010
0000
0000
0000
1000
0000
0000
1000
0010
0000
0100
0000
0001
0000
0000
0010
,
0001
0000
0010
0000
1000
0000
0000
1000
0010
0000
0100
0000
1000
0000
0000
1000
,
000M
000M
0100
1000
0100
00M0
000M
M000
0010
0001
0M00
1000
0100
1000
00M0
00M0
,
1001
0000
0000
0000
;

//---------------dance-double - M.Emirzian----------------
#NOTES:
     dance-double:
     M.Emirzian:
     Easy:
     2:
     0.141,0.000,0.075,0.000,0.000,97.000,8.000,0.000,0.000,0.000,0.000:
00000000
00000000
00000000
00000000
,
00000000
00000000
00000000
00000000
,
00000000
00000000
00000000
00000000
,
00000000
00000000
00000000
00000000
,
00100000
00000000
00000000
00000000
,
10000000
10000000
10000000
00000000
,
00010000
00000000
00000000
01000000
,
00000000
00000000
00001000
00000000
,
00010000
00000000
00000000
00000000
,
00000010
00000010
00000010
00000000
,
00001000
00000000
00000000
00000000
,
00001001
00000000
00000000
00000000
,
10010000
00000000
00000000
00000000
,
00001001
00000000
00000000
00000000
,
10010000
00000000
00000000
00000000
,
00001001
00000000
00000000
00000000
,
10010000
00000000
00000000
00000000
,
00001001
00000000
00000000
00000000
,
00000100
00000000
00000000
00000000
,
00010000
00000000
00000000
00000000
,
00001000
00000000
00000000
00000000
,
01000000
00000000
00000000
00000000
,
00100000
00000000
00000000
00000000
,
10000000
10000000
10000000
00000000
,
01000000
00000000
00000000
00100000
,
00000000
00000000
00010000
00000000
,
01000000
00000000
00000000
00000000
,
00001000
00001000
00001000
00000000
,
00010000
00000000
00000000
00000100
,
00000000
00000000
00001000
00000000
,
00000001
00000000
00000000
00000000
,
00000100
00000100
00000100
00000000
,
00000001
00000000
00000000
00000100
,
00000000
00000000
00000010
00000000
,
00001000
00000000
00000000
00000000
,
00000100
00000100
00000100
00000000
,
00010000
00000000
00000000
00001000
,
00000000
00000000
00010000
00000000
,
01000000
00000000
00000000
00000000
,
00000000
00000000
00000000
00000000
,
10000000
00000000
00000000
00000000
,
00000000
00000000
00000000
00000000
,
00000100
00000000
00000000
00000000
,
00000000
00000000
00000000
00000000
,
00100000
00000000
00000000
00000000
,
00000000
00000000
00000000
00000000
,
00000001
00000000
00000000
00000000
,
00001000
00000000
00000000
00000000
,
00000100
00000000
00000000
00000000
,
00010000
00000000
00000000
00000000
,
00001000
00000000
00000000
00000000
,
01000000
00000000
00000000
00000000
,
00100000
00000000
00000000
00000000
,
10000000
00000000
00000000
00000000
,
00010000
00000000
00000000
00000000
,
10000000
10000000
10000000
00000000
,
01000000
00000000
00000000
00100000
,
00000000
00000000
00001000
00000000
,
00010000
00000000
00000000
00000000
,
00001000
00001000
00001000
00000000
,
00010000
00000000
00000000
00000100
,
00000000
00000000
00000010
00000000
,
00000001
00000000
00000000
00000000
,
00000010
00000010
00000010
00000000
,
00000001
00000000
00000000
00000100
,
00000000
00000000
00000010
00000000
,
00001000
00000000
00000000
00000000
,
00000100
00000100
00000100
00000000
,
00010000
00001000
00010000
00001000
,
00010000
00000000
00000000
00000000
,
01000000
00100000
10000000
00000000
,
10010000
00000000
00000000
00000000
;

//---------------dance-double - M.Emirzian----------------
#NOTES:
     dance-double:
     M.Emirzian:
     Medium:
     6:
     0.332,0.000,0.273,0.019,0.000,216.000,29.000,2.000,0.000,0.000,0.000:
00000000
00000000
00000000
00000000
,
00000000
00000000
00000000
00000000
,
00000000
00000000
00000000
00000000
,
00000000
00000000
00000000
00000000
,
00100000
00000000
00000000
00000000
00000000
00010000
10000000
01000000
,
00000000
00100000
00000000
00010000
00000000
00100000
00000000
00000000
,
10000000
00000000
00000000
01100000
00000000
00000000
00010000
00000000
,
00000000
00011000
00000000
00000000
00010000
00000000
00000100
00000000
,
00001000
00000000
00000000
00000000
00000000
00000010
00000100
00000001
,
00000000
00001000
00000000
00000100
00000000
00000010
00000000
00000000
,
00000001
00001000
00000100
00001000
,
00000001
00000000
00000000
00001100
00000000
00000000
00000000
00000000
,
10000000
00000000
00000000
10010000
00000000
00000000
00000000
00000000
,
00001000
00000000
00000000
00001001
00000000
00000000
00000000
00000000
,
00010000
00000000
00000000
10010000
00000000
00000000
00000000
00000000
,
00001000
00000000
00000000
00001001
00000000
00000000
00000000
00000000
,
00010000
00000000
00000000
10010000
00000000
00000000
00000000
00000000
,
00001000
00000000
00000000
00001001
00000000
00000000
00000000
00000000
,
00010000
00000000
00000000
10010000
00000000
00000000
00000000
00000000
,
00100000
00000000
01000000
10000000
00000000
00100000
00000000
10000000
,
00000000
00000000
00010000
01000000
00000000
00100000
00000000
10000000
,
00000000
00000000
01000000
00100000
00000000
00001000
00000000
00010000
,
00000100
00000000
00000000
00000000
00000000
00001000
00000010
00000100
,
00000000
00000001
00000000
00001000
00000000
00000100
00000000
00000000
,
00000010
00000000
00000000
00001100
00000000
00000000
00000010
00000000
,
00000000
00011000
00000000
00000000
00001000
00000000
01000000
00000000
,
00010000
00000000
00000000
00000000
00000000
00100000
01000000
10000000
,
00000000
00010000
00000000
01000000
00000000
00100000
00000000
00000000
,
01000000
00000000
00000000
01010000
00000000
00000000
00001000
00000000
,
00000000
00011000
00000000
00000000
00000100
00000000
00001000
00000000
,
00000010
00000000
00000000
00000000
00000000
00000100
00000001
00000010
,
00000000
00000100
00000000
00001000
00000000
00000001
00000000
00000000
,
00000100
00000000
00000000
00001010
00000000
00000000
00000100
00000000
,
00000000
00011000
00000000
00000000
01000000
00000000
00010000
00000000
,
10000000
00000000
00000000
00000000
00000000
00100000
10000000
00010000
,
00000000
00100000
00000000
01000000
00000000
10000000
00000000
00000000
,
00010000
00000000
00000000
01100000
00000000
00000000
00010000
00000000
,
00000000
00011000
00000000
00000000
00000100
00000000
00000000
00000000
,
00000010
00000000
00000100
00001000
00000100
00000000
00000000
00000001
,
00000100
00000001
00000100
00000000
00000000
00000000
00000000
00000000
,
00000000
00100000
01000000
00000000
00000000
00000000
00000000
00000010
,
00001000
00000010
00000000
00000000
00000000
00100000
00000000
01000000
,
10000000
00000000
00000000
00000000
00000000
00000100
00000010
00000000
,
00000000
00100000
00000000
00010000
01000000
00000000
00000000
00000000
,
00000000
00000000
00000000
00000001
00000100
00000000
00000000
00000000
,
00000000
00010000
00001000
00010000
00000000
00000000
00000000
10000000
,
01000000
00100000
00010000
10000000
,
00100000
01000000
00010000
00000000
00000000
00000000
10000000
00000000
,
00000000
00100000
00010000
00000000
00000000
00000000
00000000
01000000
,
00001000
00010000
00000000
00000000
00000100
00000000
00001000
00000000
,
00000010
00000100
00000001
00001000
,
00000100
00001000
00000010
00010000
,
00001000
01000000
00010000
10000000
,
20020000
00000000
00000000
30030000
,
01100000
00000000
00000000
00000000
00000000
00010000
10000000
01000000
,
00000000
00100000
00000000
00010000
00000000
01000000
00000000
00000000
,
00010000
00000000
00000000
00110000
00000000
00000000
00001000
00000000
,
00000000
00011000
00000000
00000000
00000100
00000000
00001000
00000000
,
00000001
00000000
00000000
00000000
00000000
00000010
00000100
00001000
,
00000000
00000001
00000000
00000100
00000000
00000010
00000000
00000000
,
00001000
00000000
00000000
00001100
00000000
00000000
00010000
00000000
,
00000000
01001000
00000000
00000000
00010000
00000000
01000000
00000000
,
00100000
00000000
00000000
00000000
00000000
10000000
00010000
01000000
,
00000000
10000000
00000000
01000000
00000000
00010000
00000000
00000000
,
10000000
00000000
00000000
01100000
00000000
00000000
00001000
00000000
,
00000000
00011000
00000000
00000000
00000010
00000000
00001000
00000000
,
00000100
00000000
00000000
00000000
00000000
00000010
00000100
00001000
,
00000000
00000001
00000000
00000010
00000000
00000001
00000000
00000000
,
00000100
00000000
00000000
00001010
00000000
00000000
00000001
00000000
,
00000000
00001100
00000000
00000000
00010000
00000000
00001000
00000000
,
01000000
00100000
10000000
01000000
,
00110000
00000000
00000000
00000000
;

//---------------dance-double - M.Emirzian----------------
#NOTES:
     dance-double:
     M.Emirzian:
     Hard:
     8:
     0.490,0.000,0.622,0.000,0.000,298.000,66.000,0.000,0.000,0.000,0.000:
00000000
00000000
00000000
00000000
,
00000000
00000000
00000000
00000000
,
00000000
00000000
00000000
00000000
,
00000000
00000000
00000000
00000000
,
00000100
00000000
00001000
00000000
00000001
00001000
00000100
00000010
,
00000000
00000001
00000000
00000100
00000000
00001000
00000000
00000000
,
00000110
00000000
00000000
00011000
00000000
00000000
01100000
00000000
,
00000000
10010000
00000000
00000000
11000000
00000000
00110000
00000000
,
10000000
00000000
00100000
00000000
01000000
10000000
00010000
01000000
,
00000000
10000000
00000000
01000000
00000000
00010000
00000000
00100000
,
01000000
10000000
01000000
10000000
00010000
10000000
01000000
00010000
,
00001000
00000000
01000000
00001000
00000000
00100000
00010000
00000000
,
01000000
00000000
00001000
00010000
00000000
00000100
00000010
00000000
,
00000100
00000000
00010000
00001000
00000000
00000100
00001000
00000000
,
00010000
00000000
00100000
00010000
00000000
00001000
00000010
00000000
,
00000001
00000000
00001000
00000100
00000000
00000010
00000001
00000000
,
00000100
00000000
00000010
00000000
00000000
00001000
00000000
00001100
,
00000000
00000000
00010000
00000000
00000000
00001000
00000000
00101000
,
00000000
00000000
01000000
00000000
00000000
00100000
00000000
10100000
,
00000000
00000000
01000000
00000000
00000000
00100000
00000000
00110000
,
00000000
00000000
00001000
00000000
00000000
00010000
00000000
00010100
,
00000000
00010000
00001000
00000010
,
00000001
00000000
00000100
00000000
00000010
00001000
00000100
00001000
,
00000000
00000001
00000000
00000100
00000000
00001000
00000000
00000000
,
00000101
00000000
00000000
00000011
00000000
00000000
00001010
00000000
,
00000000
00011000
00000000
00000000
00110000
00000000
10100000
00000000
,
10000000
00000000
01000000
00000000
00100000
00001000
00010000
00100000
,
00000000
10000000
00000000
01000000
00000000
00100000
00000000
00000000
,
10010000
00000000
00000000
01100000
00000000
00000000
01010000
00000000
,
00000000
00011000
00000000
00000000
00001100
00000000
00000101
00000000
,
00000010
00000000
00000100
00000000
00001000
00000010
00001000
00000100
,
00000000
00000010
00000000
00000001
00000000
00000100
00000000
00000000
,
00001010
00000000
00000000
00001100
00000000
00000000
00010010
00000000
,
00000000
01001000
00000000
00000000
00110000
00000000
11000000
00000000
,
00100000
00000000
01000000
00000000
00010000
10000000
00100000
00010000
,
00000000
00100000
00000000
10000000
00000000
01000000
00000000
00000000
,
00110000
00000000
00000000
01001000
00000000
00000000
00010010
00000000
,
00000000
00001100
00000000
00000000
00000101
00000000
00000011
00000000
,
00000010
00000000
00000100
00001000
00000100
00000000
00000000
00000001
,
00000000
00000100
00000010
00000000
00000000
00001000
00000100
00010000
,
00001000
01000000
00100000
00000000
00000000
10000000
00000000
00010000
,
01000000
00100000
10000000
00000000
00000000
10000000
00000000
01000000
,
00100000
00000000
00010000
00000000
01000000
10000000
00100000
00000000
,
00000000
01000000
00000000
00001000
00010000
00000000
00000000
00001000
,
00000100
00000001
00001000
00000100
00000010
00000000
00000000
00000001
,
00001000
00000100
00001000
00000010
00000000
00000000
00000000
00000100
,
00001001
00000000
00000000
00011000
00000000
00000000
10000000
00100000
,
01000000
00001000
00010000
01000000
10000000
00100000
10000000
00000000
,
01000000
00100000
00001000
00010000
00000100
00010000
00001000
00000000
,
00000100
00000001
00001000
00000010
00000001
00001000
00000100
00000000
,
00000010
00000001
00000100
00001000
00000100
00000001
00000010
00000000
,
00000100
00001000
00000001
00000100
00001000
00010000
00001000
00000000
,
00001100
00011000
00110000
11000000
,
01010000
00000000
00010000
00001000
01000000
00100000
01000000
00001000
,
00010000
00000000
01000000
00000000
10000000
00100000
01000000
00010000
,
00000000
10000000
00000000
01000000
00000000
00100000
00000000
00000000
,
00110000
00000000
00000000
00011000
00000000
00000000
00001010
00000000
,
00000000
00000011
00000000
00000000
00000101
00000000
00001010
00000000
,
00000001
00000000
00000100
00000000
00000010
00001000
00000100
00010000
,
00000000
00001000
00000000
00000100
00000000
00000001
00000000
00000000
,
00000011
00000000
00000000
00001100
00000000
00000000
01010000
00000000
,
00000000
10100000
00000000
00000000
11000000
00000000
10010000
00000000
,
00100000
00000000
10000000
00000000
01000000
00010000
00100000
00010000
,
00000000
01000000
00000000
10000000
00000000
01000000
00000000
00000000
,
01010000
00000000
00000000
00001100
00000000
00000000
00001001
00000000
,
00000000
00000110
00000000
00000000
00001100
00000000
00000011
00000000
,
00000010
00000000
00000001
00000000
00000100
00001000
00000010
00001000
,
00000000
00000100
00000000
00000001
00000000
00000100
00000000
00000000
,
00001100
00011000
00110000
10100000
,
11000000
00100000
00010000
01000000
,
00100000
10000000
01000000
00010000
00100000
00010000
00001000
00010000
,
00011000
00000000
00000000
00000000
;

//---------------dance-double - M.Emirzian----------------
#NOTES:
     dance-double:
     M.Emirzian:
     Challenge:
     9:
     0.608,0.000,0.490,0.000,0.000,400.000,52.000,0.000,0.000,0.000,0.000:
00000000
00000000
00000000
00000000
,
00000000
00000000
00000000
00000000
,
00000000
00000000
00000000
00000000
,
00000000
00000000
00000000
00000000
,
10000000
01000000
00100000
01000000
10000000
01000000
00100000
01000000
,
00000000
01100000
00000000
00011000
00000000
00000110
00000000
00000001
,
00001000
00000100
00000000
00000100
00000010
00000000
00001000
00000001
,
00000000
00000010
00000100
00000000
00001000
00000001
00000100
00000000
,
00000010
00001000
00000100
00000001
00000100
00010000
00001000
01000000
,
00000000
00001100
00000000
00011000
00000000
01010000
00000000
01000000
,
10000000
01000000
10000000
00010000
10000000
01000000
10000000
00000000
,
10000000
01000000
10000000
00000000
10000000
01000000
10000000
00010000
,
00000000
00010000
00100000
01000000
00100000
00000000
00100000
00001000
,
00010000
00000100
00001000
00000000
00001000
00000100
00000010
00000001
,
00000000
00000001
00000100
00001000
00000100
00000000
00000100
00000001
,
00000010
00000100
00001000
00000000
00001000
00000100
00000010
00000001
,
00000000
00000001
00000100
00000010
00010000
00000000
00010000
00001000
,
01000000
00100000
01000000
00000000
01000000
00001000
00010000
01000000
,
00000000
01000000
10000000
00100000
10000000
00000000
10000000
01000000
,
10000000
00000000
00010000
01000000
00000000
10100000
00000000
11000000
,
00000000
00000000
00100000
00010000
00000000
00100010
00000000
00011000
,
00000000
00000000
00010000
00001000
00000000
00010000
00001000
00000010
,
00000001
00000100
00000010
00000100
00000001
00000010
00000100
00000010
,
00000000
00000011
00000000
00001100
00000000
00011000
00000000
00010000
,
00001000
01000000
00000000
01000000
10000000
00000000
01000000
00010000
,
00000000
00010000
00001000
00000000
00010000
00001000
00000010
00000000
,
00000001
00001000
00000100
00000010
00000100
00001000
00000100
00000010
,
00000000
00000101
00000000
00001100
00000000
00011000
00000000
00010000
,
00000100
00001000
00000000
00001000
00010000
00000000
00100000
00010000
,
00000000
00010000
01000000
00000000
00100000
10000000
01000000
00000000
,
00100000
00010000
01000000
00100000
10000000
01000000
00010000
00001000
,
00000000
01100000
00000000
00011000
00000000
00000110
00000000
00000001
,
00001000
00000010
00000000
00000010
00000100
00000000
00001000
00000001
,
00000000
00000100
00000010
00000000
00000001
00000100
00001000
00000000
,
00000100
00000001
00000010
00000100
00001000
00000100
00010000
00001000
,
00000000
00001100
00000000
00011000
00000000
00110000
00000000
00100000
,
10000000
01000000
00000000
01000000
00010000
00000000
01000000
00100000
,
00000000
00100000
00010000
00000000
00001000
00000100
00001000
00000000
,
00010000
00100000
00010000
00000000
00001000
00000100
00000001
00001000
,
00000000
00000100
00000010
00000001
00000100
00000000
00000010
00001000
,
00000100
00010000
00100000
00000000
10000000
01000000
00100000
00001000
,
00000000
00000100
00000001
00000010
00000100
00000000
00001000
00000001
,
00000100
00001000
00100000
00000000
00010000
01000000
10000000
01000000
,
00000000
00010000
10000000
01000000
00100000
00000000
00000100
00000010
,
00000001
00000010
00000100
00000000
00001000
00000001
00000100
00000010
,
00000000
00010000
00001000
01000000
00100000
00000000
10000000
00000000
,
00100000
01000000
00010000
10000000
01000000
00010000
10000000
00100000
,
00001000
00010000
00001000
01000000
00000100
00001000
00000010
00000000
,
00001000
00000100
00000010
00000001
00000010
00000100
00010000
00100000
,
10000000
01000000
00010000
00001000
00000010
00000001
00001000
00000000
,
00001100
00000011
00000101
00001100
,
00011000
00110000
10100000
11000000
,
00110000
00011000
00001010
00001100
,
00000101
00000000
00000100
00001000
00000010
00000100
00000001
00000000
,
00000010
00000100
00001000
00000010
00000100
00001000
00010000
00000100
,
00000000
00000110
00000000
00011000
00000000
01100000
00000000
10000000
,
01000000
00100000
00000000
00100000
01000000
00000000
00010000
00100000
,
00000000
00100000
10000000
00000000
01000000
00010000
00001000
00000000
,
00010000
01000000
00010000
00001000
00000010
00000100
00001000
00000001
,
00000000
00011000
00000000
00001100
00000000
00000101
00000000
00000010
,
00000100
00001000
00000000
00001000
00000100
00000000
00000001
00000010
,
00000000
00000010
00001000
00000000
00000001
00000100
00001000
00000000
,
00010000
00000100
00001000
00000010
00100000
00010000
01000000
00100000
,
00000000
10010000
00000000
01100000
00000000
00011000
00000000
01000000
,
00010000
00100000
00000000
00100000
10000000
00000000
01000000
00100000
,
00000000
00100000
00010000
00000000
00001000
00000100
00000001
00000000
,
00000010
00000100
00001000
00000001
00000100
00000010
00001000
00000100
,
00000000
00000110
00000000
00001100
00000000
01100000
00000000
10000000
,
01000000
00110000
01001000
01000100
,
00100010
00000000
00010000
00001000
00000100
00000001
00000010
00000100
,
00010000
00001000
01000000
00100000
10000000
01000000
00010000
00001000
,
00011000
00000000
00000000
00000000
;

//---------------dance-single - K. Ward----------------
#NOTES:
     dance-single:
     K. Ward:
     Beginner:
     1:
     0.096,0.000,0.019,0.000,0.000,69.000,2.000,0.000,0.000,0.000,0.000:

0000
0000
0000
0000
,
0000
0000
0000
0000
,
0000
0000
0000
0000
,
0000
0000
0000
0000
,
1000
0000
0000
0000
,
0010
0000
0010
0000
,
0010
0000
0000
0000
,
0000
0000
0000
0000
,
0100
0000
0000
0000
,
0010
0000
0010
0000
,
0010
0000
0000
0000
,
0100
0000
0000
0000
,
0010
0000
0000
0000
,
0100
0000
0000
0000
,
0001
0000
0001
0000
,
1000
0000
0000
0000
,
1000
0000
0000
0000
,
0100
0000
0000
0000
,
0100
0000
0000
0000
,
1001
0000
0000
0000
,
0000
0000
0000
0000
,
0001
0000
1000
0000
,
0001
0000
0000
0000
,
0000
0000
0000
0000
,
1000
0000
0000
0000
,
0000
0000
0000
0000
,
1000
0000
0000
0000
,
0001
0000
0000
0000
,
1000
0000
0000
0000
,
0000
0000
0000
0000
,
1000
0000
0000
0000
,
0010
0000
0010
0000
,
0010
0000
0000
0000
,
0000
0000
0000
0000
,
0100
0000
0000
0000
,
0100
0000
0100
0000
,
0100
0000
0000
0000
,
0000
0000
0000
0000
,
0001
0000
0000
0000
,
0000
0000
0000
0000
,
1000
0000
0000
0000
,
0000
0000
0000
0000
,
0001
0000
0000
0000
,
0000
0000
0000
0000
,
1000
0000
0000
0000
,
0001
0000
1000
0000
,
0001
0000
0000
0000
,
0001
0000
0000
0000
,
0010
0000
0000
0000
,
0010
0000
0000
0000
,
0001
0000
0000
0000
,
0001
0000
0000
0000
,
1000
0000
0000
0000
,
1000
0000
0001
0000
,
0100
0000
0000
0000
,
0100
0000
0000
0000
,
1000
0000
0000
0000
,
0001
0000
0000
0000
,
1000
0000
0000
0000
,
0001
0000
0000
0000
,
0010
0000
0010
0000
,
0010
0000
0000
0000
,
0001
0000
0000
0000
,
1000
0000
0000
0000
,
0100
0000
0100
0000
,
0100
0000
0000
0000
,
1000
0000
0000
0000
,
0001
0000
0000
0000
,
0010
0000
0100
0000
,
1000
0000
0000
0000
,
0001
0000
0000
0000
,
1001
0000
0000
0000
;
