#TITLE:Flying High;
#SUBTITLE:;
#ARTIST:Filo Bedo;
#TITLETRANSLIT:;
#SUBTITLETRANSLIT:;
#ARTISTTRANSLIT:;
#GENRE:;
#CREDIT:;
#BANNER:Flying High-banner.png;
#BACKGROUND:Flying High-bg.png;
#LYRICSPATH:;
#CDTITLE:;
#MUSIC:Filo Bedo - Flying High.ogg;
#OFFSET:-0.128;
#SAMPLESTART:92.526;
#SAMPLELENGTH:12.880;
#SELECTABLE:YES;
#DISPLAYBPM:146.000;
#BPMS:0.000=146.021;
#STOPS:;
#BGCHANGES:0.000=Flying High-bg.png=1.000=0=0=1=====,
20.000=vol4-07-ntsc.mpg=1.000=1=0=1===CrossFade==,
36.000=VOL1-48-NTSC.mpg=1.000=0=0=1=====,
52.000=VOL1-24-NTSC.mpg=1.000=0=0=1=====,
68.000=vol4-01-ntsc.mpg=1.000=0=0=1=====,
84.000=VOL1-33-NTSC.mpg=1.000=0=0=1=====,
100.000=vol4-18-ntsc.mpg=1.000=0=0=1=====,
116.000=vol3-19-ntsc.mpg=1.000=0=0=1=====,
124.000=vol3-15-ntsc.mpg=1.000=0=0=1=====,
132.000=675_JumpBack.mpg=1.000=0=0=1=====,
148.000=EV01448N.mpg=1.000=0=0=1=====,
164.000=VOL1-24-NTSC.mpg=1.000=0=0=1=====,
180.000=vol3-12-ntsc.mpg=1.000=0=0=1=====,
196.000=VOL1-48-NTSC.mpg=1.000=0=0=1=====,
212.000=vol4-01-ntsc.mpg=1.000=0=0=1=====,
220.000=VOL1-15-NTSC.mpg=1.000=0=0=1=====,
228.000=VOL1-24-NTSC.mpg=1.000=0=0=1=====,
244.000=676_JumpBack.mpg=1.000=0=0=1=====,
260.000=EV01448N.mpg=1.000=0=0=1=====,
276.000=675_JumpBack.mpg=1.000=0=0=1=====,
284.000=VOL1-48-NTSC.mpg=1.000=0=0=1=====,
292.000=Flying High-bg.png=1.000=0=0=1=====,
99999=-nosongbg-=1.000=0=0=0 // don't automatically add -songbackground-
;
#KEYSOUNDS:;
// cache tags:
#FIRSTBEAT:12.000;
#LASTBEAT:292.000;
#SONGFILENAME:/Songs/In The Groove/Flying High/Filo Bedo - Flying High.sm;
#HASMUSIC:1;
#HASBANNER:1;
#MUSICLENGTH:123.698;
// end cache tags

//---------------dance-single - K. Ward----------------
#NOTES:
     dance-single:
     K. Ward:
     Hard:
     8:
     0.547,0.000,0.170,0.251,0.146,422.000,21.000,31.000,0.000,0.000,0.000:


0000
0000
0000
0000
,
0000
0000
0000
0000
,
0000
0000
0000
0000
,
0000
0000
0000
0000
,
0000
0000
0000
0000
,
1000
0100
1000
0010
,
0100
0000
0001
0000
0010
0001
0100
0010
,
2000
0000
0000
3000
,
0010
0000
0100
0000
0001
0100
0110
0000
,
1000
0100
1000
0000
1100
0000
1001
0000
,
0001
0100
0010
1000
1010
0000
0011
0000
,
0001
0100
0010
0000
1000
0010
0100
0000
,
0001
0010
0100
1000
0011
0000
0110
0000
,
1000
0010
0100
0001
1000
0010
0100
0010
,
1000
0001
1000
0100
1000
0010
1000
0000
,
0022
0000
0000
0000
0000
0000
0000
0033
,
1000
0100
2000
0000
3001
0010
0002
0000
,
1003
0100
1000
0100
1100
0000
0101
0000
,
0001
0010
0001
0010
0011
0000
0110
0000
,
1000
0100
1000
0010
2000
0000
3001
0000
,
0100
0001
0010
0001
2000
0000
3010
0000
,
0100
0010
1000
0010
0100
0001
0100
0010
,
1000
0010
0100
0001
0010
0001
0100
0001
,
0101
0110
1010
0011
,
1000
0100
1000
0001
0200
0000
0310
0000
,
1000
0000
0000
0010
0000
0000
0100
0000
0010
0000
0000
0000
1000
0000
0000
0000
,
0100
0000
0000
0010
0000
0000
0001
0000
0010
0000
0000
0000
0100
0000
0000
0000
,
1000
0000
0000
0100
0000
0000
1000
0000
0010
0000
0000
0000
0100
0000
0000
0000
,
0010
0000
0000
1000
0000
0000
0100
0000
0010
0000
0000
0000
0001
0000
0000
0000
,
0010
0000
0000
0100
0000
0000
1000
0000
0010
0000
1000
0000
1000
0000
0000
0000
,
0100
0000
0000
0010
0000
0000
0001
0000
1000
0000
0010
0000
0010
0000
0000
0000
,
0100
0001
0100
0010
1000
0010
1000
1000
,
0020
0000
0100
0130
,
0001
0000
0010
0000
0001
0000
0100
0010
0000
0100
0010
0000
0100
0000
0010
0000
,
1000
0000
0100
0000
1000
0000
0100
1000
0000
0100
1000
0000
0010
0000
0100
0000
,
0001
0000
0010
0000
0001
0000
0010
0001
0000
0010
0001
0000
0100
0000
0010
0000
,
1000
0100
1000
0010
2000
0000
3010
0000
,
0100
0000
0010
0000
1000
0000
0100
1000
0000
0010
1000
0000
0010
0000
0100
0000
,
0010
0000
0100
0000
0001
0000
0010
0001
0000
0100
0010
0000
1000
0000
0100
0000
,
1000
0100
0010
0001
0001
0010
0100
1000
,
1000
0100
1000
0010
0110
0000
2000
0000
,
3001
0000
0010
0000
0001
0000
0100
0010
0000
0100
0010
0000
0100
0000
0010
0000
,
1000
0000
0100
0000
1000
0000
0100
1000
0000
0100
1000
0000
0010
0000
0100
0000
,
0001
0000
0010
0000
0001
0000
0010
0001
0000
0010
0001
0000
0100
0000
0010
0000
,
1000
0100
1000
0010
0200
0000
0301
0000
,
0010
0001
0200
0000
0310
1000
0200
0000
,
1300
0010
1000
0010
0200
0000
0001
0000
,
0301
0010
0001
0100
,
0010
1000
1100
0000
0010
0100
0110
0000
,
1000
0100
1000
0000
0010
0000
0100
0000
,
0001
0010
0001
0000
0100
0000
0010
0000
,
1000
0100
1000
0000
0100
0010
0100
0000
,
1000
0010
0100
0001
1000
0010
0100
0001
,
0200
0010
1000
0010
,
0301
0000
0000
0000
1000
0010
1000
0100
,
2000
0000
0000
0000
,
3001
0000
0000
0000
,
1000
0000
0100
0000
1000
0000
0010
0100
0000
0010
0100
0000
0010
0000
0100
0000
,
0001
0000
0010
0000
0001
0000
0010
0001
0000
0010
0001
0000
0100
0000
0010
0000
,
1000
1000
0200
0000
1300
1000
0020
0000
,
0130
0000
0010
0000
1000
0000
0100
1000
0000
0100
1000
0000
0200
0000
0000
0000
,
1300
0010
0200
0000
0301
0010
0002
0000
,
1003
0100
1000
0100
2000
0010
3010
0000
,
0001
0010
0100
1000
1000
0100
0010
0001
,
0001
0100
0010
1100
,
0001
0000
0010
0000
0001
0000
0100
0010
0000
0100
0010
0000
0100
0000
0010
0000
,
1000
0000
0100
0000
1000
0000
0100
1000
0000
0100
1000
0000
0010
0000
0100
0000
,
0002
0203
0320
2030
,
3100
0000
1000
0000
0010
0000
0100
0010
0000
1000
0010
0000
0100
0000
0001
0000
,
0200
0000
0310
0000
0100
0010
2000
0000
,
3020
0000
0130
0000
0001
0010
0002
0000
,
1003
0000
0000
0100
0000
0000
0010
0000
0001
0000
0010
0000
0100
0000
1000
0000
,
0100
0000
0000
0010
0000
0000
0001
0000
0100
0000
0010
0000
1000
0000
0100
0000
,
1100
0000
0000
0000
;

//---------------dance-single - K. Ward----------------
#NOTES:
     dance-single:
     K. Ward:
     Medium:
     5:
     0.340,0.000,0.032,0.065,0.000,282.000,4.000,8.000,0.000,0.000,0.000:


0000
0000
0000
0000
,
0000
0000
0000
0000
,
0000
0000
0000
0000
,
0000
0000
0000
0000
,
0000
0000
0000
0000
,
1000
0000
0010
0000
,
0100
0010
1000
0000
,
0011
0000
1000
0000
,
0010
0100
0001
0000
,
1000
1000
0001
0100
,
0001
0100
0010
0000
,
1000
1000
0100
1000
,
0001
0100
0010
0000
,
1000
0010
1000
0000
1000
0000
0100
0000
,
1000
0100
1000
0000
1000
0100
1000
0000
,
2000
0000
3002
0000
,
0103
0001
1000
0000
,
0010
0010
1000
0001
,
1000
0001
0010
0000
0001
0000
0100
0000
,
0001
0100
0001
0000
1000
0100
1000
0000
,
1000
0100
1000
0000
0010
0000
1001
0000
,
0010
0100
0010
1000
,
0010
1000
0010
0100
,
0001
0000
0001
0000
,
0100
0001
1000
0000
,
1000
0000
0100
0000
0010
0001
0010
0000
,
0100
0000
1000
0000
0010
0100
0010
0000
,
1000
0000
0001
0000
0001
0100
0001
0000
,
1000
0000
0001
0000
0100
0010
0100
0000
,
0010
0000
0001
0000
1000
0100
1000
0000
,
0010
0100
0000
0100
,
0001
1000
0010
1000
,
0001
0000
2000
3001
,
0010
1000
0100
0000
0010
0000
0010
0000
,
0010
0001
0100
0000
0010
0000
0010
0000
,
0010
0001
1000
0000
0100
0000
0100
0000
,
0100
0001
0010
0000
0100
0000
0100
0000
,
0100
1000
0010
0000
0010
0000
0010
0000
,
0100
1000
0001
0000
0001
0000
0001
0000
,
0010
1000
0100
0000
0100
0000
0100
0000
,
0010
0001
0100
0000
1001
0000
0000
0000
,
1000
0100
0001
1000
,
0010
1000
0001
1000
,
0100
0001
0010
0000
0010
0000
0010
0000
,
0100
1000
0010
0000
0010
0000
0010
0000
,
0100
0010
1000
0000
0001
0000
0001
0000
,
0100
0010
1000
0000
0001
0000
0001
0000
,
1000
0010
0100
0001
,
1000
0100
1000
0000
,
1000
1000
0100
0100
,
1000
0010
1000
0001
,
0100
0010
1000
0000
1000
0001
0010
0000
,
0001
0100
0001
1000
0100
0000
1000
0000
,
0002
0000
1000
1003
,
0020
0000
0100
0130
,
0002
0000
0000
0000
,
0003
0000
0000
0000
,
0001
1000
0100
1000
,
0001
0010
0001
1000
,
0001
0000
1000
0000
1000
0010
1000
0000
,
1000
0010
1000
0000
0100
0000
1000
0000
,
0001
1000
0010
0100
,
0001
1000
0100
1000
,
0001
0100
0010
1000
,
0001
1000
0010
1000
0001
0000
1000
0000
,
1000
0000
0001
0000
0010
0001
1000
0000
,
0001
0000
1000
0000
0010
1000
0001
0000
,
1000
0000
0010
0000
0100
0010
1000
0000
,
0001
1000
0001
0000
0001
0000
1000
0000
,
0010
0010
0200
0000
,
0301
0001
2000
0000
,
3001
0100
0010
1000
,
0001
0000
1000
0000
0001
0100
0001
1000
,
1001
0000
0000
0000
;

//---------------dance-single - K. Ward----------------
#NOTES:
     dance-single:
     K. Ward:
     Easy:
     2:
     0.166,0.000,0.032,0.000,0.000,140.000,4.000,0.000,0.000,0.000,0.000:


0000
0000
0000
0000
,
0000
0000
0000
0000
,
0000
0000
0000
0000
,
0000
0000
0000
0000
,
0000
0000
0000
0000
,
0010
0000
1000
0000
,
1000
0000
0010
0000
,
0010
0000
0000
0000
,
0000
0000
0000
0000
,
1000
0000
0001
0000
,
1000
0000
0100
0000
,
1000
0000
0010
0000
,
0100
0000
0001
0000
,
1000
1000
1000
0000
,
0010
0010
0010
0000
,
1001
0000
0000
0000
,
0000
0000
0000
0000
,
1000
0000
0001
0000
,
1000
0000
0010
0000
,
0100
0000
0010
0000
,
1000
0000
0010
0000
,
1000
0000
0100
0000
,
1000
0000
1000
1000
,
1000
0000
0001
0000
,
1000
0000
0000
0000
,
0001
0000
0001
0000
,
0010
0000
0010
0000
,
0001
0000
0001
0000
,
0100
0000
0100
0000
,
0010
0000
0010
0000
,
1000
0000
1000
0000
,
0010
0000
0010
0000
,
1000
0000
0000
0000
,
1000
1000
0010
0000
,
0100
0100
0010
0000
,
1000
1000
0010
0000
,
1000
0000
0001
0000
,
0001
0001
1000
0000
,
0001
0001
0010
0000
,
0001
0001
1000
0000
,
0001
0001
1000
0000
,
0001
0000
1000
0000
,
0010
0000
0100
0000
,
0010
0000
1000
0000
,
0001
0000
1000
0000
,
0001
0001
0000
0000
,
1000
1000
0000
0000
,
1001
0000
0000
0000
,
0000
0000
0000
1000
,
1000
0000
0010
0000
,
0100
0000
0001
0000
,
1000
0000
0100
0000
,
1000
0000
1000
0000
,
0010
0000
0000
0000
,
0000
0000
1000
1000
,
1001
0000
0000
0000
,
0000
0000
0000
0000
,
0001
0001
0100
0000
,
0010
0010
0100
0000
,
0001
0001
0100
0000
,
0001
0000
1000
0000
,
1000
1000
0001
0000
,
1000
1000
0100
0000
,
1000
1000
0001
0000
,
1000
1000
0001
0001
,
1000
0000
0010
0000
,
0100
0000
0001
0000
,
1000
0000
0100
0000
,
1000
0000
1000
0010
,
0010
0000
0100
0000
,
0001
0000
1000
0000
,
0001
0000
0000
0000
,
1000
0000
0000
0000
,
1001
0000
0000
0000
;

//---------------dance-single - M. Puls----------------
#NOTES:
     dance-single:
     M. Puls:
     Challenge:
     9:
     0.672,0.000,0.146,0.267,0.352,531.000,18.000,33.000,0.000,0.000,0.000:


0000
0000
0000
0000
,
0000
0000
0000
0000
,
0000
0000
0000
0000
,
2000
0000
0000
0000
0100
0000
0010
3000
,
0002
0000
0000
0000
0000
0000
0000
0000
0010
0000
0000
0000
0100
0000
0000
0003
,
1000
0100
1000
0010
,
0100
0000
0001
0000
0010
0001
1000
0100
,
0010
0000
0001
0100
1000
0000
1000
0100
,
0001
0000
0001
0010
0100
0000
1000
0001
,
1000
1000
0100
1000
1000
0001
1000
1000
,
0100
1000
0100
0010
0010
0001
0010
0001
,
0100
0010
1000
1000
0100
0010
0001
1000
,
0100
1000
0010
0020
0000
0100
0130
0000
,
0001
0100
1000
0100
0001
0100
1000
0100
,
0001
1000
0001
0010
0011
0000
1100
0000
,
1000
0100
0010
0000
0001
0100
0010
0000
,
1000
0100
1000
0010
0100
0001
0011
0000
,
1000
0100
1000
0001
0010
0001
1000
0000
,
0010
1000
0001
1000
0002
0000
0013
0000
,
0001
0001
0100
0010
1000
0100
1000
1000
,
0001
0100
0010
1000
0200
0000
1300
0000
,
0010
0100
0001
0010
0001
0100
0010
1000
,
1000
0100
0010
0001
0010
0100
1000
0100
,
1000
0010
1000
0010
0010
0100
0001
0010
,
0001
0100
0010
1000
1000
0010
0100
0010
,
1000
0100
0000
1000
0000
0010
0100
0000
0001
0010
0000
0010
0002
0000
0000
0000
,
0013
0001
0000
0100
0000
0010
1000
0000
0010
0100
0000
0100
0020
0000
0000
0000
,
1030
0100
0000
1000
0000
0010
0100
0000
0001
0010
0000
0010
0002
0000
0000
0000
,
0013
0001
0000
0100
0000
0010
1000
0000
0010
0100
0000
0100
0020
0000
1000
0000
,
1030
0100
0000
1000
0000
0010
0100
0000
0001
0010
0000
0010
0001
0000
0010
0000
,
0001
0100
0000
0100
0000
0010
1000
0000
0010
0100
0000
0100
0010
0000
1000
0000
,
0100
1000
0000
1000
0000
0010
0100
0000
0001
0010
0000
0010
0002
0000
0010
0000
,
0013
0001
0100
0010
2000
0000
3010
0000
,
1000
0010
0110
0100
0011
0000
0100
0010
,
0010
0100
0001
0010
0000
0001
0100
0010
,
1000
0100
0100
0010
0001
0010
0001
0100
,
0001
0000
0001
0000
1000
0000
0001
1000
0000
0001
1000
0000
0001
0000
1000
0000
,
0010
0100
0100
0010
1000
0010
0100
0001
,
0010
0000
0001
0000
0100
0000
0010
1000
0000
0010
1000
0000
0001
0000
1000
0000
,
2000
0010
0010
0000
0000
0010
0010
3000
,
1000
0000
0010
0000
0010
0000
0100
0000
0100
0000
0001
0000
0010
0001
1000
0000
,
2000
0000
0001
0000
0001
0000
0001
0000
3001
0000
0100
0000
0010
1000
0002
0000
,
1000
0000
1000
0000
1000
0000
1000
0000
1003
0000
0100
0000
0010
0001
0200
0000
,
0010
0010
0310
2000
0010
3010
1000
0100
,
1000
0010
0100
0001
0010
0001
1000
2000
,
0010
0010
0010
3010
0200
0010
0010
0310
,
2000
0100
3100
0100
1000
1000
0010
1000
,
0100
0010
0001
0100
0010
0010
1000
0010
,
0100
0001
0010
0001
1000
0000
0010
1000
,
1100
0000
0000
0000
1000
0000
0000
0000
0010
0000
0100
0010
1000
0000
0100
0000
,
0010
0000
0001
0010
0001
0000
0100
0000
0010
0000
0100
0000
0001
0000
0000
0000
,
0110
1001
0011
1100
,
1000
0001
0010
0001
0100
0010
1000
1000
,
2000
0000
0001
0000
3001
0011
0000
1100
,
0000
0110
1100
0000
0001
0010
0001
1000
,
0010
0010
0000
0010
0000
0010
0000
0010
,
0200
0000
0302
0000
0013
0001
0011
0000
,
1000
0100
0000
1000
0000
0010
0100
0000
0001
0010
0000
0010
0001
0000
0001
0000
,
0010
0001
0000
0100
0000
0010
1000
0000
0010
0100
0000
0100
0010
0000
0010
0000
,
1000
0100
0000
1000
0000
0010
0100
0000
0001
0010
0000
0010
0001
0000
0001
0000
,
0010
0001
0000
0100
0000
0010
1000
0000
0010
0100
0000
0100
0020
0000
1000
0000
,
1030
0100
0000
1000
0000
0010
0100
0000
0001
0010
0000
0010
0001
0000
0010
0000
,
0001
0100
0000
0100
0000
0010
1000
0000
0010
1000
0000
1000
0100
0000
1000
0000
,
0010
0100
0000
0100
0000
0010
0100
0000
0001
0010
0000
0010
0001
0000
0100
0000
,
0100
0010
0000
0010
0000
1000
0100
0000
2000
0000
0100
0000
3100
0000
1000
0000
,
0020
0100
0230
0001
0301
0100
0010
1000
,
0200
1000
1000
1300
0010
0100
0002
0010
,
0013
0001
0010
0100
2000
0010
0010
3020
,
0000
0130
0100
0000
0010
0100
0010
1000
,
0020
0000
0100
0100
0230
0000
0001
0001
,
0302
0000
0013
0000
0001
0100
0010
1000
,
0100
1000
0000
1000
0000
0010
0100
0000
0001
0010
0000
0010
0001
0000
0100
0000
,
0010
1000
0010
0110
0000
1100
0010
0100
,
0110
0000
0000
0000
;

//---------------dance-double - M. Emirzian----------------
#NOTES:
     dance-double:
     M. Emirzian:
     Easy:
     3:
     0.202,0.000,0.040,0.032,0.000,166.000,5.000,4.000,0.000,0.000,0.000:


00000000
00000000
00000000
00000000
,
00000000
00000000
00000000
00000000
,
00000000
00000000
00000000
00000000
,
00000000
00000000
00000000
00000000
,
00000000
00000000
00000000
00000000
,
00000010
00000000
00010000
00000000
,
00001000
00010000
01000000
00000000
,
10000000
00000000
00000000
00000000
,
01000000
00000000
00100000
00000000
,
00001000
00001000
00010000
00000000
,
00001000
00001000
00000100
00000000
,
00000001
00000001
00001000
00000000
,
00000100
00000100
00010000
00000000
,
00001000
00001000
01000000
00000000
,
00100000
00100000
10000000
00000000
,
10010000
00000000
00000000
00000000
,
00100000
00000000
01000000
00000000
,
00001000
00000000
00010000
00000000
,
00001000
00000010
00000001
00000000
,
00000010
00000000
00000100
00000000
,
00001000
00000100
00000010
00000000
,
00000001
00000000
00000100
00000000
,
00000010
00010000
00001000
00000000
,
00022000
00000000
00000000
00000000
,
00033000
00000000
00000000
00000000
,
00010000
00000000
00010000
00000000
,
00100000
00000000
00100000
00000000
,
10000000
00000000
10000000
00000000
,
01000000
00000000
01000000
00000000
,
00010000
00000000
00010000
00000000
,
00001000
00000000
00001000
00000000
,
00000010
00000000
00000010
00000000
,
00000001
00000000
00000001
00000000
,
00000100
00000100
00000010
00000000
,
00010000
00010000
00001000
00000000
,
01000000
01000000
00100000
00000000
,
10000000
10000000
01000000
00000000
,
00010000
00010000
00001000
00000000
,
00000010
00000010
00000001
00000000
,
00000100
00000100
00001000
00000000
,
00010000
00010000
00001000
00000000
,
00010000
00010000
00100000
00000000
,
10000000
10000000
00010000
00000000
,
01000000
01000000
00100000
00000000
,
01000000
01000000
00001000
00000000
,
00010000
00010000
00000100
00000000
,
00001000
00001000
00000010
00000000
,
00001001
00000000
00000000
00000000
,
00000100
00000000
00000000
00000100
,
00000100
00000000
00000000
00000000
,
00000100
00000000
00010000
00000000
,
00001000
01000000
00010000
00000000
,
00010000
00000000
10000000
00000000
,
00100000
00000000
01000000
00000000
,
00002000
00000000
00000000
00000000
,
00023000
00000000
00000000
00000000
,
00030000
00000000
00000000
00000000
,
00000010
00000010
00000001
00000000
,
00000100
00000100
00000010
00000000
,
00010000
00010000
00001000
00000000
,
01000000
01000000
00100000
00000000
,
10000000
10000000
01000000
00000000
,
00010000
00010000
00001000
00000000
,
00000010
00000010
00000001
00000000
,
00000100
00000100
00000010
00000000
,
00010000
00010000
00001000
00000000
,
01000000
01000000
00100000
00000000
,
10000000
10000000
01000000
00000000
,
00010000
00010000
00001000
00000000
,
00000100
00000100
00001000
00000000
,
00000001
00000001
00000100
00000000
,
00011000
00000000
00100000
00000000
,
01000000
00000000
10000000
00010000
,
01100000
00000000
00000000
00000000
;

//---------------dance-double - M. Emirzian----------------
#NOTES:
     dance-double:
     M. Emirzian:
     Medium:
     6:
     0.345,0.000,0.040,0.008,0.000,293.000,5.000,1.000,0.000,0.000,0.000:


00000000
00000000
00000000
00000000
,
00000000
00000000
00000000
00000000
,
00000000
00000000
00000000
00000000
,
00000000
00000000
00000000
00000000
,
00000000
00000000
00000000
00000000
,
10000000
00000000
00100000
00000000
,
01000000
00001000
00010000
00000000
,
00010010
00000000
00010000
00000000
,
00001000
00000100
00000001
00000000
,
00000010
00000010
00000100
00001000
,
00000001
00000100
00001000
00000000
,
00010000
00001000
00000100
00001000
,
00010000
01000000
10000000
00000000
,
01000000
10000000
00010000
00000000
10000000
00000000
01000000
00000000
,
00010000
01000000
10000000
00000000
10000000
01000000
00010000
00000000
,
00001000
00000100
00000001
00000000
00000001
00000100
00001000
00000000
,
00000100
00000001
00001000
00000000
,
00000100
00000010
00001000
00010000
,
00001000
00010000
00100000
00000000
10000000
00000000
01000000
00000000
,
00010000
01000000
10000000
00000000
10000000
01000000
00010000
00000000
,
00001000
00000100
00000001
00000000
00000010
00000000
00001001
00000000
,
00000010
00000100
00001000
00010000
,
00100000
00010000
00001000
00000010
,
00001000
00000000
00010000
00000000
,
00100000
10000000
00010000
00000000
,
10000000
00000000
01000000
00000000
00100000
00010000
00100000
00000000
,
01000000
00000000
10000000
00000000
00100000
01000000
00100000
00000000
,
00010000
00000000
00001000
00000000
00010000
00000100
00010000
00000000
,
00001000
00000000
00010000
00000000
00000100
00001000
00000100
00000000
,
00000010
00000000
00000001
00000000
00001000
00000100
00001000
00000000
,
00000010
00000100
00000000
00000100
,
00001000
00010000
01000000
00010000
,
00001000
00000100
00001000
00010000
,
00100000
10000000
01000000
00000000
00100000
00000000
00100000
00000000
,
00100000
00010000
01000000
00000000
00100000
00000000
00100000
00000000
,
00100000
00010000
00001000
00000000
00000100
00000000
00000100
00000000
,
00000100
00000001
00000010
00000000
00000100
00000000
00000100
00000000
,
00000100
00001000
00000010
00000000
00000010
00000000
00000010
00000000
,
00000100
00001000
00010000
00000000
00010000
00000000
00010000
00000000
,
00100000
10000000
01000000
00000000
01000000
00000000
01000000
00000000
,
00100000
00010000
01000000
00000000
10010000
00000000
00000000
00000000
,
10000000
01000000
00010000
00001000
,
00000010
00001000
00010000
00001000
,
00000100
00000001
00000010
00000000
00000010
00000000
00000010
00000000
,
00000100
00001000
00000010
00000000
00000010
00000000
00000010
00000000
,
00000100
00001000
00010000
00000000
00010000
00000000
00010000
00000000
,
01000000
10000000
00010000
00000000
00000000
00000000
01000000
00000000
,
00100000
10000000
01000000
00010000
,
00001000
00000100
00000001
00000000
,
00001000
00001000
00000100
00000100
,
00000010
00000010
00000001
00000001
,
00000100
00001000
00010000
00000000
00001000
00010000
00100000
00000000
,
10000000
01000000
00010000
00000000
01000000
00010000
00001000
00000000
,
00010000
00001000
00000100
00000000
00001000
00000100
00000001
00000000
,
00000010
00000100
00001000
00000000
,
00000020
00000000
00000000
00000000
,
00000030
00000000
00000000
00000000
,
00010000
00001000
00000100
00001000
,
00010000
00100000
10000000
01000000
,
00010000
01000000
10000000
00000000
10000000
00100000
00010000
00000000
,
00001000
00000010
00000001
00000000
00000100
00000000
00000010
00000000
,
00001000
00001000
00000100
00000100
,
00010000
00001000
00000100
00001000
,
00010000
01000000
00010000
00001000
,
00010000
00000000
00100000
00000000
10000000
01000000
00100000
00000000
,
00001000
00000000
00010000
00000000
00100000
00010000
00001000
00000000
,
00010000
00000000
00001000
00000000
00000010
00001000
00010000
00000000
,
00001000
00000000
00000010
00000000
00000100
00000010
00000001
00000000
,
00000001
00000100
00001000
00000000
00010000
01000000
10000000
00000000
,
00100000
00100000
01000000
01000000
,
00010000
00000000
00010000
00000000
00100000
00001000
00010000
00000000
,
00010100
00010000
00000010
00000010
,
00000100
00000000
00000001
00000010
00000100
00001000
00000010
00000000
,
00001001
00000000
00000000
00000000
;

//---------------dance-double - M. Emirzian----------------
#NOTES:
     dance-double:
     M. Emirzian:
     Hard:
     8:
     0.480,0.000,0.259,0.024,0.053,381.000,32.000,3.000,0.000,0.000,0.000:


00000000
00000000
00000000
00000000
,
00000000
00000000
00000000
00000000
,
00000000
00000000
00000000
00000000
,
00000000
00000000
00000000
00000000
,
00000000
00000000
00000000
00000000
,
10000000
01000000
00010000
00001000
,
00010000
00000000
01000000
00000000
00010000
00001000
00000010
00001000
,
00010000
00001000
00000000
00000010
00000000
00000001
00000000
00000100
,
00000000
00000010
00000000
00002000
00000000
00000000
00000000
00000000
,
00003001
00000100
00001000
00000000
00001100
00000000
00011000
00000000
,
00010000
01000000
10000000
00000000
10100000
00000000
00110000
00000000
,
00010000
00001000
00000100
00001000
00010000
00000000
01000000
00000000
,
00010000
00001000
00000010
00000001
00000010
00000000
00000100
00000000
,
00001000
00000100
00000001
00000000
00001100
00000000
00011000
00000000
,
00010000
00100000
10000000
00100000
00010000
00001000
00011000
00000000
,
00110000
00100000
00000000
10000000
00000000
01000000
00000000
00100000
,
00000000
00010000
10000000
01000000
00100000
00001000
00010000
00000000
,
00000001
00000100
00001000
00000000
00001100
00000000
00000101
00000000
,
00000001
00000010
00001000
00000000
00001010
00000000
00011000
00000000
,
00001000
00010000
01000000
00010000
00001000
00000000
00010000
00000000
,
00001000
00010000
00100000
10000000
01000000
00000000
00100000
00000000
,
00010000
01000000
10000000
00000000
01010000
00000000
00011000
00000000
,
00010000
00001000
00000010
00000001
00000010
00001000
00011000
00000000
,
00001010
00000001
00000000
00001000
00000000
00000100
00000000
00000001
,
00000000
00000100
00001000
00000010
00000100
00001000
00010000
00000100
,
00010000
00000000
00000000
00001000
00000000
00000000
00010000
00000000
00100000
00000000
00000000
00000000
10000000
00000000
00000000
00000000
,
01000000
00000000
00000000
00010000
00000000
00000000
01000000
00000000
10000000
00000000
00000000
00000000
01000000
00000000
00000000
00000000
,
00010000
00000000
00000000
01000000
00000000
00000000
00100000
00000000
00001000
00000000
00000000
00000000
00010000
00000000
00000000
00000000
,
00100000
00000000
00000000
00010000
00000000
00000000
00001000
00000000
00000010
00000000
00000000
00000000
00000001
00000000
00000000
00000000
,
00001000
00000000
00000000
00000100
00000000
00000000
00000010
00000000
00000001
00000000
00000000
00000000
00000010
00000000
00000000
00000000
,
00000100
00000000
00000000
00001000
00000000
00000000
00000001
00000000
00001000
00000000
00000000
00000000
00000010
00000000
00000000
00000000
,
00000100
00000000
00000000
00001000
00000000
00000000
00010000
00000000
01000000
00000000
00000000
00000000
00010000
00000000
00000000
00000000
,
00002000
00000000
00000000
00000000
,
00013000
00100000
10000000
00000000
00100000
00000000
10000000
01000000
,
00100000
00010000
01000000
00000000
00010000
00000000
10000000
01000000
,
00100000
01000000
10000000
00000000
01010000
00000000
00011000
00000000
,
00010000
00001000
00000100
00000001
00000100
00001000
00010000
00000000
,
00001000
00000010
00000100
00000000
00000010
00000000
00000001
00000010
,
00000100
00001000
00000010
00000000
00001000
00000000
00000001
00000100
,
00001000
00000100
00000001
00000000
00001100
00000000
00011000
00000000
,
00100000
10000000
01000000
00010000
01000000
10000000
00100000
00000000
,
10000000
01000000
00100000
00000000
00010000
00000000
01000000
00100000
,
10000000
01000000
00100000
00000000
00010000
00000000
10000000
01000000
,
00010000
01000000
10000000
00000000
00011000
00000000
00001010
00000000
,
00000010
00000001
00000100
00001000
00000100
00000001
00000010
00000000
,
00000100
00001000
00000010
00000100
00001000
00010000
00100000
00010000
,
00001000
00000010
00001000
00010000
00100000
10000000
00100000
00010000
,
00001000
00010000
01000000
00000000
11000000
00000000
01010000
00000000
,
00010000
00001000
00000100
00001000
00010000
00000000
00010010
00000000
,
00001010
00000001
00000110
00011000
,
00010000
01000000
10000000
00000000
10100000
00000000
00110000
00000000
,
00010000
00001000
00000010
00001000
00010000
00000000
00001000
00000000
,
00010000
00001000
00000100
00001000
00010000
00000000
00001000
00000000
,
00000010
00000001
00000000
00000100
00000000
00001000
00000000
00010000
,
00000000
01000000
10000000
00100000
00010000
00100000
10000000
01000000
,
00200000
00010000
00000000
00010000
00000000
00010000
00000000
00010000
,
00300000
00000000
00000000
00000000
,
00100000
00000000
00000000
00010000
00000000
00000000
01000000
00000000
10000000
00000000
01000000
00000000
00100000
00000000
00010000
00000000
,
10000000
00000000
00000000
01000000
00000000
00000000
00100000
00000000
00010000
00000000
00001000
00000000
00000100
00000000
00000001
00000000
,
00001000
00000000
00000000
00000100
00000000
00000000
00000010
00000000
00000001
00000000
00000100
00000000
00001000
00000000
00000100
00000000
,
00000001
00000000
00000000
00000010
00000000
00000000
00000100
00000000
00010000
00000000
00001000
00000000
01000000
00000000
00100000
00000000
,
10000000
00000000
00000000
01000000
00000000
00000000
00100000
00000000
00010000
00000000
01000000
00000000
00010000
00000000
00100000
00000000
,
01000000
00000000
00000000
10000000
00000000
00000000
00100000
00000000
01000000
00000000
00001000
00000000
00010000
00000000
00000100
00000000
,
00000010
00000001
00000100
00000010
,
00010000
00001000
00000100
00001000
00010000
01000000
10000000
00000000
,
00010000
01000000
10000000
00000000
01000000
00000000
00010000
00100000
,
01000000
10000000
00100000
00000000
01000000
00000000
00010000
00100000
,
01000000
10000000
00100000
00000000
00110000
00000000
00011000
00000000
,
00010000
00001000
00000100
00000001
00000100
00001000
00010000
00000000
,
00001000
00000100
00000001
00000000
00000010
00000000
00001000
00000010
,
00000001
00000010
00001000
00000000
00010000
00000000
00001000
00000000
,
00000100
00001000
00010000
01000000
,
10000000
01000000
00010000
01000000
10000000
00000000
10000000
01000000
,
00010000
00000000
00000000
00000000
;

//---------------dance-double - M. Emirzian----------------
#NOTES:
     dance-double:
     M. Emirzian:
     Challenge:
     9:
     0.636,0.000,0.307,0.040,0.441,508.000,38.000,5.000,14.000,1.000,0.000:


00000000
00000000
00000000
00000000
,
00000000
00000000
00000000
00000000
,
00000000
00000000
00000000
00000000
,
00000000
00000000
00000000
00000000
,
00000000
00000000
00000000
00000000
,
00001000
00010000
00100000
00010000
,
00001000
00000010
00001000
00000000
00010000
00100000
00010000
00000000
,
00001000
00000000
00000000
00010000
00000000
00000000
00000000
00000000
00000000
02000000
00000000
00000000
00000000
00000000
00000000
20000000
00000000
00000000
00000000
00000000
00000000
00100000
33000000
00000000
,
00000000
00100000
00000000
10100000
00000000
00110000
00000000
00100000
,
10000000
00100000
00010000
00000000
00001000
00000000
00000010
00000000
,
00000001
00000100
00000010
00000000
00010100
00000000
00001100
00000000
,
00000010
00000001
00000100
00001000
00000100
00000000
00000001
00000100
,
00001000
00010000
01000000
00000000
11000000
00000000
10010000
00000000
,
00100000
10000000
01000000
00010000
01000000
10000000
00100000
00010000
,
00001000
00000010
00001000
00010000
00001000
00000100
00000001
00000010
,
00000000
00001001
00000000
00001100
00000000
00001001
00000000
00011000
,
00000000
00110000
00000000
10010000
00000000
01000000
10010000
00000000
,
00100000
10000000
01000000
00000000
00010000
00000000
01000000
10000000
,
00100000
00010000
00001000
00000000
00010000
00000000
00001000
00000000
,
00000100
00000001
00000010
00001000
00010000
00100000
00010000
00001000
,
00010000
01000000
10000000
00100000
10000000
00000000
01000000
00000000
,
00010000
00001000
00000100
00000001
00000010
00001000
00000010
00000001
,
00000100
00000010
00010000
00000010
00000100
00001000
00010000
00100000
,
00010000
00011000
000MM000
00010100
000M0M00
00011000
000MM000
01001000
,
00000000
00110000
00MM0000
10010000
00000000
00110000
00000000
11000000
,
01000000
00000000
00000000
00100000
00000000
00000000
00001000
00000000
00010000
00000000
01000000
00000000
00010000
00000000
00001000
00000000
,
00000010
00000000
00000000
00000001
00000000
00000000
00000010
00000000
00001000
00000000
00010000
00000000
00000100
00000000
00000010
00000000
,
00000001
00000000
00000000
00000100
00000000
00000000
00001000
00000000
00010000
00000000
01000000
00000000
00100000
00000000
00001000
00000000
,
00010000
00000000
00000000
00100000
00000000
00000000
10000000
00000000
00100000
00000000
00010000
00000000
00001000
00000000
00000100
00000000
,
00001000
00000000
00000000
00010000
00000000
00000000
01000000
00000000
00100000
00000000
00001000
00000000
00010000
00000000
00000010
00000000
,
00000100
00000000
00000000
00000001
00000000
00000000
00000010
00000000
00001000
00000000
00000010
00000000
00000001
00000000
00000100
00000000
,
00001000
00000000
00000000
00100000
00000000
00000000
01000000
00000000
00010000
00000000
00001000
00000000
00000100
00000000
00001000
00000000
,
00020000
00000000
00000000
00030000
,
00010000
00001000
00000000
00010000
00000000
00001000
01000000
00000000
00010000
00000000
00100000
00000000
01000000
00000000
10000000
00000000
,
00100000
01000000
00000000
00100000
00000000
01000000
00010000
00000000
00100000
00000000
01000000
00000000
10000000
00000000
00100000
00000000
,
01000000
00010000
00000000
01000000
00000000
00001000
00010000
00000000
00000100
00000000
00000010
00000000
00000001
00000000
00000100
00000000
,
00000010
00001000
00000000
00000100
00000000
00000010
00000001
00000000
00000100
00000000
00001000
00000000
00010000
00000000
00001000
00000000
,
00000100
00000010
00000000
00010000
00000000
00001000
00100000
00000000
00010000
00000000
01000000
00000000
00100000
00000000
10000000
00000000
,
01000000
00100000
00000000
00001000
00000000
00100000
01000000
00000000
00010000
00000000
00001000
00000000
01000000
00000000
00100000
00000000
,
00010000
00001000
00000000
00010000
00000000
00000100
00001000
00000000
00000010
00000000
00000100
00000000
00000001
00000000
00000010
00000000
,
00000100
00000000
00001000
00000000
00000010
00000000
00000100
00000000
00000001
00000100
00000001
00000000
00001000
00000010
00001000
00000000
,
00000001
00001000
00000000
00000100
00000000
00010000
00001000
00000000
00010000
00000000
01000000
00000000
10000000
00000000
00100000
00000000
,
01000000
00001000
00000000
01000000
00000000
00100000
01000000
00000000
00010000
00000000
00100000
00000000
01000000
00000000
00010000
00000000
,
00001000
00010000
00000000
00000010
00000000
00001000
00000100
00000000
00000010
00000000
00000001
00000000
00000100
00000000
00001000
00000000
,
00010000
00001000
00000000
00000100
00000000
00000010
00001000
00000000
00000100
00000000
00000010
00000000
00001000
00000000
00010000
00000000
,
00100000
01000000
00000000
00010000
00000000
10000000
01000000
00000000
00010000
00000000
00001000
00000000
00010000
00000000
01000000
00000000
,
00100000
00001000
00000000
00010000
00000000
00000010
00001000
00000000
00000100
00000000
00000010
00000000
00000001
00000000
00000100
00000000
,
00000010
00001000
00000000
00000100
00000000
00010000
00001000
00000000
01000000
00010000
00000000
00100000
01000000
00000000
10000000
00010000
,
10000000
00010000
00000000
00100000
00000000
00001000
00010000
00000000
00000010
00000000
00001000
00000000
00001001
00000000
00000100
00000000
,
00000110
00001000
00000100
00000010
00000001
00000100
00001000
00010000
,
00100000
00010000
00001000
00000010
00001000
00010000
01000000
00100000
,
00001000
00010000
00100000
10000000
01000000
00100000
00001000
00100000
,
01000000
00010000
00001000
00000100
00001000
00010000
00000010
00001000
,
00000100
00001001
0000M00M
00001100
0000MM00
00001001
00000000
00011000
,
00000000
00110000
00MM0000
10010000
00000000
10100000
11000000
01010000
,
00000000
10010000
00000000
00011000
00000000
00001100
00000000
00000202
,
00000000
00000000
00000000
00000000
00000000
00000000
00000000
00000303
,
00000100
00000001
00000000
00000100
00000000
00000010
00010000
00000000
00001000
00000000
00000010
00000000
00001000
00000000
00010000
00000000
,
01000000
00100000
00000000
00010000
00000000
01000000
00001000
00000000
00010000
00000000
00100000
00000000
10000000
00000000
01000000
00000000
,
00100000
00001000
00000000
00010000
00000000
00000100
00000010
00000000
00000001
00000000
00000100
00000000
00001000
00000000
00010000
00000000
,
00001000
00000100
00000000
00000010
00000000
00001000
00000100
00000000
00000010
00000000
00000001
00000000
00000010
00000000
00001000
00000000
,
00010000
00100000
00000000
01000000
00000000
00100000
10000000
00000000
00010000
00000000
10000000
00000000
00100000
00000000
00010000
00000000
,
00001000
01000000
00000000
00001000
00000000
00010000
00000100
00000000
00000010
00000000
00000001
00000000
00000100
00000000
00000010
00000000
,
00010000
00000010
00000000
00000100
00000000
00001000
00010000
00000000
00000100
00000000
00000010
00000000
00001000
00000000
00010000
00000000
,
00000100
00000000
00010000
00000000
00001000
00000000
01000000
00000000
00100000
10000000
00100000
00000000
01000000
00010000
01000000
00000000
,
00010000
10000000
00000000
00100000
00000000
01000000
00010000
00000000
00100000
00000000
01000000
00000000
10000000
00000000
00100000
00000000
,
00010000
00001000
00000000
00100000
00000000
00001000
00010000
00000000
01000000
00000000
00010000
00000000
00001000
00000000
00000100
00000000
,
00000010
00010000
00000000
00000100
00000000
00001000
00000001
00000000
00000010
00000000
00001000
00000000
00010000
00000000
00001000
00000000
,
00000100
00000010
00000000
00001000
00000000
00000100
00000010
00000000
00001000
00000000
00010000
00000000
01000000
00000000
10000000
00000000
,
01000000
00100000
00000000
00001000
00000000
00100000
01000000
00000000
10000000
00000000
00100000
00000000
00010000
00000000
00001000
00000000
,
01000000
00001000
00000000
00010000
00000000
00001000
00000100
00000000
00000010
00000000
00010000
00000000
00000100
00000000
00000010
00000000
,
00000100
00010000
00000000
00001000
00000000
01000000
00100000
00000000
10000000
01000000
00000000
00100000
00010000
00000000
00100000
00001000
,
00100000
00001000
00000000
00010000
00000000
00000010
00001000
00000000
00000100
00000010
00000001
00000010
00000001
00000000
00001001
00000000
,
00000101
00000000
00000000
00000000
;

//---------------lights-cabinet - ----------------
#NOTES:
     lights-cabinet:
     :
     Easy:
     1:
     1.000,0.295,1.000,0.089,0.000,330.000,248.000,11.000,0.000,218.000,0.000:


00000000
00000000
00000000
00000000
,
10010011
01100000
10010000
01100000
,
10010000
01100000
10010000
01100000
,
10010000
01100000
10010000
01100000
,
10010000
01100000
10010000
01100000
,
10010011
01100000
10110011
01100000
,
11010011
01100000
10010011
01100011
,
10110011
01100000
10010011
01100000
,
10110011
01100011
22220011
33330011
,
10000011
10000011
00010011
01000011
,
00010011
01000011
00100011
00010011
,
10000011
10000011
01100011
10000011
,
10010011
01000011
00100011
10010011
,
10000011
00100000
10000011
00000000
10000011
00000000
01000011
00000000
,
10000011
01000000
10000011
00000000
10000011
01000000
10000011
00000000
,
10010011
00000000
01100011
00000000
,
01000011
00000000
00010011
00000000
10000011
10010000
10010000
00000000
,
00100011
00100011
10000011
00010011
,
10000011
00010000
00100011
00000000
00010011
00000000
01000011
00000000
,
00010011
01000000
00010011
00000000
10000011
01000000
10000011
00000000
,
10000011
01000000
10000011
00000000
00100011
00000000
10010011
00000000
,
00100011
01000011
00100011
10000011
,
00100011
10000011
00100011
01000011
,
00010011
11100011
00010011
11100011
00010011
11100011
00010011
11100011
,
01010011
11100011
00010011
11100011
10010011
11100011
00010011
11100011
,
10010011
00000000
01000000
00000000
00100000
00010000
00100000
00000000
,
01000000
00000000
10000000
00000000
00100000
01000000
00100000
00000000
,
10000000
00000000
00010000
00000000
00010000
01000000
00010000
00000000
,
10000000
00000000
00010000
00000000
01000000
00100000
01000000
00000000
,
00100000
00000000
00010000
00000000
10000000
01000000
10000000
00000000
,
00100000
00000000
01000000
00000000
00010000
10000000
01000000
00000000
,
00010000
00000000
10000000
00000000
00100000
10000000
10010000
00000000
,
10010000
00000000
20000000
30010000
,
00100011
10000000
01000011
00000000
00100011
00000000
00100011
00000000
,
00100011
00010000
01000011
00000000
00100011
00000000
00100011
00000000
,
00100011
00010000
10000011
00000000
01000011
00000000
01000011
00000000
,
01000011
00010000
00100011
00000000
01000011
00000000
01000011
00000000
,
01000011
10000000
00100011
00000000
00100011
00000000
00100011
00000000
,
01000011
10000000
00010011
00000000
00010011
00000000
00010011
00000000
,
00100011
10000000
01000011
00000000
01000011
00000000
01000011
00000000
,
00100011
00010000
01000011
00000000
10010011
00000000
00000011
00000000
,
10000011
01000011
00010011
10000011
,
00100011
00000000
10000011
00000000
00010011
00000000
10000011
00100000
,
01000011
00010000
00100011
00000000
00100011
00000000
00100011
00000000
,
01000011
10000000
00100011
00000000
00100011
00000000
00100011
00000000
,
01000011
00100000
10000011
00000000
00010011
00000000
00010011
00000000
,
01000011
00100000
10000011
00000000
00010011
00000000
01100011
00000000
,
10000011
00100000
01000011
00010000
,
10010011
00000000
01100000
00000000
10010011
00000000
10010011
10010011
,
10010011
10000000
01000011
01000000
,
10000011
00100000
10000011
00010000
,
01000011
00100000
10000000
00000000
10000011
00010000
00100000
00000000
,
00010011
01000000
00010011
10000000
01000011
00000000
10000011
00000000
,
00010011
00010000
10010000
10010000
,
00100000
00100000
01100011
01100011
,
22220022
00000000
00330000
33000033
00000000
00000000
00000000
00000000
,
00000000
00000000
00000000
00000000
,
00010011
10000011
01000011
10000011
,
00010011
00100011
00010011
10000011
,
00010011
00000000
10000011
00000000
10000011
00100000
10000011
00000000
,
10000011
00100000
10000011
00000000
01000011
00000000
10000011
00000000
,
00010011
10000011
00100011
01000011
,
00010011
10000011
01000011
10000011
,
00010011
01000011
00100011
10000011
,
00010011
10000000
00100011
10000000
00010011
00000000
10000010
00000001
,
10000011
00000000
00010011
00000000
00100011
00010000
10000011
00000000
,
00010011
00000000
10000011
00000000
00100011
10000000
00010011
00000000
,
10000011
00000000
00100011
00000000
01000011
00100000
10000011
00000000
,
00010011
10000000
00010011
00000000
00010011
00000000
10000011
00000000
,
00100011
00100000
01000011
01000000
,
10110011
00010000
10000011
11000000
,
10010011
01000011
00010011
11000011
,
10010011
00000000
11100011
00000000
10010011
00000000
00110011
10000011
,
10010011
00000000
00000000
00000000
;

//---------------dance-single - M. Puls----------------
#NOTES:
     dance-single:
     M. Puls:
     Beginner:
     1:
     0.072,0.000,0.008,0.000,0.000,61.000,1.000,0.000,0.000,0.000,0.000:


0000
0000
0000
0000
,
0000
0000
0000
0000
,
0000
0000
0000
0000
,
0000
0000
0000
0000
,
0000
0000
0000
0000
,
0010
0000
0000
0000
,
0000
0000
0000
0000
,
0010
0000
0000
0000
,
0000
0000
0000
0000
,
0100
0000
0000
0000
,
0100
0000
0000
0000
,
0010
0000
0000
0000
,
0001
0000
0000
0000
,
0010
0000
0000
0000
,
0100
0000
0000
0000
,
0010
0000
0000
0000
,
0000
0000
0000
0000
,
0010
0000
0000
0000
,
0010
0000
0000
0000
,
0100
0000
0000
0000
,
1000
0000
0000
0000
,
0100
0000
0000
0000
,
0010
0000
0000
0000
,
0100
0000
0000
0000
,
0000
0000
0000
0000
,
1000
0000
0000
0000
,
1000
0000
0000
0000
,
1000
0000
0000
0000
,
0001
0000
0000
0000
,
0001
0000
0000
0000
,
0001
0000
0000
0000
,
1000
0000
1000
0000
,
1000
0000
0000
0000
,
0001
0000
0000
0000
,
1000
0000
0000
0000
,
0100
0000
0000
0000
,
0000
0000
0000
0000
,
1000
0000
0000
0000
,
0001
0000
0000
0000
,
0010
0000
0000
0000
,
0000
0000
0000
0000
,
0100
0000
0000
0000
,
0001
0000
0000
0000
,
1000
0000
0001
0000
,
1000
0000
0000
0000
,
0010
0000
0000
0000
,
0100
0000
0000
0000
,
0010
0000
0000
0000
,
0000
0000
0000
0000
,
0000
0000
0000
0000
,
0010
0000
0000
0000
,
0010
0000
0010
0000
,
0000
0000
0000
0000
,
0100
0000
0000
0000
,
0001
0000
0000
0000
,
1000
0000
0000
0000
,
0000
0000
0000
0000
,
1000
0000
0000
0000
,
0100
0000
0000
0000
,
1000
0000
0000
0000
,
0001
0000
0000
0000
,
0010
0000
0000
0000
,
0001
0000
0000
0000
,
0100
0000
0000
0000
,
0010
0000
0000
0000
,
0100
0000
0000
0000
,
1000
0000
0000
0000
,
0010
0000
0000
0000
,
1000
0000
0000
0000
,
0001
0000
0000
0000
,
0100
0000
0000
0000
,
0001
0000
0000
0000
,
0000
0000
0000
0000
,
1001
0000
0000
0000
;
