#TITLE:Amore;
#SUBTITLE:;
#ARTIST:Uniq;
#TITLETRANSLIT:;
#SUBTITLETRANSLIT:;
#ARTISTTRANSLIT:;
#GENRE:Dance;
#CREDIT:;
#BANNER:Amore-banner.png;
#BACKGROUND:Amore-bg.png;
#LYRICSPATH:;
#CDTITLE:;
#MUSIC:Amore.ogg;
#OFFSET:-0.400;
#SAMPLESTART:68.820;
#SAMPLELENGTH:11.860;
#SELECTABLE:YES;
#BPMS:0.000=143.000,96.000=139.879,100.000=71.500,115.000=73.120,116.000=143.000;
#STOPS:146.000=0.419
;
#BGCHANGES:0.000=Amore-bg.png=1.000=0=0=1=====,
16.000=In The Groove 2/807_JumpBack.mpg=1.400=0=0=1=====,
32.000=In The Groove 2/951_JumpBack.mpg=1.400=0=0=1=====,
48.000=In The Groove 2/765_JumpBack.mpg=1.000=0=0=1===FadeLeft==,
64.000=In The Groove 2/983_JumpBack.mpg=1.000=0=0=1=====,
80.000=In The Groove 2/934_JumpBack.mpg=1.000=0=0=1===FadeRight==,
96.000=In The Groove 2/934_JumpBack.mpg=1.000=0=0=1=SongBgWithMovieViz====,
100.000=In The Groove 2/628_JumpBack.mpg=1.000=1=0=1===CrossFade=0^1^1^1=,
108.000=In The Groove 2/628_JumpBack.mpg=1.000=1=0=1===CrossFade==,
116.000=-random-=1.000=0=0=1=====,
132.000=-random-=1.000=0=0=1=====,
146.000=In The Groove 2/761_JumpBack.mpg=1.000=0=0=1=SongBgWithMovieViz====,
147.000=-random-=1.000=0=0=1=====,
163.000=-random-=1.000=0=0=1===FadeLeft==,
179.000=-random-=1.000=0=0=1=====,
195.000=-random-=1.000=0=0=1===FadeRight==,
211.000=In The Groove 2/641_JumpBack.mpg=1.000=0=0=1=====,
227.000=In The Groove 2/761_JumpBack.mpg=1.000=0=0=1===FadeDown==,
235.000=Amore-bg.png=1.000=0=0=1=StretchNormal====,
99999=-nosongbg-=1.000=0=0=0 // don't automatically add -songbackground-
;
#BGCHANGES2:16.000=white flash=1.000=0=0=1=====,
24.000=flash=1.000=0=0=1====0^1^0^1=,
28.000=flash=1.000=0=0=1====0^1^1^1=,
30.000=flash=1.000=0=0=1====1^0^1^1=,
32.000=white flash=1.000=0=0=1=====,
64.000=white flash=1.000=0=0=1=====,
96.000=white flash=1.000=0=0=1=====,
116.000=white flash=1.000=0=0=1=====,
132.000=white flash=1.000=0=0=1=====,
140.000=yellow flash=1.000=0=0=1=====,
144.000=flash=1.000=0=0=1====1^0^1^1=,
146.000=flash=1.000=0=0=1====0^1^1^1=,
147.000=white flash=1.000=0=0=1=====,
179.000=white flash=1.000=0=0=1=====,
211.000=white flash=1.000=0=0=1=====,
235.000=white flash=1.000=0=0=1=====,
;
#KEYSOUNDS:;
// cache tags:
#FIRSTBEAT:16.000;
#LASTBEAT:239.000;
#SONGFILENAME:/Songs/In The Groove 2/Amore/Amore.sm;
#HASMUSIC:1;
#HASBANNER:1;
#MUSICLENGTH:109.667;
// end cache tags

//---------------dance-single - K.W----------------
#NOTES:
     dance-single:
     K.W:
     Hard:
     8:
     0.498,0.000,0.173,0.347,0.397,325.000,19.000,38.000,8.000,0.000,0.000:
0000
0000
0000
0000
,
0000
0000
0000
0000
,
0000
0000
0000
0000
,
0000
0000
0000
0000
,
1001
0000
0000
0000
0000
0000
0000
0100
,
0010
0000
0000
0000
,
1001
0000
0000
0000
0000
0000
0000
0010
,
0100
0010
1100
0110
,
0001
0010
0000
0001
0000
0100
0010
0000
1000
0000
0100
0010
0000
0100
0000
0000
,
0000
0000
1000
0100
0000
1000
0000
0010
0100
0000
0000
0000
1001
0000
0000
0000
,
0010
0100
0000
0001
0000
0010
0100
0000
0010
0000
0000
0100
0000
1000
0000
0000
,
0000
0000
0010
0100
0000
0001
0000
0010
0001
0000
0000
0000
0110
0000
0000
0000
,
0000
0100
0000
1000
0000
0100
0010
0000
0100
0000
0000
0010
0000
0000
0110
0000
,
0000
0100
0000
1000
0000
0010
0100
0000
0001
0000
0000
0010
0000
0000
0011
0000
,
0000
0001
0000
0100
0000
0010
1000
0000
0100
0000
0000
1000
0000
0000
1100
0000
,
0000
0010
0000
0100
0000
0001
0010
0000
0002
0000
0000
0000
0013
0000
0000
0000
,
1000
0000
0100
1000
0000
0000
0010
0000
0100
0000
0001
0010
0000
0000
0001
0000
,
1000
0000
0100
1000
0000
0000
0100
0000
0010
0000
0001
0000
1001
0000
0000
0000
,
0001
0000
0010
0001
0000
0000
0100
0000
0010
0000
0100
1000
0000
0000
0100
0000
,
0001
0000
0010
0001
0000
0000
1000
0000
0100
0000
0010
0000
0110
0000
0000
0000
,
0000
1000
0000
0100
0000
1000
0100
0000
0010
0000
0000
0100
0000
0000
1010
0000
,
0000
0100
0000
0001
0000
0010
0001
0000
1000
0000
0000
0001
0000
0000
0101
0000
,
0000
0001
0000
0010
0000
0100
0010
0000
0100
0000
0000
1000
0000
0000
0110
0000
,
0000
0010
0000
0100
0000
0001
0010
0000
0001
0000
0000
1000
0000
0000
1001
0000
,
0000
0000
0000
0000
,
0002
0000
0000
0020
0000
0000
0000
0000
0033
0000
0001
0000
0100
0000
0010
0000
,
0200
0000
0000
2000
0000
0000
0000
0000
3300
0000
0100
0000
0001
0000
0010
0000
,
0200
0000
0000
0020
0000
0000
0000
0000
0330
0000
0100
0000
0010
0000
0100
0000
,
0200
0000
0000
2000
0000
0000
0000
0000
0000
0000
0000
0000
3300
0000
0000
0000
,
MM01
0000
0010
0001
0000
0000
0100
0000
0020
0000
0000
0000
0130
0000
0000
0000
,
0001
0000
0010
0001
0000
0000
0010
0000
0200
0000
0000
0000
1300
0000
0000
0000
,
0010
0000
0100
0001
0000
0000
0010
0000
0002
0000
0000
0000
0013
0000
0000
0000
,
1000
0000
0100
1000
0000
0000
0100
0000
0020
0000
0000
0000
0130
0000
0000
0000
,
1000
0000
1000
0010
0000
0000
0100
0000
0001
0000
0001
0010
0000
0000
0100
0000
,
1000
0000
0100
0010
0000
0000
0100
0000
2000
0000
0000
0000
3001
0000
0000
0000
,
0100
0000
0001
0010
0000
0000
0001
0000
0100
0000
0010
1000
0000
0000
0100
0000
,
0010
0000
0000
0000
0001
0000
0000
0000
2002
3003
MMMM
0000
1000
0000
0100
0010
,
0100
0000
1000
0000
0010
0000
0001
0000
0010
0000
0100
0000
0001
0000
0010
0001
,
0010
0000
0100
0000
0010
0000
0100
0000
2000
0000
0000
0000
3001
0000
0100
0010
,
0100
0000
0001
0000
0010
0000
0100
0000
0010
0000
0001
0000
1000
0000
0100
1000
,
0100
0000
0010
0000
0100
0000
1000
0000
2000
0000
0000
0000
3001
0010
0000
0001
,
0000
0000
0100
0000
0010
1000
0000
0010
0000
0000
0100
0000
0001
0010
0000
0001
,
0000
0000
1000
0000
0001
0000
1000
0000
1001
0000
0000
0000
0001
0000
0000
0001
,
0010
0000
0000
0010
0200
0000
0000
0000
0310
0000
0000
0000
0100
0000
0000
0100
,
1000
0000
0000
1000
0010
0000
0100
0000
0001
0000
0000
0000
1000
0000
0000
1000
,
0100
0000
0010
0000
0100
0000
1000
0000
0010
0000
0010
0000
0100
0000
0000
0100
,
0001
0000
0010
0000
0001
0000
0010
0000
0100
0000
0000
0000
1000
0000
0000
1000
,
0010
0000
0100
0000
0001
0000
0010
0000
0001
0000
0001
0000
0100
0000
0000
0010
,
1000
0000
0100
0000
0010
0000
0100
0000
2000
0000
0000
0000
3001
0010
0000
0000
,
0100
0000
0010
0000
0200
0000
0000
0000
1300
0000
0000
0000
0001
0100
0000
0000
,
0010
0001
0020
0000
1030
0000
0200
0000
,
1000
0010
1300
0020
,
0001
0000
0130
0001
1000
0000
1001
0000
,
0000
2200
0000
0000
3300
0000
0000
0000
,
0002
2003
3020
0230
,
0000
0302
0000
0000
0000
1000
1003
000M
,
0100
1000
0010
0000
0100
0001
0020
0000
,
0000
0000
0230
0000
0000
0000
0000
0000
0000
0000
1300
0000
1000
0M00
0000
0000
,
0002
0203
0320
2030
,
0000
0002
0000
0000
0000
0000
3003
0000
;

//---------------dance-single - K.W----------------
#NOTES:
     dance-single:
     K.W:
     Easy:
     3:
     0.177,0.000,0.082,0.091,0.000,117.000,9.000,10.000,0.000,0.000,0.000:
0000
0000
0000
0000
,
0000
0000
0000
0000
,
0000
0000
0000
0000
,
0000
0000
0000
0000
,
1001
0000
0000
0000
,
0000
0000
0000
0000
,
0110
0000
0000
0000
,
1000
0000
0010
0100
,
0001
0001
0001
0000
,
1000
1000
1000
0000
,
0010
0000
0010
0000
,
0100
0100
0100
0000
,
0001
0000
0001
0000
,
0100
0000
0100
0000
,
0001
0001
1000
1000
,
1001
0000
0010
0000
,
1000
0000
0001
0000
,
0010
0000
0001
0001
,
1000
0000
0010
0000
,
0100
0000
0001
0001
,
0100
0000
0010
0000
,
1000
0000
0001
0000
,
1000
1000
1000
0000
,
0001
0001
0001
0000
,
1001
0000
0000
0000
,
2000
0000
3000
0000
,
0002
0000
0003
0000
,
0200
0000
0300
0001
,
1000
0000
0000
0000
,
1001
0000
0000
0000
,
0000
0001
0010
0001
,
2000
0000
3000
0000
,
0000
0010
0100
0001
,
0020
0000
0030
0000
,
0000
0001
1000
0100
,
2000
0000
3000
0000
,
0001
0000
1001
0000
,
1000
0000
1000
0000
,
0010
0000
0010
0000
,
0100
0000
0100
0000
,
0001
0001
0000
1000
,
0000
0100
0000
1000
,
0000
0001
0000
1000
,
1000
1000
0000
0001
,
0001
0001
0000
0100
,
0000
0010
0000
1000
,
0000
0001
0000
0010
,
0000
0001
0000
1000
,
0000
1001
0000
0100
,
0100
0100
0000
0010
,
0010
0010
0000
1000
,
0001
1000
0001
1000
,
0000
0001
0000
1001
,
0000
0000
0000
0000
,
0001
0001
1000
2000
,
0000
3000
0000
0000
,
0010
0010
0000
2000
,
0000
3000
0000
0000
,
0001
1000
0100
2002
,
0000
0000
0000
3003
;

//---------------dance-single - K.W----------------
#NOTES:
     dance-single:
     K.W:
     Medium:
     5:
     0.323,0.000,0.182,0.155,0.000,211.000,20.000,17.000,0.000,0.000,0.000:
0000
0000
0000
0000
,
0000
0000
0000
0000
,
0000
0000
0000
0000
,
0000
0000
0000
0000
,
1001
0000
0000
1100
0000
0000
0000
0000
,
0000
0010
0100
0001
,
1001
0000
0000
0011
0000
0000
0000
0000
,
0110
0000
1001
1001
,
1000
0010
0100
0010
,
1000
0000
0010
0000
0100
0001
0010
0000
,
0001
0010
0100
0010
,
0100
0000
1000
0000
0010
0100
0001
0000
,
1000
0100
0010
0100
,
1000
0010
0001
0010
,
2000
0000
3100
0000
,
0002
0000
0013
0000
,
0001
0010
0001
0000
1000
0100
1000
0000
,
0001
0000
1001
0000
0100
0010
1000
0000
,
0001
0001
1000
1000
,
0001
0010
0100
0010
0001
0000
0000
0000
,
1000
0100
0010
0100
,
1000
0010
0001
0010
,
1000
1000
0001
0001
,
0100
0010
0100
0010
0100
0000
0001
0000
,
0011
0000
0000
0000
,
2000
0000
0000
0000
3000
0010
0100
0001
,
0020
0000
0000
0000
0030
0001
0100
0001
,
2000
0000
0000
0000
3000
0010
0100
0001
,
0020
0000
0000
0030
,
0002
0010
0013
0000
,
2000
0010
3010
0000
,
0200
0001
0301
0000
,
0020
0001
0130
1000
,
1100
0000
0000
0110
0000
0000
0000
0000
,
0000
0001
0001
1000
,
0110
0000
0000
1001
0000
0000
0000
0000
,
0001
0100
0002
1003
,
1100
0000
0001
0010
0001
0000
1000
0000
,
0110
0000
0010
1000
0100
0000
0010
0000
,
0011
0000
0001
1000
0100
0000
1000
0000
,
0101
0000
0010
0000
1100
0000
1000
0100
,
1000
0000
0010
0100
0010
0000
1000
0001
,
0010
0000
0001
0010
0100
0000
1000
0100
,
1000
0100
1000
0000
1000
0000
0001
0010
,
0001
0010
0001
0000
0001
0000
1000
0010
,
1000
0001
1000
0000
0000
0000
0001
0100
,
0010
0100
0001
0000
0000
0000
1000
0100
,
0010
0100
1000
0000
0000
0000
0010
0100
,
0001
1000
0001
0000
0000
0000
1000
0000
,
1000
0001
0001
0100
,
0100
0000
0010
0100
0001
0000
0002
0000
,
0000
0013
0000
0000
0000
0000
2000
0000
,
0000
3100
0000
0000
0000
0000
0001
0000
,
1000
0100
1000
0010
,
0100
0001
0010
0001
,
0000
0002
0000
0000
0000
0003
0000
0000
,
0100
0010
1000
0100
,
0000
0200
0000
0000
0000
0300
0000
0000
,
1000
0001
0100
0110
,
0000
2002
0000
0000
0000
0000
3003
0000
;

//---------------dance-double - M.Emirzian----------------
#NOTES:
     dance-double:
     M.Emirzian:
     Easy:
     3:
     0.134,0.000,0.100,0.018,0.000,90.000,11.000,2.000,0.000,0.000,0.000:
00000000
00000000
00000000
00000000
,
00000000
00000000
00000000
00000000
,
00000000
00000000
00000000
00000000
,
00000000
00000000
00000000
00000000
,
00011000
00000000
00000000
00000000
,
00000000
00000000
00000000
00000000
,
00001010
00000000
00000000
00000000
,
00001001
00000000
00001100
00000100
,
00010000
00000000
00001000
00000000
,
01000000
00000000
00100000
00000000
,
10000000
00000000
01000000
00000000
,
00100000
00000000
00001000
00000000
,
00010000
00000000
01000000
00000000
,
00010000
00000000
00001000
00000000
,
00000010
00000000
00000001
00000000
,
00000100
00000000
00001000
00000000
,
00000100
00000000
00000001
00000000
,
00000010
00000000
00000100
00000000
,
00010000
00000000
00001000
00000000
,
01000000
00000000
00100000
00000000
,
10000000
00000000
01000000
00000000
,
00100000
00000000
00001000
00000000
,
00010000
00000000
00000100
00000000
,
00001000
00000010
00000100
00000001
,
00002002
00000000
00000000
00000000
,
00003003
00000000
00000000
00000000
,
00001000
00000000
00000000
00000000
,
00100000
00000000
00000000
00000000
,
00000100
00000000
00000000
00000000
,
00000001
00000000
00000000
00000000
,
00001000
00000000
00000000
00000000
,
00010000
00000000
00000000
00000000
,
10000000
00000000
00000000
00000000
,
11000000
00000000
00000000
00000000
,
00011000
00000000
00000000
00000000
,
00000101
00000000
00000000
00000000
,
00001100
00000000
00000100
00010000
,
00001000
00000000
01000000
00000000
,
00100000
00000000
10000000
00000000
,
00100000
00000000
01000000
00000000
,
00010000
00000000
00100000
00000000
,
01000000
00000000
10000000
00000000
,
01000000
00000000
00010000
00000000
,
00001000
00000000
00000100
00000000
,
00000001
00000000
00001000
00000000
,
00000100
00000000
00001000
00000000
,
00000001
00000000
00000100
00000000
,
00001000
00000000
00010000
00000000
,
00001000
00000000
01000000
00000000
,
00100000
00000000
00010000
00000000
,
00100000
00000000
10000000
00000000
,
01000000
00000000
00010000
00000000
,
00001000
00000000
00010000
00010100
,
00000000
00000000
00000000
00000000
,
00000000
00000000
00001000
00000000
,
00000000
00000000
00000000
00000000
,
00000000
00000000
00000001
00000000
,
00000000
00000000
00000000
00000000
,
00000000
00000000
00001000
00011000
;

//---------------dance-double - M.Emirzian----------------
#NOTES:
     dance-double:
     M.Emirzian:
     Medium:
     5:
     0.254,0.000,0.155,0.018,0.000,176.000,17.000,2.000,0.000,0.000,0.000:
00000000
00000000
00000000
00000000
,
00000000
00000000
00000000
00000000
,
00000000
00000000
00000000
00000000
,
00000000
00000000
00000000
00000000
,
00100000
10010000
00000000
01000000
,
00000000
00110000
00000000
01000000
,
00000000
00011000
00000000
00000100
,
00001001
00000000
00000010
00001100
,
00000001
00000000
00000100
00000010
,
00001000
00000100
00000000
00010000
00000000
00001000
00000000
01000000
,
00000000
00010000
11000000
00000000
,
00110000
00000000
00000000
00000000
10000000
00100000
00000000
01000000
,
00000000
00010000
00100000
00001000
,
00010000
00000100
00000000
00001000
00000000
00000010
00000000
00000100
,
00000000
00000001
00001001
00000000
,
00001100
00000000
00000001
00000110
,
00001000
00000000
00000010
00001000
,
00000100
00010000
00000000
00001000
00000000
00100000
00000000
00010000
,
00000000
01000000
10100000
00000000
,
11000000
00000000
00000000
00000000
00100000
00010000
00000000
01000000
,
00000000
00100000
10000000
01000000
,
00010000
00001000
00000000
00010000
00000000
00000100
00000000
00001000
,
00000000
00000001
00000110
00000000
,
00001100
00000000
00000001
00000100
,
00002020
00000000
00000000
00003030
,
00010000
00000000
00000000
00000000
,
10000000
00000000
00000000
00000000
,
00001000
00000000
00000000
00000000
,
00000001
00000000
00000000
00000000
,
00010000
00001000
00000000
01000000
,
00000000
00100000
00000000
10000000
,
00000000
01000000
00000000
00010000
,
00000000
00001000
00000000
00000100
,
00000001
00000010
00000000
00000100
,
00000000
00001000
00000000
00000001
,
00000000
00000100
00000000
00001000
,
00000000
00010000
10010000
00100000
,
10000000
01000000
00000000
00000000
00100000
00010000
00000000
00000000
,
01000000
00001000
00000000
00000000
00010000
00000100
00000000
00000000
,
00001000
00000010
00000000
00000000
00000100
00000001
00000000
00000000
,
00001000
00000100
00000000
00000000
00010000
00001000
00000000
00000000
,
01000000
00100000
00000000
00000000
10000000
00100000
00000000
00000000
,
01000000
00001000
00000000
00000000
00010000
00000100
00000000
00000000
,
00001000
00000010
00000000
00000000
00000100
00000001
00000000
00000000
,
00000010
00000100
00000000
00000000
00001000
00000001
00000100
00000000
,
00000010
00000000
00001000
00000000
00000100
00010000
00001000
00000000
,
00000100
00000000
00010000
00001000
01000000
00000000
00010000
00000000
,
00100000
00000000
01000000
00000000
10000000
00010000
01000000
00000000
,
10000000
00000000
01000000
00010000
10000000
00000000
01000000
00000000
,
00010000
00000000
00001000
00000000
00010000
00001000
00000010
00000000
,
00000001
00000000
00001000
00000100
00000010
00000000
00000001
00000000
,
00000100
00000000
00000010
00000000
00001000
00000100
00010000
00000000
,
00001000
00000000
01000000
00010000
10000000
00000000
01000000
00000000
,
00100000
00000000
00010000
00000000
,
10000000
00000000
00100000
00000000
,
00010000
00000000
00001000
00000000
,
00010000
00000000
00000100
00000000
,
00001000
00000000
00000010
00000100
,
00000001
00000010
00000100
00001100
;

//---------------dance-double - M.Emirzian----------------
#NOTES:
     dance-double:
     M.Emirzian:
     Hard:
     7:
     0.397,0.000,0.137,0.018,0.201,288.000,15.000,2.000,0.000,0.000,0.000:
00000000
00000000
00000000
00000000
,
00000000
00000000
00000000
00000000
,
00000000
00000000
00000000
00000000
,
00000000
00000000
00000000
00000000
,
00000100
00000001
00001000
00000001
00000000
00001000
00010000
00001000
,
00000000
00010000
10000000
00010000
00000000
01000000
00100000
01000000
,
00000000
00001000
00010000
00001000
00000000
00000010
00000100
00000010
,
00001000
00000000
00000000
00000000
00000000
00000000
00000000
00000000
00001001
00000000
00000000
00000000
00000110
00000000
00000100
00001000
,
00000100
00000000
00000000
00000010
00000000
00000000
00000001
00000000
00001000
00000000
00000000
00000010
00000000
00000000
00000100
00000000
,
00000010
00000000
00000000
00001000
00000000
00000000
00000100
00000000
00000010
00000000
00000000
00001000
00000000
00000000
00010000
00000000
,
00100000
00000000
00000000
00010000
00000000
00000000
00001000
00000000
00010000
00000000
00000000
01000000
00000000
00000000
10000000
00000000
,
00100000
00000000
00000000
10000000
00000000
00000000
01000000
00000000
00010000
00000000
00000000
01000000
00000000
00000000
00100000
00000000
,
00000000
01000000
00000000
10000000
00000000
00100000
01000000
00000000
00010000
00000000
00000000
00000000
10010000
00000000
00000000
00000000
,
01000000
00100000
00000000
00010000
00000000
10000000
00100000
00000000
01000000
00000000
00000000
00000000
01001000
00000000
00000000
00000000
,
00010000
00001000
00000000
00010000
00000000
00000100
00010000
00000000
00001000
00000000
00000000
00000000
00010010
00000000
00000000
00000000
,
00001000
00000010
00000000
00000100
00000000
00000010
00001000
00000000
00000100
00000000
00000000
00000000
00000011
00000000
00000000
00000000
,
00000010
00000000
00000000
00000100
00000000
00000000
00000010
00000000
00000001
00000000
00000000
00000100
00000000
00000000
00001000
00000000
,
00000100
00000000
00000000
00000010
00000000
00000000
00010000
00000000
00001000
00000000
00000000
00000010
00000000
00000000
00001000
00000000
,
00010000
00000000
00000000
00001000
00000000
00000000
00000100
00000000
00001000
00000000
00000000
00010000
00000000
00000000
01000000
00000000
,
10000000
00000000
00000000
00100000
00000000
00000000
01000000
00000000
00100000
00000000
00000000
10000000
00000000
00000000
01000000
00000000
,
00000000
00100000
00000000
00010000
00000000
10000000
00100000
00000000
01000000
00000000
00000000
00000000
01001000
00000000
00000000
00000000
,
00010000
00001000
00000000
00100000
00000000
00001000
00010000
00000000
00000100
00000000
00000000
00000000
00001100
00000000
00000000
00000000
,
00001000
00000010
00000000
00000100
00000000
00000001
00000010
00000000
00000100
00000000
00000000
00000000
00001100
00000000
00000000
00000000
,
00000001
00000100
00000000
00000010
00000000
00001000
00000100
00000000
00010000
00000000
00000000
00001000
00000000
01000000
00010000
00000000
,
02020000
00000000
00000000
03030000
,
00100000
00000000
00000000
00000000
00000000
10000000
00000000
01000000
,
01000000
00000000
00000000
00000000
00000000
00000001
00000001
00000000
,
00010000
00000000
00000000
00000000
00000000
00001000
00001000
00000000
,
01000000
00000000
00000000
00000000
,
11000000
00000000
10000000
00010000
00000000
00000000
00010000
00001000
,
00000000
00000000
00001000
00000001
00000000
00000000
00000010
00000100
,
00000000
00000000
00010000
00001000
00000000
00000000
01000000
00100000
,
00000000
00000000
00010000
00001000
00000000
00000000
00000010
00000100
,
00000000
00000000
00001000
00000001
00000000
00000000
00000100
00001000
,
00000000
00000000
00010000
00100000
00000000
00000000
10000000
00000000
,
11000000
00000000
00000000
00000000
,
10010000
00000000
00000000
00000000
00000000
00000000
00000000
00000000
00011000
00000000
00010000
00001000
00010000
00000000
00000100
00000000
,
00010000
00001000
00000000
00000100
00001000
00000100
00000000
00001000
,
00010000
00001000
00000000
00000010
00001000
00000010
00000000
00000001
,
00000010
00000001
00000000
00000100
00001000
00000100
00000000
00001000
,
00010000
00001000
00000000
00100000
00010000
00100000
00000000
01000000
,
00100000
01000000
00000000
00010000
00001000
00010000
00000000
01000000
,
00010000
01000000
00000000
00010000
00001000
00010000
00000000
00100000
,
00010000
00100000
00000000
10000000
00100000
10000000
00000000
01000000
,
00010000
01000000
00000000
00010000
00001000
00010000
00000100
00000000
,
00001000
00000010
00000100
00000000
00000001
00001000
00000100
00000000
,
00000010
00000100
00000010
00000001
00000100
00000000
00000010
00000000
,
00001000
00000100
00010000
00000000
00001000
01000000
00010000
00000000
,
01000000
00100000
01000000
00010000
00100000
00000000
01000000
00000000
,
10000000
00100000
00010000
00000000
00010000
00100000
10000000
00000000
,
10000000
01000000
00100000
00010000
00100000
00000000
01000000
00000000
,
10000000
01000000
00010000
00000000
00010000
01000000
10000000
00000000
,
01000000
00100000
00001000
00010000
00000100
00000000
00001000
00000000
,
00000010
00000000
00000100
00000000
,
00000001
00000000
00001000
00000000
,
00000100
00000000
00010000
00000000
,
00001000
00000000
01000000
00100000
,
10000000
00000000
01000000
00000000
10000000
01000000
00100000
00010000
,
01000000
00100000
00010000
00001000
00000100
00000010
00001010
00000000
;

//---------------dance-double - M.Emirzian----------------
#NOTES:
     dance-double:
     M.Emirzian:
     Challenge:
     9:
     0.604,0.000,0.100,0.018,0.584,451.000,11.000,2.000,0.000,0.000,0.000:
00000000
00000000
00000000
00000000
,
00000000
00000000
00000000
00000000
,
00000000
00000000
00000000
00000000
,
00000000
00000000
00000000
00000000
,
00100000
00010000
00001000
01000000
00000000
00010000
01000000
10000000
,
00000000
01000000
00001000
00010000
00000000
00000100
00000001
00000100
,
00001000
00000000
00000000
00000000
00000010
00000100
00000010
00000100
00000101
00000000
00000000
00000000
00001000
00000100
00001000
00000100
,
00010100
00000000
00000000
00000000
00001000
00010000
00001000
01000000
01010000
00000000
00000000
00000000
10010000
00000000
11000000
00000000
,
00100000
00010000
00000000
10000000
00000000
10000000
01000000
00000000
00010000
00000000
00000000
01000000
00000000
01000000
10000000
00000000
,
00100000
01000000
00000000
00001000
00000000
00001000
00010000
00000000
00000100
00000000
00000000
00001000
00000000
00001000
00000010
00000000
,
00000100
00000001
00000000
00000010
00000000
00000010
00000100
00000000
00001000
00000000
00000000
00000001
00000000
00000001
00000100
00000000
,
00000010
00001000
00000000
00000100
00000000
00000100
00010000
00000000
00001000
00000000
00000000
00000100
00000000
00000100
00001000
00000000
,
00010000
00100000
00000000
10000000
00000000
10000000
00010000
00000000
00100000
00000000
00000000
01000000
00000000
01000000
10000000
00000000
,
00100000
00010000
00000000
00001000
00000000
00001000
00010000
00000000
01000000
00000000
00000000
00010000
00000000
00010000
00001000
00000000
,
00000010
00000100
00000000
00001000
00000000
00001000
00000001
00000000
00000100
00000000
00000000
00000010
00000000
00000010
00001000
00000000
,
00000100
00010000
00000000
00001000
00000000
00001000
01000000
00000000
00010000
00000000
00000000
00100000
00000000
00100000
01000000
00000000
,
10000000
00010000
00000000
01000000
00000000
01000000
00100000
00000000
10000000
00000000
00000000
01000000
00000000
01000000
00010000
00000000
,
00001000
00010000
00000000
00000100
00000000
00000100
00000010
00000000
00000001
00000000
00000000
00001000
00000000
00001000
00000010
00000000
,
00000100
00000001
00000000
00000100
00000000
00000100
00000010
00000000
00001000
00000000
00000000
00000100
00000000
00000100
00010000
00000000
,
00001000
01000000
00000000
00010000
00000000
00010000
00100000
00000000
01000000
00000000
00000000
10000000
00000000
10000000
01000000
00000000
,
00010000
00000010
00000000
00001000
00000000
00001000
00000100
00000000
00000010
00000000
00000000
00000001
00000000
00000001
00000100
00000000
,
00001000
01000000
00000000
00100000
00000000
00100000
10000000
00000000
01000000
00000000
00000000
00100000
00000000
00100000
00010000
00000000
,
00100000
01000000
00000000
00010000
00000000
00010000
00001000
00000000
00000010
00000000
00000000
00000100
00000000
00001000
00000001
00000000
,
00000100
00000010
00000000
00001000
00000000
00001000
00000100
00000000
00010000
00000000
00000000
00100000
00000000
10000000
01000000
00000000
,
20020000
00000000
00000000
30030000
,
10010000
00000000
00000000
01000000
00000000
00000000
00000000
00000000
00000000
00000000
10000000
00000000
00001000
00000000
00010000
00000000
,
00000001
00000000
00000000
00001000
00000000
00000000
00000000
00000000
00000000
00000000
00000001
00000000
00000100
00000000
00100000
00000000
,
10000000
00000000
00000000
01000000
00000000
00000000
00000000
00000000
00000000
00000000
00100000
00000000
10000000
00000000
00000100
00000000
,
00000010
00000000
00000000
00000001
00000000
00000000
00000000
00000000
00000000
00000000
00000000
00000000
00001000
00000000
00010000
00000000
,
00000100
00000010
00000100
00001000
00000000
00000001
00000100
00000010
,
00000000
01000000
00100000
10000000
00000000
00010000
01000000
00001000
,
00000000
00000100
00000010
00001000
00000000
00000100
00000010
00001000
,
00000000
01000000
00100000
00010000
00000000
00000100
01000000
00001000
,
00000000
00100000
00000010
00010000
00000000
00001000
00000010
00000001
,
00000000
00010000
00100000
01000000
00000000
00001000
00010000
00000100
,
00000000
00000010
00000100
00001000
00000000
00000001
00000100
00000010
,
00001010
00000000
00010000
00000000
01001000
01010000
00100000
01000000
,
10000000
00000000
10000000
01000000
10000000
00000000
00100000
00000000
01000000
00000000
00010000
01000000
00010000
00000000
00100000
00000000
,
00001000
00000000
00010000
00001000
00010000
00000000
01000000
00000000
10000000
00000000
00010000
00000000
01000000
00100000
01000000
00000000
,
00010000
00000000
00100000
00000000
00001000
00010000
00001000
00000000
00010000
00000000
00000100
00000000
00001000
00000010
00001000
00000000
,
00000100
00000000
00000010
00000000
00000001
00001000
00000001
00000000
00000100
00000000
00000010
00000000
00010000
00000000
00001000
00010000
,
00001000
00000000
00000100
00000000
00000001
00000000
00001000
00000100
00001000
00000000
00000010
00000000
00010000
00000000
00001000
00010000
,
00001000
00000000
01000000
00000000
00010000
00000000
00100000
01000000
00100000
00000000
00010000
00000000
01000000
00100000
10000000
00000000
,
01000000
00000000
00100000
00000000
00010000
00100000
00010000
00000000
01000000
00000000
00001000
00000000
00010000
00000100
00010000
00000000
,
00001000
00000010
00000001
00000100
00000010
00000100
00000001
00000010
,
00001000
00000000
00010000
00001000
00010000
00000000
00000100
00000000
00010000
00000000
00001000
00010000
00001000
00000000
01000000
00000000
,
00010000
00000000
00100000
01000000
00100000
00000000
00010000
00000000
01000000
00000000
00100000
00000000
10000000
01000000
10000000
00000000
,
00100000
00000000
01000000
00000000
00010000
00100000
00010000
00000000
01000000
00000000
00001000
00000000
00010000
00000010
00010000
00000000
,
00001000
00000000
00000010
00000000
00000100
00001000
00000100
00000000
00000010
00000000
00000001
00000000
00000100
00000000
00000010
00000100
,
00000010
00000000
00001000
00000000
00000100
00000000
00010000
00001000
00010000
00000000
01000000
00000000
00010000
00000000
00001000
00010000
,
00001000
00000000
00010000
00000000
00100000
00000000
10000000
01000000
10000000
00000000
00010000
00000000
00100000
01000000
00100000
00000000
,
00001000
00000000
00010000
00000000
00100000
01000000
00100000
00000000
10000000
00000000
01000000
00100000
01000000
00000000
10000000
00000000
,
00010000
00000000
00100000
01000000
00100000
00000000
00010000
00000000
10000000
00000000
01000000
00100000
00001000
00000000
00000000
00000000
,
00010000
00000100
00000000
00001000
00000001
00000100
00000000
00000010
,
00001000
00000100
00010000
00100000
00010000
00001000
00000000
00010000
,
01000000
10000000
00000000
00100000
01000000
00100000
00000000
10000000
,
01000000
00010000
00000100
00000010
00000001
00000100
00000000
00000100
,
00000001
00000000
00100000
00000000
01000000
00000000
10000000
00000000
00010000
00000000
01000000
00000000
00100000
10000000
01000000
00100000
,
01000000
00100000
00001000
00010000
00001000
00010000
00000010
00000100
00000010
00000100
00000001
00000010
00001001
00000000
00000000
00000000
,
00000000
00000100
00000000
00000000
00000000
00000000
00000000
00000000
;

//---------------dance-single - K. Ward----------------
#NOTES:
     dance-single:
     K. Ward:
     Challenge:
     9:
     0.617,0.000,0.228,0.237,0.647,423.000,25.000,26.000,28.000,8.000,2.000:
0000
0000
0000
0000
,
0000
0000
0000
0000
,
0000
0000
0000
0000
,
0000
0000
0000
0000
,
1000
0001
0000
1000
0000
0000
0100
0000
1000
0000
0010
0000
0010
0000
0000
0000
,
0010
0100
0000
0001
0000
0000
0010
0000
0001
0000
1000
0000
1000
0000
0000
0000
,
0001
0010
0001
0000
0100
0010
0100
0000
0001
1000
0100
0000
0010
0100
0010
0000
,
0001
0100
0000
0100
1000
0000
0100
0000
0010
0000
0000
0000
4000
0004
0000
0000
,
3003
0000
0000
0000
0000
0000
0010
0000
0001
0000
1000
0100
0000
0100
0000
0000
,
0000
0000
0010
0001
0000
0100
0000
0010
1000
0000
0100
0000
1100
0000
0000
0000
,
0010
0001
0000
0001
0000
0000
0010
0000
0100
0000
0000
0011
0000
1100
0000
0000
,
0000
0000
0010
0100
0000
0001
0000
0010
0100
0000
0010
0000
1001
0000
0000
0000
,
0000
0010
0000
0100
0000
1000
0100
0000
0001
0010
0001
0000
0100
1000
0100
0000
,
0000
0001
0000
0001
0000
0010
0100
0000
0010
0001
0010
0000
0100
1000
0100
0000
,
0000
1000
0000
1000
0000
0001
0100
0000
0110
0000
0000
1100
0000
0000
0110
0000
,
0000
1001
0000
1001
0000
0000
0100
0010
0100
0000
0000
0000
1001
0000
0000
0000
,
0100
0000
0000
0100
0010
0000
1000
0000
1000
0000
0000
0001
0010
0000
0200
0000
,
0000
0010
0300
0001
1000
0000
0010
0000
0100
0010
0100
0000
0001
0010
0001
0000
,
1000
0000
0000
0100
1000
0000
0010
0000
0100
0000
0000
0100
0000
0001
0010
0000
,
0000
0000
0100
1000
0100
0000
0010
0000
0001
1000
0001
1000
0001
0000
0000
0000
,
0000
0100
0000
0100
0000
0010
1000
0000
0100
1000
0100
0000
0010
0000
0011
0000
,
0000
0100
0000
0100
0000
1000
0100
0000
0010
0100
0010
0000
0100
0000
1001
0000
,
0000
0000
0100
0010
0000
0010
0100
0000
0010
1000
0000
1000
0100
0000
0010
0001
,
0000
0001
0100
0000
0010
0100
0000
0100
1000
0000
0100
0001
0000
0001
0010
0000
,
0000
0000
0MM0
M00M
0110
M00M
0MM0
0000
,
2002
0000
0000
0010
0000
0000
0000
0000
0000
0000
0010
0000
3010
0000
1000
0000
,
0203
0000
0000
0020
0000
0000
0000
0000
0300
0000
0001
0000
1030
0000
0100
0000
,
2200
0000
0000
0010
0000
0000
3300
0000
0000
0000
0010
0000
0100
0000
0001
0000
,
0202
0000
0000
0010
0000
0000
0300
0000
2003
0000
0000
0000
0000
0000
0010
0000
,
3001
0000
0000
0001
0010
0000
0100
0000
0010
0001
0000
0001
1000
0000
0000
0000
,
0001
0000
0000
0001
0100
0000
0010
0000
1000
0100
0000
0100
1000
0000
0000
0000
,
0001
0010
0000
0010
0100
0000
0010
0000
0001
0100
0010
0000
0100
0000
0010
0000
,
1000
0100
0000
0010
0100
0000
1000
0000
0001
0000
1000
0000
1001
0000
0000
0000
,
0100
0010
0000
0100
0000
0000
1000
0000
0100
0000
0001
0000
0010
0000
0100
0000
,
0010
0100
0000
0010
0000
0000
0001
0000
0001
0000
0100
0000
0110
0000
0000
0000
,
0001
0000
0001
0000
1000
0000
1000
0000
0010
0000
0010
0000
0100
0000
0001
0010
,
0000
0010
0100
0000
1000
0010
0100
0000
0002
0003
MMMM
0000
1000
0100
1000
0100
,
1000
0000
0010
0100
0000
0100
0010
0000
1000
0001
0000
0001
1000
0000
0010
0100
,
0001
0010
0001
0000
1000
0000
0100
0000
1001
0000
0000
0000
0100
1000
0000
1000
,
0100
0000
0010
0100
0001
1000
0000
0000
0100
0000
0010
0000
0100
0000
1000
0001
,
0000
0001
0010
0000
0100
0000
0010
0000
1001
0000
0000
0000
0100
1000
0000
0100
,
0000
0000
0010
0000
0100
0001
0000
1000
0000
0000
0100
0000
0010
0100
0000
1000
,
0000
0000
0001
0000
0100
0000
0010
0000
1001
0000
0000
0000
0010
0100
0010
0100
,
0010
0000
0000
0000
1000
0001
1000
0001
1000
0000
0000
0000
0010
0100
0000
0100
,
0010
0000
1000
0001
0000
0001
0010
0000
0001
1000
0000
0000
2200
0000
0000
0000
,
0000
0000
0010
0000
3300
0000
0000
0000
MMMM
0000
0000
0000
0000
0000
0010
0100
,
0001
0010
0200
0010
0320
0000
0032
0000
,
1000
2003
0000
3010
0020
0000
0130
0200
,
0000
0000
0301
0010
0001
0000
0010
0000
0110
0000
0000
0000
1000
0000
1000
0000
,
0100
0000
0001
0010
0000
0010
0100
0000
1000
0000
0100
0010
0000
0010
1000
0000
,
0001
0000
1000
0100
0000
0100
1000
0000
0010
0000
0001
0000
0010
0000
1000
0000
,
0010
0000
0001
0010
0000
0010
0100
0000
0010
0000
1000
0100
1000
0000
0000
MMMM
,
0000
0000
0010
0100
0001
0000
0000
MMMM
0000
0000
0010
0100
2000
0000
0000
0000
,
0001
0000
3001
0000
0000
0000
1000
0001
1000
0000
0010
0000
0100
0000
0010
0100
,
0010
0000
1000
0000
2000
0000
0000
0000
3100
0000
0000
0000
0010
0000
0100
1000
,
0000
0000
0010
0000
0010
0000
0010
0001
0000
0000
0010
0000
0100
0000
0001
1000
,
0000
0100
0010
0100
1001
0000
2200
0000
,
0010
0000
0010
0000
3300
0000
0000
0000
MMMM
0000
0000
0000
0000
0000
0010
0100
,
0001
0010
0001
1000
0002
0100
0203
0000
,
1000
2000
0000
0000
0000
0000
3300
0000
;

//---------------dance-single - K. Ward----------------
#NOTES:
     dance-single:
     K. Ward:
     Beginner:
     1:
     0.064,0.000,0.018,0.000,0.000,47.000,2.000,0.000,0.000,0.000,0.000:

0000
0000
0000
0000
,
0000
0000
0000
0000
,
0000
0000
0000
0000
,
0000
0000
0000
0000
,
0010
0000
0000
0000
,
0000
0000
0000
0000
,
0100
0000
0000
0000
,
0100
0000
0000
0000
,
0001
0000
0000
0000
,
0001
0000
0000
0000
,
1000
0000
0000
0000
,
1000
0000
0000
0000
,
0010
0000
0000
0000
,
0010
0000
0000
0000
,
0100
0000
0000
0000
,
0100
0000
0000
0000
,
0001
0000
0000
0000
,
1000
0000
0000
0000
,
1000
0000
0000
0000
,
0001
0000
0000
0000
,
0010
0000
0000
0000
,
0100
0000
0000
0000
,
0010
0000
0000
0000
,
0001
0000
0000
0000
,
1001
0000
0000
0000
,
0001
0000
0000
0000
,
0001
0000
0000
0000
,
0010
0000
0000
0000
,
0010
0000
0000
0000
,
0001
0000
0000
0000
,
0000
0000
0000
0000
,
1000
0000
0000
0000
,
0000
0000
0000
0000
,
0010
0000
0000
0000
,
0000
0000
0000
0000
,
0100
0000
0000
0000
,
0100
0000
0100
0001
,
0000
0000
0000
0000
,
0000
0000
0000
1000
,
0000
0000
0000
0000
,
0000
0000
0000
0010
,
0000
0000
0000
0000
,
0000
0000
0000
0100
,
0000
0000
0000
0000
,
0000
0000
0000
0001
,
0000
0000
0000
0001
,
0000
0000
0000
0100
,
0000
0000
0000
0100
,
0000
0000
0000
0010
,
0000
0000
0000
0010
,
0000
0000
0000
1000
,
0000
0000
0000
1000
,
0000
0000
0000
0001
,
0000
0000
0000
0000
,
0000
0000
0000
1000
,
0000
0000
0000
0000
,
0000
0000
0000
0010
,
0000
0000
0000
0000
,
0000
0010
0000
0110
;
