#TITLE:Hustle Beach;
#SUBTITLE:;
#ARTIST:Papa J;
#TITLETRANSLIT:;
#SUBTITLETRANSLIT:;
#ARTISTTRANSLIT:;
#GENRE:Disco;
#CREDIT:;
#BANNER:Hustle Beach-banner.png;
#BACKGROUND:Hustle Beach-bg.png;
#LYRICSPATH:;
#CDTITLE:;
#MUSIC:Hustle Beach.ogg;
#OFFSET:0.020;
#SAMPLESTART:22.500;
#SAMPLELENGTH:11.880;
#SELECTABLE:YES;
#BPMS:0.000=127.992;
#STOPS:;
#BGCHANGES:0.000=Hustle Beach-bg.png=1.000=0=0=1=====,
12.000=In The Groove 2/945_JumpBack.mpg=1.000=1=0=1===CrossFade==,
16.000=In The Groove 2/913_JumpBack.mpg=1.000=0=0=1===SlideLeft==,
32.000=In The Groove 2/457_JumpBack.mpg=1.000=0=0=1===SlideRight==,
48.000=In The Groove 2/937_JumpBack.mpg=1.000=0=0=1=====,
64.000=-random-=1.000=0=0=1===SlideLeft==,
80.000=-random-=1.000=0=0=1=====,
96.000=-random-=1.000=0=0=1=====,
112.000=-random-=1.000=0=0=1=====,
128.000=In The Groove 2/919_JumpBack.mpg=1.000=0=0=1===SlideRight==,
135.500=In The Groove 2/919_JumpBack.mpg=0.700=0=0=1====0.5^0.5^0.5^1=,
140.000=In The Groove 2/919_JumpBack.mpg=1.000=1=0=1===CrossFade=0^1^0^1=,
144.000=In The Groove 2/776_JumpBack.mpg=1.000=0=0=1=SongBgWithMovieViz====0.5^0.5^0.5^1,
152.000=In The Groove 2/776_JumpBack.mpg=1.000=1=1=1=StretchRewind==CrossFade==,
160.000=-random-=1.000=0=0=1=====,
176.000=-random-=1.000=0=0=1=====,
192.000=-random-=1.000=0=0=1=====,
208.000=-random-=1.000=0=0=1=====,
223.500=Hustle Beach-bg.png=1.000=0=0=1====1^1^0^1=,
224.000=Hustle Beach-bg.png=1.000=0=0=1=====,
99999=-nosongbg-=1.000=0=0=0 // don't automatically add -songbackground-
;
#BGCHANGES2:48.000=white flash=1.000=0=0=1=====,
80.000=white flash=1.000=0=0=1=====,
96.000=yellow flash=1.000=0=0=1=====,
112.000=white flash=1.000=0=0=1=====,
135.500=white flash=1.000=0=0=1=====,
160.000=white flash=1.000=0=0=1=====,
176.000=yellow flash=1.000=0=0=1=====,
192.000=yellow flash=1.000=0=0=1=====,
208.000=yellow flash=1.000=0=0=1=====,
224.000=white flash=1.000=0=0=1=====,
;
#KEYSOUNDS:;
// cache tags:
#FIRSTBEAT:12.000;
#LASTBEAT:224.000;
#SONGFILENAME:/Songs/In The Groove 2/Hustle Beach/Hustle Beach.sm;
#HASMUSIC:1;
#HASBANNER:1;
#MUSICLENGTH:106.647;
// end cache tags

//---------------dance-single - M. Puls----------------
#NOTES:
     dance-single:
     M. Puls:
     Easy:
     2:
     0.155,0.000,0.122,0.000,0.000,103.000,13.000,0.000,0.000,0.000,0.000:
0000
0000
0000
0000
,
0000
0000
0000
0000
,
0000
0000
0000
0000
,
1000
0000
0000
0000
,
0001
0000
0000
0000
,
1000
0010
0100
0001
,
0000
1000
0000
0001
,
0000
1000
0010
0000
,
1000
0000
0000
0000
,
0001
0100
0010
1000
,
0000
0001
0000
1000
,
0000
0001
0100
0000
,
1001
0000
0000
0000
,
0100
0001
0001
1000
,
1000
0000
0001
0000
,
0100
0000
0000
0000
,
1001
0000
0000
0000
,
0100
1000
1000
0001
,
0001
0000
1000
0000
,
0100
0000
0000
0000
,
1001
0000
0000
0000
,
0110
0000
0000
0000
,
0001
0000
1000
0000
,
0001
0000
0000
0000
,
1000
0100
1000
0000
,
0001
0010
0001
0000
,
0100
0010
0100
0000
,
0110
0000
0000
0000
,
1001
0000
0000
0000
,
0110
0000
0000
0000
,
0001
0000
1000
0000
,
0001
0000
0000
0000
,
0001
0010
0001
0000
,
1000
0100
1000
0000
,
0100
0010
0100
0000
,
0110
0000
0000
0000
,
1001
0000
0000
0000
,
0000
0000
0000
0000
,
0001
0000
0000
0000
,
1000
0000
0000
0000
,
1001
0000
0000
0000
,
1000
0010
0100
0001
,
0000
1000
0000
0001
,
0000
1000
0010
0000
,
1000
0000
0000
0000
,
0001
0100
0010
1000
,
0000
0001
0000
1000
,
0000
0001
0100
0000
,
1001
0000
0000
0000
,
0100
0001
0001
1000
,
1000
0000
0001
0000
,
0100
0000
0000
0000
,
1001
0000
0000
0000
,
0100
1000
1000
0001
,
0001
0000
1000
0000
,
0100
0000
0000
0000
,
1001
0000
0000
0000
;

//---------------dance-single - M. Puls----------------
#NOTES:
     dance-single:
     M. Puls:
     Beginner:
     1:
     0.090,0.000,0.084,0.000,0.000,58.000,9.000,0.000,0.000,0.000,0.000:

0000
0000
0000
0000
,
0000
0000
0000
0000
,
0000
0000
0000
0000
,
1000
0000
0000
0000
,
0001
0000
0000
0000
,
1000
0000
0000
0001
,
0000
1000
0000
0001
,
0000
0000
0000
0000
,
1000
0000
0000
0000
,
0001
0000
0000
1000
,
0000
0000
0000
1000
,
0000
0001
0000
0000
,
1001
0000
0000
0000
,
0000
0001
0000
0100
,
0000
0000
0001
0000
,
0001
0000
0000
0000
,
1001
0000
0000
0000
,
0100
0000
0000
0001
,
0000
0000
1000
0000
,
0100
0000
0000
0000
,
1001
0000
0000
0000
,
0000
0000
0000
0000
,
0001
0000
0000
0000
,
1000
0000
0000
0000
,
1000
0000
0000
0000
,
0001
0000
0000
0000
,
0100
0000
0000
0000
,
0100
0000
0000
0000
,
1001
0000
0000
0000
,
0000
0000
0000
0000
,
1000
0000
0000
0000
,
0001
0000
0000
0000
,
0001
0000
0000
0000
,
1000
0000
0000
0000
,
0100
0000
0000
0000
,
0000
0000
0000
0000
,
1001
0000
0000
0000
,
0000
0000
0000
0000
,
0001
0000
0000
0000
,
1000
0000
0000
0000
,
1001
0000
0000
0000
,
1000
0000
0000
0001
,
0000
1000
0000
0001
,
0000
0000
0000
0000
,
1000
0000
0000
0000
,
0001
0000
0000
1000
,
0000
0000
0000
1000
,
0000
0001
0000
0000
,
1001
0000
0000
0000
,
0000
0001
0000
0100
,
0000
0000
0001
0000
,
0001
0000
0000
0000
,
1001
0000
0000
0000
,
0100
0000
0000
0001
,
0000
0000
1000
0000
,
0100
0000
0000
0000
,
1001
0000
0000
0000
;

//---------------dance-single - M. Puls----------------
#NOTES:
     dance-single:
     M. Puls:
     Medium:
     5:
     0.248,0.000,0.131,0.075,0.000,163.000,14.000,8.000,2.000,0.000,0.000:
0000
0000
0000
0000
,
0000
0000
0000
0000
,
0000
0000
0000
0000
,
0010
0000
0000
0000
,
0100
0000
0000
0000
,
0001
1000
0000
0100
,
1000
0001
0100
0100
,
0000
0000
0000
1001
,
0010
0000
0000
0000
,
1000
0001
0000
0010
,
0001
1000
0010
0010
,
0000
0000
0000
1001
,
1000
0100
1000
0001
,
0010
0000
0001
0010
0001
0000
0010
0000
,
0200
0300
0020
0030
,
0200
0300
0000
1001
,
0001
0010
0001
1000
,
0100
0000
1000
0100
1000
0000
0100
0000
,
0020
0030
0200
0300
,
0020
0030
0000
1001
,
0001
0000
0010
0000
0000
0000
0001
0010
,
0000
0010
0000
0001
0000
0010
0000
0001
,
0000
0100
0001
0000
1000
0000
0001
0000
,
0000
0100
0000
0000
0000
0000
0000
0000
,
1000
0000
0100
0000
0000
0000
1000
0100
,
0000
0100
0000
1000
0000
0100
0000
1000
,
0000
0010
1000
0000
0001
0000
1000
0000
,
0000
0010
0000
0000
0000
0000
0000
0000
,
1001
0000
0100
0010
0100
0000
0000
0000
,
1000
0100
1000
0001
,
0010
0000
0001
0000
0100
0010
0100
0010
,
0100
0000
0000
0000
0110
0110
1001
0000
,
0000
0000
0001
1000
0010
0000
1000
0001
,
0100
0000
0010
0100
0000
0010
0100
1001
,
0000
0000
0100
0000
,
0010
0000
0100
1000
,
1001
0000
0000
0000
,
0000
0000
0000
0000
,
M00M
0000
0000
0000
,
0000
0000
0000
0000
,
1001
0000
0000
0000
,
0100
0000
0000
0000
,
0010
0000
0000
0000
1000
0001
1000
0000
,
0100
0000
1000
1000
,
0001
0000
0000
0000
0001
1000
0001
0000
,
0100
0000
0001
1000
,
0001
0000
0000
0000
1000
0000
0001
0010
,
0000
0100
0000
0010
0000
0001
0010
0100
,
1001
0100
0010
0000
,
1000
0001
0010
0000
0001
1000
0010
0000
,
2002
0000
3003
0000
0001
1000
0001
0000
,
0010
0000
0001
0001
,
1000
0000
0000
0000
1000
0001
1000
0000
,
0010
0000
1000
0001
,
1000
0000
0000
0000
0001
0000
1000
0001
,
0000
0100
0000
0001
0000
1000
0010
0100
,
1001
0000
0000
0000
;

//---------------dance-single - C. Foy----------------
#NOTES:
     dance-single:
     C. Foy:
     Hard:
     7:
     0.355,0.000,0.028,0.319,0.127,228.000,3.000,34.000,16.000,0.000,0.000:
0000
0000
0000
0000
,
0000
0000
0000
0000
,
0000
0000
0000
0000
,
1000
0000
0000
0001
0000
0000
1000
0001
0000
1000
0000
0000
0000
0000
0001
0000
,
0000
0000
1000
0000
0100
0000
0010
0010
,
0000
0000
0001
0000
0100
0010
0000
0000
,
1000
0000
0100
0000
0010
0000
0100
1000
,
0000
0000
0010
0100
0000
0000
0000
0000
,
0000
0000
0001
0000
0010
0000
0010
0100
,
0000
0000
1000
0000
0100
1000
0000
0000
,
0010
0000
0100
0000
0010
0000
1000
0010
,
0000
0100
0000
0000
,
0000
0000
0001
0000
0010
0000
0100
0010
,
0000
0000
0100
0000
1000
0100
0000
1000
,
0000
0000
0010
0000
0100
0000
0001
2000
,
0000
3001
0000
0000
0000
0000
0000
0000
,
0000
0000
1000
0000
0100
0000
0010
0200
,
0000
1300
0000
0020
0000
0130
0000
0002
,
0000
0000
1003
0000
0100
0000
1000
1002
,
0000
0000
0000
0000
0000
0000
0003
0000
0000
0100
0000
0000
0000
0000
0000
0000
0000
0000
0010
0000
0000
0000
1000
0000
0000
0000
0000
0000
0100
0000
0000
0000
0000
0000
1000
0000
0000
0000
0000
0000
0000
0000
0010
0000
0000
0000
0000
0000
,
0000
0000
1000
0000
0100
0000
0010
0002
,
0000
1003
0000
0020
0000
0130
0000
0002
,
0000
0000
0013
0000
0100
0000
0010
0002
,
0000
0000
0000
0000
0000
0000
0103
0000
0000
0000
0000
0000
0000
0000
0000
0000
0010
0000
0000
0000
0000
0000
1000
0000
0000
0010
0000
0000
0000
0000
0100
0000
0000
0000
0000
0000
0010
0000
0000
0000
0000
0000
0000
0000
0000
0000
0000
0000
,
1100
0000
0100
0000
1000
0000
0010
0200
,
0000
0301
0000
2000
0000
3010
0000
0200
,
0000
0000
0000
0000
0301
0000
0100
0000
0000
0000
0010
0000
0000
1000
0000
0000
,
1000
0000
1000
0001
0000
0000
0010
0000
0000
0100
0000
0000
1000
0000
0000
0010
,
0000
0000
0100
0000
0010
0000
1000
0200
,
0000
0310
0000
0200
0000
1300
0000
0020
,
0000
1030
0010
0000
0200
0000
0310
1000
,
0000
0100
0000
0100
0000
0100
0000
0100
,
0000
0000
1000
0000
0001
0000
0100
0002
,
0000
0013
0000
0200
0000
1300
0000
0002
,
0000
1003
0001
0000
0100
0000
0010
0200
,
0000
0301
0000
0000
1000
0100
1000
0100
,
MMMM
1000
1000
1000
,
MMMM
0010
0010
0010
,
MMMM
0100
0100
0100
,
MMMM
0000
0000
0001
0000
0000
0001
0000
0000
0001
1000
0001
,
1000
0000
0100
0000
0010
0000
0001
0200
,
0000
0301
0000
0200
0000
0310
0000
0200
,
0000
0000
0301
0000
0010
0000
0100
2000
,
0000
0000
3100
0000
0000
1000
0000
0100
0010
0000
0001
0000
0010
0000
0000
0000
,
0000
0000
0100
0000
1000
0000
0001
0020
,
0000
0031
0000
2000
0000
3001
0000
2000
,
0000
0000
0000
0000
3001
0000
0100
0000
0000
0000
0010
0000
0000
1000
0000
0010
,
1000
0000
0001
1000
0000
0100
1000
0000
0000
0100
0000
0000
0010
0000
0000
0100
,
0000
0000
1000
0000
0001
0000
0100
0020
,
0000
0130
0000
0020
0000
1030
0000
0020
,
0000
0000
0130
0000
0010
0000
1000
0200
,
0000
0000
0310
0000
0000
0100
0000
1000
0100
0000
0010
0000
0001
0000
0010
0000
,
0000
0000
0100
0000
1000
0000
0001
0020
,
0000
0031
0000
0200
0000
0310
0000
2000
,
0000
0000
3100
0000
1000
0000
0001
0010
,
0100
0000
0000
0000
0010
0000
0001
0000
0000
0100
0000
0000
0010
0000
0000
0000
,
1001
0000
0000
0000
;

//---------------dance-double - M.Emirzian----------------
#NOTES:
     dance-double:
     M.Emirzian:
     Easy:
     2:
     0.142,0.000,0.009,0.009,0.000,104.000,1.000,1.000,0.000,0.000,0.000:
00000000
00000000
00000000
00000000
,
00000000
00000000
00000000
00000000
,
00000000
00000000
00000000
00000000
,
00000000
00000000
00000000
00000000
,
00010000
00000000
01000000
00000000
,
00100000
00000000
10000000
00000000
,
00010000
10000000
00010000
10000000
,
00010000
00000000
00000000
00000000
,
01000000
00000000
00001000
00000000
,
00010000
00000000
00000100
00000000
,
00001000
00000010
00001000
00000010
,
00001000
00000000
00000000
00000000
,
00000001
00000000
00000100
00000000
,
00000010
00000000
00001000
00000000
,
00000100
00010000
00000100
00010000
,
00000100
00000000
00000000
00000000
,
00001000
00000000
00010000
00000000
,
01000000
00000000
10000000
00000000
,
00010000
10000000
00010000
10000000
,
00010000
00000000
00000000
00000000
,
00100000
00100000
00000000
00000000
,
00000100
00000100
00000000
00000000
,
00100000
00100000
00000000
00000000
,
00000100
00000100
00000000
00000000
,
00010000
00010000
00000000
00000000
,
00001000
00001000
00000000
00000000
,
00000000
00000000
00000000
00000000
,
01000000
01000000
00000000
00000000
,
00010000
00000000
10000000
00000000
,
01000000
00000000
00100000
00000000
,
00001000
00010000
00001000
00010000
,
00001000
00000000
00000000
00000000
,
00010000
00000000
00000100
00000000
,
00001000
00000000
00000000
00000000
00000010
00000000
00000000
00000200
,
00000000
00000000
00000000
00000000
,
00000000
00000000
00000000
00000000
00000000
00000300
00000000
00000000
,
00000001
00000000
00000000
00000000
,
00000000
00000000
00000000
00000000
,
00010000
00000000
00000000
00000000
,
00000000
00000000
00000000
00000000
,
00001000
00000000
00010000
00000000
,
00001000
00000000
01000000
00000000
,
00010000
10000000
00010000
10000000
,
00010000
00000000
00000000
00000000
,
01000000
00000000
00100000
00000000
,
00001000
00000000
00010000
00000000
,
00000100
00001000
00000100
00001000
,
00000100
00000000
00000000
00000000
,
00000001
00000000
00000100
00000000
,
00000010
00000000
00001000
00000000
,
00000100
00000010
00000100
00000010
,
00000100
00000000
00000000
00000000
,
00000001
00000000
00001000
00000000
,
00000100
00000000
00000010
00000000
,
00000001
00000100
00000001
00000100
,
00000001
00000000
00010000
00000000
,
00011000
00000000
00000000
00000000
;

//---------------dance-double - M.Emirzian----------------
#NOTES:
     dance-double:
     M.Emirzian:
     Medium:
     6:
     0.267,0.000,0.009,0.009,0.000,197.000,1.000,1.000,0.000,0.000,0.000:
00000000
00000000
00000000
00000000
,
00000000
00000000
00000000
00000000
,
00000000
00000000
00000000
00000000
,
00000000
00000000
00000000
00000000
,
10000000
00000000
00010000
00000000
10000000
00100000
00010000
01000000
,
00000000
10000000
00000000
00100000
00000000
00010000
00000000
00001000
,
00000000
00010000
00000100
00000000
00001000
00000010
00000100
00000001
,
00000000
00001000
00000000
00000000
00000000
00000000
00000000
00000000
,
00000001
00000000
00001000
00000000
00000100
00000010
00000100
00001000
,
00000000
00000001
00000000
00000100
00000000
00001000
00000000
00010000
,
00000000
00100000
01000000
00000000
00010000
01000000
00100000
01000000
,
00000000
00010000
00000000
00000000
00000000
00000000
00000000
00000000
,
10000000
00000000
01000000
00000000
00100000
00010000
01000000
10000000
,
00000000
00100000
00000000
00010000
00000000
00001000
00000000
00000100
,
00000000
00000001
00000010
00000000
00001000
00000100
00000010
00000001
,
00000000
00001000
00000000
00000000
00000000
00000000
00000000
00000000
,
00000001
00000000
00000100
00000000
00000010
00001000
00000100
00000010
,
00000000
00000001
00000000
00000100
00000000
00001000
00000000
00010000
,
00000000
00001000
00010000
00000000
01000000
10000000
00010000
01000000
,
00000000
00100000
00000000
00000000
00000000
00000000
00100000
00000000
,
10000000
00000000
01000000
00000000
00010000
00000000
00000000
00100000
,
00000000
10000000
00000000
01000000
00000000
00010000
00000000
00001000
,
00000000
00000000
00000000
00000000
,
00000000
00010000
00000000
00000000
00000000
00000000
00000000
00000000
,
00001000
00000000
00010000
00000000
00000100
00000000
00000000
00000010
,
00000000
00001000
00000000
00000100
00000000
00000001
00000000
00000010
,
00000000
00000000
00000000
00000000
,
00000000
00000001
00000000
00000000
00000000
00000000
00001000
00000000
,
00000010
00000000
00000100
00000000
00010000
00001000
01000000
00010000
,
00000000
00100000
00000000
10000000
00000000
01000000
00000000
00100000
,
00000000
00010000
10000000
00000000
01000000
00100000
00010000
01000000
,
00000000
00100000
00000000
00000000
00000000
00000000
00000000
00000000
,
00010000
00000000
10000000
00000000
01000000
00100000
00001000
00010000
,
00000000
01000000
00000000
00010000
00000000
00001000
00000000
00020000
,
00000000
00000000
00000000
00000000
,
00000000
00000000
00000000
00030000
00000000
00000000
00000000
00000000
,
10000000
10000000
00000000
00000000
,
00001000
00001000
00000000
00000000
,
00000001
00000001
00000000
00000000
,
00010000
00010000
00000000
00000000
,
00001000
00000000
00010000
00000000
00001000
01000000
00001000
00010000
,
00000000
01000000
00000000
10000000
00000000
00100000
00000000
00010000
,
00000000
01000000
00100000
00000000
10000000
01000000
00100000
00010000
,
00000000
00100000
00000000
00000000
00000000
00000000
00000000
00000000
,
00001000
00000000
00010000
00000000
00000100
00001000
00000010
00000100
,
00000000
00000001
00000000
00001000
00000000
00000100
00000000
00000010
,
00000000
00000001
00001000
00000000
00000010
00000100
00001000
00010000
,
00000000
00001000
00000000
00000000
00000000
00000000
00000000
00000000
,
00010000
00000000
00001000
00000000
01000000
00001000
00010000
00100000
,
00000000
10000000
00000000
01000000
00000000
00010000
00000000
00100000
,
00000000
01000000
10000000
00000000
00010000
01000000
00100000
10000000
,
00000000
01000000
00000000
00000000
00000000
00000000
00000000
00000000
,
01000000
00000000
00100000
00000000
00001000
00010000
00000100
00001000
,
00000000
00000010
00000000
00000100
00000000
00000001
00000000
00000010
,
00000000
00000100
00001000
00000000
00000001
00001000
00000100
00000010
,
00000000
00000001
00000000
00000100
00000010
00010000
00001000
00010000
,
00011000
00000000
00000000
00000000
;

//---------------dance-double - M.Emirzian----------------
#NOTES:
     dance-double:
     M.Emirzian:
     Hard:
     7:
     0.438,0.000,0.488,0.000,0.094,275.000,52.000,0.000,0.000,0.000,0.000:
00000000
00000000
00000000
00000000
,
00000000
00000000
00000000
00000000
,
00000000
00000000
00000000
00000000
,
00000000
00000000
00000000
00000000
,
00000100
00000000
00000010
00000000
00000001
00001000
00000010
00000100
,
00000000
00001001
00000000
00000110
00000000
00011000
00000000
01000000
,
00000000
00100000
10000000
00000000
01000000
00100000
01000000
10000000
,
00000000
00100000
00000000
01000000
00010000
01000000
00100000
10000000
,
01000000
00000000
00100000
00000000
00010000
10000000
01000000
00100000
,
00000000
10010000
00000000
01100000
00000000
00011000
00000000
00000100
,
00000000
00000010
00000100
00000000
00001000
00000010
00000100
00000010
,
00000000
00010000
00000000
00000100
00000010
00000001
00000100
00000010
,
00000100
00000000
00000001
00000000
00000100
00000010
00001000
00000010
,
00000000
00001001
00000000
00000110
00000000
00011000
00000000
00100000
,
00000000
00010000
01000000
00000000
00100000
01000000
00010000
00100000
,
00000000
01000000
00000000
00100000
00010000
01000000
10000000
01000000
,
00010000
00000000
10000000
00000000
01000000
00100000
00010000
10000000
,
00000000
01100000
00000000
00011000
00000000
00000110
00000000
00000001
,
00000000
00001000
00000100
00000000
00000010
00000100
00001000
00000010
,
00000100
00000000
00000000
00000001
00000000
00000000
00001000
00000100
00000000
00000010
00000000
00000001
00000000
00000000
00001000
00000000
,
00001100
00000000
00000000
01001000
00000000
00000000
00000000
00000000
00000000
00000000
00000000
00000000
00100000
00000000
00000000
00000000
,
10010000
00000000
00000000
01100000
00000000
00000000
00000000
00000000
00000000
00000000
00000000
00000000
00001000
00000000
00000000
00000000
,
00010100
00000000
00000000
00001010
00000000
00000000
00000000
00000000
00000000
00000000
00000000
00000000
01000000
00000000
00000000
00000000
,
01001000
00000000
00000000
01100000
00000000
00000000
00000000
00000000
00000000
00000000
00000000
00000000
00001000
00000000
00010000
00000000
,
00010010
00000000
00000000
00001100
00000000
00000000
00000000
00000000
00000000
00000000
00000000
00000000
00000001
00000000
00000000
00000000
,
00000110
00000000
00000000
00001001
00000000
00000000
00000000
00000000
00000000
00000000
00000000
00000000
00010000
00000000
00000000
00000000
,
00011000
00000000
00000000
01001000
00000000
00000000
00000000
00000000
00000000
00000000
00000000
00000000
01100000
00000000
00000000
00000000
,
10000000
00000000
00000000
01000000
00000000
00100000
00010000
00000000
01000000
00100000
00000000
00010000
00001000
00000000
00000010
00000100
,
00000000
00000000
00001100
00000000
00000010
00001000
00000100
00000010
,
00000000
00000110
00000000
00011000
00000000
00000110
00000000
00000100
,
00000000
00000001
00000010
00000000
00000100
00001000
00000010
00000100
,
00000000
00000001
00000000
00000100
00001000
00010000
00100000
00010000
,
00001000
00000000
01000000
00000000
00100000
10000000
01000000
00100000
,
00000000
01100000
00000000
00011000
00000000
01100000
00000000
01000000
,
00000000
00010000
00100000
00000000
01000000
00000000
10000000
01000000
,
00000000
00100000
00000000
00001000
00010000
00100000
10000000
01000000
,
00100000
00000000
00001000
00000000
00010000
01000000
10000000
00000000
,
01000000
00000000
10000000
00000000
01000000
00010000
00001000
00000000
,
00010000
00000000
00100000
00000000
00010000
00001000
00000100
00000000
,
00001000
00000000
00000000
00000000
00000000
00000000
00010000
00000000
00000000
00000100
00000000
00000000
00001000
00000000
00000000
00000010
00000000
00000000
00000100
00000000
00000001
00000000
00001000
00000000
,
00000100
00000000
00000010
00000000
00000001
00001000
00000010
00000100
,
00000000
00000110
00000000
00011000
00000000
00000110
00000000
00000010
,
00000000
00000100
00010000
00000000
00001000
00000100
00001000
00010000
,
00000000
00100000
00000000
01000000
00001000
00010000
01000000
10000000
,
00100000
00000000
01000000
00000000
00010000
10000000
01000000
00100000
,
00000000
01100000
00000000
00011000
00000000
00000110
00000000
00001000
,
00000000
00010000
00100000
00000000
10000000
01000000
00100000
00001000
,
00000000
00011000
00000000
00010000
00100000
01000000
00100000
10000000
,
01000000
00000000
00100000
00000000
00010000
01000000
00100000
01000000
,
00000000
10010000
00000000
01100000
00000000
00011000
00000000
00000100
,
00000000
00000010
00001000
00000000
00000100
00000010
00000100
00001000
,
00000000
00000001
00000000
00000100
00000010
00000100
00000001
00001000
,
00000100
00000000
00010000
00000000
00001000
00010000
01000000
00100000
,
00000000
10010000
00000000
01100000
00000000
00011000
00000000
01000000
,
00000000
00100000
00010000
00000000
00001000
00000010
00000100
00001000
,
00001001
00000000
00000000
00001100
00000000
00000000
00000011
00000000
00000000
00000110
00000000
00000000
00001000
00000000
00000100
00000000
,
00011000
00000000
00000000
00000000
;

//---------------dance-double - M.Emirzian----------------
#NOTES:
     dance-double:
     M.Emirzian:
     Challenge:
     9:
     0.529,0.000,0.469,0.113,0.183,333.000,50.000,12.000,0.000,6.000,0.000:
00000000
00000000
00000000
00000000
,
00000000
00000000
00000000
00000000
,
00000000
00000000
00000000
00000000
,
00000000
00000000
00000000
00000000
,
10000000
00010000
01000000
00001000
00010000
00000010
00001000
00000001
,
00000000
00000011
00000000
00001100
00000000
01000100
00000000
00001000
,
00000100
00010000
00100000
00010000
00001000
01000000
00100000
10000000
,
01000000
00000000
00100000
00010000
10000000
00000000
00100000
00000000
01000000
00010000
10000000
00000000
01000000
00000000
00010000
00000000
,
00001000
00000010
00000001
00001000
00000010
00000100
00000010
00001000
,
00000000
00000110
00000000
00011000
00000000
01100000
00000000
00100000
,
01000000
10000000
01000000
00100000
10000000
01000000
00010000
00001000
,
01000000
00000000
00001000
00010000
00001000
00000000
00010000
00000000
00000010
00001000
00000010
00000000
00000100
00000000
00000001
00000000
,
00000010
00001000
00010000
00001000
00000100
00000001
00000010
00000100
,
00000000
00001010
00000000
00100010
00000000
00011000
00000000
00001000
,
00000100
00001000
00010000
00100000
10000000
01000000
00010000
01000000
,
10000000
00000000
01000000
00100000
00010000
00000000
01000000
00000000
00001000
00010000
00000010
00000000
00001000
00000000
00000100
00000000
,
00000010
00000001
00000100
00000010
00001000
00000100
00010000
00001000
,
00000000
00001100
00000000
00011000
00000000
01100000
00000000
00010000
,
10000000
00100000
00010000
00001000
00000100
00000001
00001000
00000100
,
00000010
00000000
00000000
00000100
00000000
00000000
00001000
00000001
00000000
00000100
00000000
00000010
00000000
00000000
00001000
00000000
,
00001100
00000000
00000000
00010010
00000000
00000000
00000000
00000000
00000000
00000000
00000000
00000000
00000000
00000000
00000000
00000000
,
00220000
00000000
00000000
10001000
00330000
00000000
00000000
00000000
00000000
00000000
00000000
00000000
00000000
00000000
00000000
00000000
,
00002200
00000000
00000000
00010010
00003300
00000000
00000000
00000000
00000000
00000000
00000000
00000000
00000000
00000000
00000000
00000000
,
00022000
00000000
00000000
01000100
00033000
00000000
00000000
00000000
00000000
00000000
00000000
00000000
00000000
00000000
00000000
00000000
,
22000000
00000000
00000000
00011000
33000000
00000000
00000000
00000000
00000000
00000000
00000000
00000000
00000000
00000000
00000000
00000000
,
00000220
00000000
00000000
00011000
00000330
00000000
00000000
00000000
00000000
00000000
00000000
00000000
00000000
00000000
00000000
00000000
,
00020020
00000000
00000000
00001100
00030030
00000000
00000000
00000000
00000000
00000000
00000000
00000000
00000000
00000000
00000000
00000000
,
00000001
00000000
00000000
00000010
00000000
00000100
00000010
00000000
00001000
00010000
00000000
00100000
10000000
00000000
01000000
00100000
,
00000000
00010000
10000000
00100000
00010000
01000000
00010000
00100000
,
00000000
00101000
00000000
00010100
00000000
00001010
00000000
00000001
,
00000010
00001000
00010000
00001000
00000100
00000001
00000010
00000100
,
00001000
00000000
00000001
00000100
00000010
00000000
00010000
00000000
00001000
01000000
00001000
00000000
00010000
00000000
00100000
00000000
,
10000000
01000000
10000000
00100000
01000000
00010000
10000000
01000000
,
00000000
01100000
00000000
00011000
00000000
00000110
00000000
00001001
,
00000000
00000000
00000110
00000000
00011000
00000000
01100000
10000000
,
00000000
01010000
00000000
00100000
10000000
01000000
10000000
00100000
,
01000000
00000000
00010000
00000000
10000000
01000000
00010000
00000000
,
00001000
00000000
00000010
00000000
00000001
00000100
00001000
00000000
,
00010000
00000000
01000000
00000000
10000000
00100000
00010000
00000000
,
00001000
00000000
00000000
00000000
00000000
00000000
00010000
00000000
00000000
00000000
00000000
00000000
00000100
00000000
00000000
00001000
00000000
00000000
00000010
00000000
00000100
00000000
00000001
00000000
,
00001000
00000100
00000010
00000001
00000100
00001000
00010000
00000100
,
00000000
00011000
00000000
01000100
00000000
00110000
00000000
01000000
,
10000000
00100000
00010000
01000000
00010000
00100000
01000000
10000000
,
01000000
00000000
00100000
00001000
00010000
00000000
00000100
00000000
00001000
00000010
00000100
00000000
00000001
00000000
00000010
00000000
,
00001000
00000100
00001000
00010000
00000100
00001000
00000010
00000100
,
00000000
00000101
00000000
00011000
00000000
01100000
00000000
10000000
,
00010000
01000000
00001000
00010000
00100000
00010000
00000100
00001000
,
00000010
00000000
00000000
00000100
00000000
00000001
00000010
00000000
00000100
00010000
00000000
00100000
01000000
00000000
00000000
00001000
,
00010000
00000100
01000000
00010000
00100000
01000000
10000000
00100000
,
00000000
01010000
00000000
00101000
00000000
00001100
00000000
00000010
,
00000100
00001000
00000100
00000010
00001000
00000100
00000010
00001000
,
00010000
00000000
00000100
00010000
00001000
00000000
01000000
00000000
00010000
10000000
01000000
00000000
00100000
00000000
00010000
00000000
,
10000000
00100000
00010000
00001000
00010000
01000000
00100000
00010000
,
00000000
01010000
00000000
00010100
00000000
00000110
00000000
00000001
,
00001000
00000010
00000100
00000010
00001000
00000100
00010000
00001000
,
01000000
00000000
00000000
00010000
00000000
00100000
01000000
00000000
10000000
00100000
00000000
01000000
00010000
00000000
00100000
00000000
,
10010000
00000000
00000000
00000000
;
