#TITLE:The Message;
#SUBTITLE:;
#ARTIST:Ni Ni;
#TITLETRANSLIT:;
#SUBTITLETRANSLIT:;
#ARTISTTRANSLIT:;
#GENRE:Bubblegum Dance;
#CREDIT:;
#BANNER:The Message-banner.png;
#BACKGROUND:The Message-bg.png;
#LYRICSPATH:;
#CDTITLE:;
#MUSIC:The Message.ogg;
#OFFSET:0.020;
#SAMPLESTART:30.640;
#SAMPLELENGTH:11.860;
#SELECTABLE:YES;
#BPMS:0.000=133.000,132.000=66.500,140.000=133.000;
#STOPS:;
#BGCHANGES:0.000=The Message-bg.png=1.000=0=0=1=====,
16.000=In The Groove 2/817_JumpBack.mpg=1.000=0=0=1=SongBgWithMovieViz===0.5^0.5^0.5^1=0.5^0.5^0.5^1,
20.000=In The Groove 2/926_JumpBack.mpg=1.000=0=0=1=====,
35.000=In The Groove 2/926_JumpBack.mpg=1.000=0=0=1=SongBgWithMovieViz===0.5^0.5^0.5^1=0.5^0.5^0.5^1,
36.000=In The Groove 2/439_JumpBack1.mpg=1.000=0=0=1=====,
52.000=In The Groove 2/439_JumpBack1.mpg=0.300=0=0=1=Checkerboard1File2x2====,
68.000=In The Groove 2/926_JumpBack.mpg=1.000=0=0=1=====,
84.000=-random-=1.000=0=0=1===FadeLeft==,
100.000=-random-=1.000=0=0=1=====,
116.000=-random-=1.000=0=0=1===FadeRight==,
132.000=In The Groove 2/586_JumpBack.mpg=1.000=0=0=1=SongBgWithMovieViz===0.5^0.5^0.5^1=0.5^0.5^0.5^1,
140.000=In The Groove 2/973_JumpBack.mpg=1.000=0=0=1=====,
156.000=-random-=1.000=0=0=1=====,
172.000=-random-=1.000=0=0=1===SlideLeft==,
188.000=In The Groove 2/439_JumpBack_1.mpg=1.000=0=0=1=====,
204.000=In The Groove 2/439_JumpBack_1.mpg=0.300=0=0=1=Checkerboard1File2x2====,
218.000=The Message-bg.png=1.000=0=0=1=====,
99999=-nosongbg-=1.000=0=0=0 // don't automatically add -songbackground-
;
#BGCHANGES2:16.000=flash=1.000=0=0=1=====,
20.000=flash=1.000=0=0=1=====,
36.000=flash=1.000=0=0=1=====,
68.000=flash=1.000=0=0=1=====,
100.000=flash=1.000=0=0=1=====,
132.000=flash=1.000=0=0=1=====,
140.000=flash=1.000=0=0=1=====,
156.000=flash=1.000=0=0=1=====,
188.000=flash=1.000=0=0=1=====,
218.000=flash=1.000=0=0=1=====,
;
#KEYSOUNDS:;
// cache tags:
#FIRSTBEAT:16.000;
#LASTBEAT:219.000;
#SONGFILENAME:/Songs/In The Groove 2/The Message/The Message.sm;
#HASMUSIC:1;
#HASBANNER:1;
#MUSICLENGTH:105.112;
// end cache tags

//---------------dance-single - K.W----------------
#NOTES:
     dance-single:
     K.W:
     Easy:
     3:
     0.217,0.000,0.095,0.000,0.000,150.000,10.000,0.000,0.000,0.000,0.000:
0000
0000
0000
0000
,
0000
0000
0000
0000
,
0000
0000
0000
0000
,
0000
0000
0000
0000
,
1000
0000
0000
0000
,
0001
0010
1000
0010
,
0001
0010
1000
1000
,
0001
0010
1000
0010
,
0010
0100
0100
0000
,
0001
0000
0000
0000
,
1000
0000
0000
0000
,
0010
0010
0100
0000
,
0100
0100
0010
0000
,
0001
0000
1000
0000
,
0001
0000
1000
0000
,
0001
0010
0100
1000
,
0010
0100
0100
0000
,
1001
0000
0000
0000
,
0001
0010
1000
0010
,
1001
0000
0000
0000
,
1000
0010
0001
0000
,
1001
0000
0000
0000
,
0001
0010
1000
0010
,
1001
0000
0000
0000
,
1000
0010
0110
0000
,
0010
0001
0100
1000
,
0001
0001
0001
0000
,
0100
1000
0010
0001
,
1000
1000
1000
0000
,
0100
1000
0010
0001
,
1000
1000
1000
0000
,
0010
0001
0100
1000
,
0001
0001
0001
0000
,
1000
0100
0010
0000
,
0100
0010
0001
0000
,
1000
1000
1000
1000
,
0100
0100
0100
0100
,
0010
0010
0010
0010
,
0001
0000
0000
0000
,
0100
1000
0010
0001
,
0100
1000
0010
0001
,
0100
1000
0010
0001
,
0100
1000
0001
0000
,
1000
1000
0000
0110
,
1000
1000
0000
0110
,
0001
0001
0000
0110
,
0001
0000
0110
0000
,
1000
0001
1000
0000
,
0100
0100
0100
0000
,
0010
0100
0001
0000
,
1000
1000
1000
0000
,
0001
1000
0001
0000
,
0010
0010
0010
0000
,
0100
0010
1000
0000
,
0001
1000
1001
0000
;

//---------------dance-single - K.W----------------
#NOTES:
     dance-single:
     K.W:
     Medium:
     5:
     0.296,0.000,0.076,0.038,0.000,206.000,8.000,4.000,0.000,0.000,0.000:
0000
0000
0000
0000
,
0000
0000
0000
0000
,
0000
0000
0000
0000
,
0000
0000
0000
0000
,
1001
0000
0000
0000
,
0100
0100
1000
0010
,
0100
0000
0100
0000
0001
0010
0001
0000
,
0100
0100
0010
0010
,
0100
0010
1000
0100
1000
0000
0000
0000
,
0001
0001
1000
1000
,
0010
0010
0100
0100
,
0001
0100
1000
0000
0001
0100
1000
0000
,
1000
0100
0001
0000
,
1000
1000
0010
0010
,
0001
0001
0010
0010
,
1000
0010
0001
0000
1000
0010
0001
0000
,
0001
0010
1000
0000
,
0010
0001
0100
1000
,
0001
0000
1000
0000
0001
0010
0001
0000
,
0100
1000
0010
0001
,
1000
0001
1000
0001
1000
0000
0000
0000
,
0100
1000
0010
0001
,
1000
0000
0001
0000
1000
0100
1000
0000
,
0010
0001
0100
1000
,
0001
1000
0001
1000
0001
0000
0000
0000
,
0010
0000
0001
0000
1000
0001
0000
0000
,
1000
1000
0001
0010
,
0001
0000
0001
0000
0001
1000
0000
0000
,
0100
1000
1000
0000
,
0010
0000
0010
0000
0010
0100
0000
0000
,
0001
0010
0001
0001
,
0100
0000
0100
0000
0010
0100
0000
0000
,
0001
1000
1001
0000
,
1000
0100
1000
0100
2000
0000
3000
0000
,
0010
0100
0001
0010
0002
0000
0003
0000
,
1000
0010
0100
0001
,
0020
0000
0000
0030
,
0001
0100
0010
1000
,
2000
0000
0000
3000
,
0001
0001
0001
0110
,
1000
1000
1000
0110
,
0001
0110
1000
0110
,
0001
1000
1001
0000
,
0000
0001
0000
0010
0000
0001
0000
0100
,
0000
0010
0000
1000
0000
0100
0100
0000
,
0000
1000
0000
0010
0000
0100
0000
0001
,
0000
0010
0000
0001
0001
0000
1001
0000
,
0100
1000
0010
0001
,
1000
0000
0001
0000
1000
0100
1000
0000
,
0010
0001
0100
1000
,
0001
1000
0001
1000
0001
0000
0000
0000
,
0010
0001
0100
1000
,
0001
0000
1000
0000
0001
0010
0001
0000
,
0100
1000
0010
0001
,
1000
0100
1000
0100
1000
0000
0000
0000
;

//---------------dance-single - K.W----------------
#NOTES:
     dance-single:
     K.W:
     Hard:
     7:
     0.412,0.000,0.190,0.114,0.114,271.000,20.000,12.000,17.000,0.000,0.000:
0000
0000
0000
0000
,
0000
0000
0000
0000
,
0000
0000
0000
0000
,
0000
0000
0000
0000
,
1001
0000
0000
0000
,
0001
0001
0100
0010
0100
0001
0000
0001
,
0100
1000
0100
0001
0020
0000
0130
0000
,
1000
1000
0100
0010
0100
1000
0000
1000
,
0010
0100
1001
0000
,
1000
0000
0000
0010
0000
0000
0100
0000
0001
0000
0000
0010
0000
0000
0001
0000
,
0100
0000
0000
0010
0000
0000
1000
0000
0100
0000
0000
0010
0000
0000
0100
0000
,
1000
0000
0000
0000
1000
0000
0000
0010
0000
0000
0110
0000
0000
0000
0000
0000
,
0001
0010
1001
0000
,
0000
0000
0001
0000
1000
0000
0000
0010
0000
0000
0100
0000
0001
0000
0000
0010
,
0000
0000
0001
0000
0100
0000
0000
1000
0000
0000
0100
0000
0010
0000
0100
0000
,
0001
0000
0000
0000
0010
0000
0000
0001
0000
0000
0101
0000
0000
0000
0100
0000
,
1000
0100
0010
0000
1100
0000
0000
0000
,
0001
0001
0001
0000
0100
0010
0000
0010
,
1000
0000
0100
0010
0200
0000
1300
0000
,
0010
0010
0100
0000
0001
1000
0000
0100
,
0010
0110
1001
MMMM
,
0001
0010
0001
0000
0100
0000
0000
0000
0010
0000
1000
0000
0000
0000
1000
0000
,
0100
0010
0002
0013
,
0100
1000
0100
0000
0010
0000
0000
0000
0100
0000
1000
0000
0000
0000
0010
0000
,
0100
0010
1001
0000
,
1000
0000
0001
0000
0100
0001
0010
0001
,
1000
1100
M001
0011
,
010M
0000
0010
0000
0100
1000
0000
1000
,
0100
0010
0100
0001
0010
0000
000M
0000
,
0020
0100
0001
0130
,
1000
0010
0100
0000
0001
0000
0011
0000
,
0200
0010
1000
0310
,
0001
0010
0100
0010
0001
0M00
M0M0
0000
,
1000
0000
0000
0001
0000
0000
1000
0000
0100
0000
0000
0010
0000
0000
0200
0000
0000
0000
2000
0000
0000
0000
0000
0000
3300
0000
0000
0000
0000
0000
0000
0000
,
0010
0000
0000
0100
0000
0000
0001
0000
0010
0000
0000
0001
0000
0000
0010
0000
0200
0000
0000
0000
1000
0000
0000
0000
1300
0000
0000
0000
0000
0000
0000
0000
,
0001
1000
0001
0000
0010
0100
0010
0000
,
0001
1000
0001
0000
0100
0010
0100
0000
,
0001
1000
0001
0000
0010
0100
0010
0000
,
0002
0000
1003
M00M
0200
0000
1300
M000
,
0010
0000
0100
0001
0010
0000
0011
0000
,
0100
1000
0100
0010
0100
0000
0011
0000
,
0100
0000
0010
0001
1000
0000
0110
0000
,
0001
1000
0100
0010
0100
0000
1100
0000
,
0010
0100
0010
1000
0010
0100
0010
0001
,
0010
0100
0010
1000
0100
0010
0110
0000
,
0001
0000
1000
0010
0100
0000
0001
0010
,
0100
0010
1001
0000
,
1000
0010
0000
0000
0100
0000
0001
0000
0010
0000
0001
0000
0000
0000
0010
0000
,
0100
1000
0010
0100
0002
0000
0013
0000
,
0100
1000
0000
0000
0010
0000
0100
0000
0010
0000
1000
0000
0000
0000
0001
0000
,
0010
0100
1001
MMMM
,
0001
0100
0000
0000
0010
0000
1000
0000
0100
0000
1000
0000
0000
0000
0000
0000
,
0010
0000
0100
0001
0020
0000
0130
0000
,
0010
0001
0000
0000
0100
0000
0000
0000
0010
0000
1000
0000
0000
0000
0001
0000
,
0100
0010
0100
0000
1001
0000
0000
0000
;

//---------------dance-single - K. Ward----------------
#NOTES:
     dance-single:
     K. Ward:
     Challenge:
     9:
     0.599,0.000,0.371,0.152,0.276,386.000,39.000,16.000,2.000,0.000,0.000:
0000
0000
0000
0000
,
0000
0000
0000
0000
,
0000
0000
0000
0000
,
0000
0000
0000
0000
,
2002
0000
0000
3003
0000
0110
1100
0000
,
0001
0001
0100
0100
1000
1000
0100
0100
,
0001
0000
0001
0000
0010
0000
0010
0000
0001
0000
0001
1000
0000
1000
0100
0000
,
0010
0010
0001
0001
0100
0100
0010
0010
,
1000
0100
0010
0100
1001
0000
0110
0000
,
0000
0000
1000
0100
1000
0000
1100
0000
0000
0000
0010
0001
0010
0000
0011
0000
,
0000
0000
0100
0010
0100
0000
0110
0000
0000
0000
0001
1000
0001
0000
1001
0000
,
0100
0000
0010
0000
0100
0000
0001
0000
0010
0100
0020
0000
0000
0000
0130
0000
,
0100
1000
0100
0010
0001
0000
1100
0000
,
0010
0000
0000
0010
0100
0000
0001
0000
0010
0000
0000
0010
0001
0000
1000
0000
,
0100
0000
0000
0100
1000
0000
0010
0000
0100
0000
0000
0100
0001
0000
0010
0000
,
0001
0100
1000
0100
0002
0010
0000
0013
,
0100
1000
0010
0100
0110
0000
0011
0000
,
1000
0100
1000
0000
0100
0000
0010
0000
0100
0000
0100
0000
0000
0000
0010
0000
,
0001
0100
0001
0100
1000
0100
0002
0000
,
0013
0100
0010
0000
0100
0000
0100
0000
1000
0000
1001
0000
0000
0000
0100
0000
,
1000
0100
0001
0010
0011
0000
0110
0000
,
1000
0100
1000
0000
0010
0000
0100
0000
0001
0000
0002
0000
0000
0000
0013
0000
,
0100
0010
0001
1000
0100
0000
1100
0000
,
0001
0010
0001
0000
0100
0000
1000
0000
1000
0000
0100
0000
0010
0000
0100
0000
,
0001
0000
0010
0100
0010
0000
0000
0000
1001
0000
0000
0000
0011
0000
0000
0000
,
1000
0100
0000
0000
1000
0000
0010
0000
0100
0000
0001
0000
0100
0000
1000
0000
,
0100
0100
0001
0001
0020
0000
0130
M00M
,
0010
0001
0000
0000
0100
0000
0010
0000
0100
0000
1000
0000
0100
0000
0001
0000
,
0020
0000
0000
0000
0032
0000
0000
0000
1003
0000
0100
1000
0000
1000
0001
0000
,
0010
0100
0010
0000
0001
0000
0100
0000
0010
1000
0100
0000
1000
0000
0010
0000
,
0100
0100
0001
0001
0020
0000
0130
0000
,
0010
0100
0010
0000
0001
0000
1000
0000
0010
0000
1100
0000
0000
0000
0100
0000
,
1001
0100
1001
0110
0011
0000
0000
0000
,
1001
0000
0000
0100
0000
0000
0001
0000
0100
0000
0000
0010
0000
0000
0200
0000
0000
0000
2000
0000
0000
0000
0000
0000
3300
0000
0000
0000
0000
0000
0000
0000
,
0100
0000
0000
0001
0000
0000
0010
0000
0001
0000
0000
1000
0000
0000
0100
0000
0200
0000
0000
0000
0010
0000
0000
0000
1000
0000
0300
0000
1000
0000
0000
0000
,
1000
0100
1000
0000
0001
0010
0001
0000
1000
0100
1000
0000
0001
0010
0001
0000
,
0100
0010
0100
0000
0010
0000
1000
0100
0000
0100
1000
0000
0001
0000
0010
0000
,
0100
1000
0100
0000
0010
0100
0010
0000
0001
0000
0100
0000
1000
0000
0100
0000
,
0010
1000
0000
1000
0010
0000
0100
0000
0001
1000
0000
1000
0100
0000
0000
0000
,
0010
0000
0000
0001
0010
0000
0001
0000
0100
0000
1000
0000
0100
0000
0010
0000
,
0100
0001
0010
0001
1000
0110
0011
0000
,
0001
0000
0000
1000
0100
0000
0010
0000
0001
0000
0010
0000
0100
0000
1000
0000
,
0100
0001
0010
0000
0110
1001
1100
0000
,
0001
0000
0000
0001
0010
0000
0001
0000
1000
0000
0100
0000
0010
0000
0001
0000
,
1000
0000
0000
0100
0010
0000
0100
0000
0010
0000
0011
0000
0110
0000
0000
0000
,
0100
0000
0000
0100
1000
0000
0010
0000
0100
0000
0001
0000
1000
0000
0001
0000
,
0100
1001
0110
0000
0110
1001
1100
0000
,
0001
0010
0001
0000
0100
0000
0100
0000
0010
0000
0020
0000
0000
0000
0130
0000
,
1000
0100
0001
0010
0002
1000
1003
0000
,
0100
0010
0100
0000
0010
0000
0010
0000
0001
0000
2000
0000
0000
0000
3100
0000
,
1000
0000
0010
0000
0100
0000
0001
0000
0010
0001
0000
0001
1000
0000
0000
0000
,
0010
0100
0010
0000
0100
0000
0100
0000
1000
0000
1000
0000
0100
0000
0001
0000
,
0010
0001
0110
0000
1000
0100
1100
0000
,
1000
0001
0010
0000
0001
0000
0100
0000
1000
0000
0100
0000
0001
0000
0010
0000
,
0100
0010
0000
0001
0010
0000
0100
0000
1001
0000
0000
0000
0000
0000
0000
0000
;

//---------------dance-single - K. Ward----------------
#NOTES:
     dance-single:
     K. Ward:
     Beginner:
     1:
     0.126,0.000,0.105,0.000,0.000,82.000,11.000,0.000,0.000,0.000,0.000:

0000
0000
0000
0000
,
0000
0000
0000
0000
,
0000
0000
0000
0000
,
0000
0000
0000
0000
,
1001
0000
0000
0000
,
1000
0000
0100
0000
,
1000
0000
0001
0000
,
0010
0000
0010
0000
,
0001
0000
0001
0000
,
1000
0000
0000
0000
,
0100
0000
0000
0000
,
1000
0000
0000
0000
,
0001
0000
0010
0000
,
0001
0000
0000
0000
,
0010
0000
0000
0000
,
0100
0000
0000
0000
,
1000
0000
0001
0000
,
1001
0000
0000
0000
,
0110
0000
0000
0000
,
1001
0000
0000
0000
,
0110
0000
0000
0000
,
1001
0000
0000
0000
,
0110
0000
0000
0000
,
1001
0000
0000
0000
,
0110
0000
0000
0000
,
1000
0000
0001
0000
,
1000
0000
0001
0000
,
0010
0000
0100
0000
,
0010
0000
0001
0000
,
1000
0000
0001
0000
,
0010
0000
0001
0000
,
1000
0000
0010
0000
,
0100
0000
0001
0000
,
1000
0000
0000
0000
,
0001
0000
0000
0000
,
1001
0000
0000
0000
,
0010
0000
0000
0000
,
0100
0000
0010
0000
,
1000
0000
0000
0000
,
0001
0000
0001
0000
,
0001
0000
0001
0000
,
1000
0000
1000
0000
,
1000
0000
1000
0000
,
0010
0000
0010
0000
,
0010
0000
0010
0000
,
0100
0000
0100
0000
,
0100
0000
0001
0000
,
1000
0000
1000
0000
,
0100
0000
1000
0000
,
0001
0000
0001
0000
,
0010
0000
0001
0000
,
1000
0000
0001
0000
,
0010
0000
0001
0000
,
1000
0000
0001
0000
,
1000
0000
1001
0000
;

//---------------dance-double - J.Casarino----------------
#NOTES:
     dance-double:
     J.Casarino:
     Hard:
     7:
     0.488,0.000,0.276,0.067,0.128,323.000,29.000,7.000,13.000,0.000,0.000:
00000000
00000000
00000000
00000000
,
00000000
00000000
00000000
00000000
,
00000000
00000000
00000000
00000000
,
00000000
00000000
00000000
00000000
,
00000220
00000000
00000000
00000330
,
00000001
00000001
00000100
00000010
00000100
00001000
0000M000
00001000
,
00010000
01000000
00010000
00001000
00200000
00000000
00310000
00000000
,
10000000
10000000
00100000
01000000
00100000
00010000
000M0000
00010000
,
00001000
00000010
00001000
00010000
00000100
00000000
00011000
00000000
,
00000000
00000000
01000000
00000000
00010000
00000000
00000000
00100000
00000000
00000000
01000000
00000000
00010000
00000000
00000000
00001000
,
00000000
00000000
00010000
00000000
00000010
00000000
00010000
00001000
00000000
00000000
00010000
00000000
00000000
00000000
00000100
00000000
,
00001000
00000000
00000010
00000000
00000100
00000000
00000001
00000100
00000000
00000000
00000001
00000000
00000000
00000000
00001000
00000000
,
00000010
00010000
00001000
00010000
00100000
00000000
01100000
00000000
,
00000000
00000000
00010000
00000000
10000000
00000000
00000000
00100000
00000000
00000000
01000000
00000000
00010000
00000000
00000000
00100000
,
00000000
00000000
00010000
00000000
01000000
00000000
00001000
01000000
00000000
00000000
00100000
00000000
00000000
00000000
00010000
00000000
,
00001000
00000000
00000000
00000000
00010000
00000000
00001000
00010000
00000000
00000000
00001000
00000000
00000000
00000000
00000100
00000000
,
00000001
00000010
00000100
00001000
00000001
00000000
00000110
00000000
,
00001000
00000100
00000000
00000000
00010000
00000000
00001000
00000000
00010000
00000000
00000010
00000000
000000M0
00000000
00000010
00000000
,
00010000
00000000
00010000
00001000
00020000
00000000
00130000
00000000
,
00010000
00001000
01000000
00010000
00100000
01000000
0M000000
01000000
,
00100000
00100000
01000000
01000000
10010000
00000000
11000000
00000000
,
00010000
00100000
00000000
00000000
00001000
00000000
00010000
00000000
00001000
00000000
00000010
00000000
000000M0
00000000
00000010
00000000
,
00000001
00000000
00000001
00001000
00000002
00000000
00001003
00000000
,
00000001
00000010
00000100
00000010
00001000
00010000
00000000
00010000
,
00000100
00000100
00000010
00000010
00001001
00000000
00000101
00000000
,
00000010
00010000
00000010
00010000
00000010
00010000
000M0000
00010000
,
00000100
00010000
00001000
01000000
00010000
00000000
00110000
00000000
,
10000000
01000000
10000000
01000000
10000000
01000000
0M000000
01000000
,
00100000
00001000
00010000
00001000
01000000
00000000
00110000
00000000
,
00001000
00010000
01000000
00010000
00001000
00010000
000M0000
00010000
,
01000000
10000000
00100000
01000000
00100000
00000000
01010000
00000000
,
00001000
00010000
00001000
00000100
00001000
00010000
000M0000
00010000
,
00000010
00000100
00000001
00000010
00000100
00000000
00001001
00000000
,
00000001
00000100
00000010
00000000
00001000
00000100
00010000
00000000
00001000
01000000
00010000
00000000
01001000
00000000
00011000
00000000
,
00010000
00001000
01000000
00000000
00010000
01000000
00100000
00000000
10000000
00010000
00100000
00000000
01100000
00000000
10010000
00000000
,
10000000
00000000
00000000
01000000
00000000
00000000
10000000
00000000
00100000
00000000
00000000
01000000
00000000
00000000
00100000
00000000
,
00000000
00010000
00010000
00000000
00001000
00010000
00001000
00000000
,
00000010
00000000
00000000
00000001
00000000
00000000
00000010
00000000
00000100
00000000
00000000
00000000
00001010
00000000
00000000
00000000
,
00010100
00011000
000M1000
00011000
,
0001M000
00000000
00000000
00001000
01000000
00000000
00001000
00000000
00010000
00000000
00000000
00000000
00011000
00000000
00000000
00000000
,
00000100
00001000
00000100
00000010
00000100
00000000
00000011
00000000
,
00000001
00000000
00000000
00001000
00000001
00000000
00000100
00000000
00000001
00000000
00000000
00000000
00001010
00000000
00000000
00000000
,
00010000
00001000
00010000
00000100
00010000
00000000
00101000
00000000
,
00010000
00000000
00000000
10000000
00010000
00000000
01000000
00000000
00001000
00000000
00010000
00000000
00001000
00000000
00100000
00000000
,
00001000
00010000
00001000
00000010
00001000
00000000
00010100
00000000
,
00001000
00000000
00000000
00000001
00001000
00000000
00000010
00000000
00010000
00000000
00001000
00000000
00010000
00000000
00000100
00000000
,
00010000
00001000
00010000
01000000
00010000
00000000
00011000
00000000
,
00001000
00100000
00000000
00000000
00001000
00000000
00100000
00000000
00010000
00000000
10000000
00000000
00000000
00000000
00100000
00000000
,
10000000
10000000
01000000
00100000
00010000
00000000
01010000
00000000
,
00001000
00010000
00000000
00000000
00000010
00000000
00001000
00000000
00001000
00000000
00000100
00000000
00000000
00000000
00001000
00000000
,
00000001
00000010
00000001
00000100
00000120
00000000
00001030
00000000
,
00000100
00010000
00000000
00000000
00000100
00000000
00001000
00000000
00000010
00000000
00010000
00000000
00000000
00000000
00001000
00000000
,
00100000
00100000
00001000
00010000
02000000
00000000
13000000
00000000
,
00100000
10000000
00000000
00000000
00010000
00000000
00100000
00000000
01000000
00000000
00100000
00000000
00000000
00000000
00001000
00000000
,
00010000
00010000
00001000
00000100
00000110
00000000
00000MM0
00000000
;

//---------------dance-double - J.Casarino----------------
#NOTES:
     dance-double:
     J.Casarino:
     Challenge:
     9:
     0.597,0.000,0.476,0.086,0.214,378.000,50.000,9.000,22.000,6.000,0.000:
00000000
00000000
00000000
00000000
,
00000000
00000000
00000000
00000000
,
00000000
00000000
00000000
00000000
,
00000000
00000000
00000000
00000000
,
00021210
00000000
00000000
00000000
00030300
00000000
00011000
000MM000
,
01001000
00000000
0M01M000
00000000
00000100
00000000
00010000
00000000
00001000
00000000
00000100
00000000
00000000
00000000
00000001
00000010
,
00000001
00000000
00001000
00000010
00001000
00000000
00000001
00000100
00000020
00000000
00000000
00000000
00010030
00000000
00000000
00000000
,
00010100
00000000
000M1M00
00000000
01000000
00000000
00001000
00000000
00010000
00000000
00100000
00000000
00000000
00000000
00010000
00001000
,
00010000
00000000
00001000
01000000
00001000
00000000
00100000
00010000
01000000
00000000
00100000
00000000
10100000
00000000
00000000
00000000
,
11000000
00000000
00010000
10000000
01000000
00000000
00100000
00010000
00000000
00000000
01000000
00001000
00010000
00000000
00001000
00010000
,
00000000
00000000
00000010
00001000
00000100
00000000
00000010
00000001
00000000
00000000
00000101
00000000
00000000
00000000
00000100
00000000
,
00001000
00000000
00000100
00000001
00000010
00000000
00000100
00001000
00000000
00000000
00010010
00000000
00000000
00000000
00011000
00000000
,
00000100
00010000
00000010
00001000
00010100
00001000
01001000
00000000
,
00101000
00000000
00010000
00001000
00000010
00000000
00000001
00000100
00000000
00000000
00000001
00000010
00001000
00000000
00010000
00000100
,
00000000
00000000
00010000
01000000
10000000
00000000
00100000
01000000
00000000
00000000
01100000
00000000
00000000
00000000
00100000
10000000
,
01000000
00000000
00100000
00010000
01000000
00000000
00001000
00010000
00000000
00000000
01001000
00000000
00000000
00000000
00010100
00000000
,
00001000
00000100
00000001
00000100
00000011
00000100
00001010
00000000
,
00000001
00000100
00000010
00000000
00010000
00000000
00001000
00000000
00010000
00000000
01000000
00000000
00000000
00000000
10000000
00000000
,
00100000
00010000
10000000
01000000
00010000
10000000
00100000
00000000
,
00100000
01000000
00001000
00000000
00010000
00000000
00000100
00000000
00000010
00000000
00001000
00000000
00000000
00000000
00000001
00000000
,
00000100
00001000
00000010
00010000
01000000
10000000
10100000
00000000
,
00010000
00100000
00001000
00000000
00010000
00000000
00100000
00000000
10000000
00000000
01000000
00000000
00000000
00000000
00010000
00000000
,
00001000
00000100
00000010
00010000
00001000
01000000
00100000
00000000
,
00100000
10000000
01000000
00000000
00010000
00000000
00001000
00000000
00010000
00000000
01000000
00000000
00000000
00000000
00010000
00000000
,
00001000
00100000
00001000
00010000
00000010
00000100
00000101
00000000
,
00001001
00000000
0000M10M
00000000
00000010
00000000
00000100
00000000
00001000
00000000
00010000
00000000
00000000
00000000
00001000
00010000
,
00000100
00000000
00010000
00001000
01000000
00000000
00100000
00010000
00100000
00000000
10000000
00000000
01000000
00000000
00000000
00000000
,
00101000
00M1M000
00001000
00000100
00000010
00001000
00000000
00001001
,
0000M1M0
00001000
00010000
01000000
00100000
00010000
00101000
00000000
,
10010000
00000000
M10M0000
00000000
00100000
00000000
01000000
00000000
10000000
00000000
00100000
00000000
00000000
00000000
00100000
00010000
,
00100000
00000000
00010000
00001000
00010000
00000000
00001000
00000010
00001000
00000000
00000010
00000000
00000001
00000000
00000000
00000000
,
00000110
00001000
00000001
00001000
00000010
00010000
00000000
00010100
,
000M1M00
00010000
00100000
10000000
01000000
00010000
11000000
00000000
,
10100000
00000000
00000000
00000000
00110000
00000000
00000000
00000000
00011000
00000000
00000000
00000000
00001001
00000000
00000000
00000000
00002200
00000000
00000000
00000000
00000000
00000000
00000000
00000000
00000010
00000000
00000000
00000000
00010000
00003300
00000000
00000000
,
00000011
00000000
00000000
00000000
00000101
00000000
00000000
00000000
00011000
00000000
00000000
00000000
10010000
00000000
00000000
00000000
02200000
00000000
00000000
00000000
00000000
00000000
00000000
00000000
00001000
03300000
00000000
00000000
00000000
00000000
00000000
00000000
,
10000000
00000000
00000000
00100000
00000000
00000000
01000000
00000000
00001000
00000000
00000000
00010000
00000000
00000000
01000000
00000000
,
00010000
00001000
01000000
00010000
01000000
00100000
10000000
01000000
,
00010000
00001000
00002200
00000001
,
00000010
00003300
00000000
00000000
00000000
00000000
00000000
00000000
00001010
00000000
0000M0M0
00000000
00011000
00000000
000MM000
00000000
,
01010000
00000000
00000000
00001000
00010000
00000000
00001000
00000000
00000100
00000000
00001000
00000000
00010000
00000000
00001000
00000000
,
01000000
00001000
10000000
00001000
00100000
00001000
00010000
00001000
,
00001010
00000000
00000000
00001000
00010000
00000000
00100000
00000000
10000000
00000000
00100000
00000000
01000000
00000000
00001000
00000000
,
00010000
00000000
00001000
00000000
00001100
00000000
00000000
00000100
00000010
00000000
00010000
00000000
00011000
00000000
00000000
00000000
,
01010000
00000000
00000000
00100000
01000000
00000000
10000000
00000000
01000000
00000000
00100000
00000000
01000000
00000000
00010000
00000000
,
01000000
00001000
01000000
00000100
01000000
00001000
01000000
00010000
,
00011000
00000000
00000000
00010000
00001000
00000000
01000000
00000000
00000100
00000000
00010000
00000000
00001000
00000000
00100000
00000000
,
00000010
00000000
00010000
00000000
00011000
00000000
00000000
00000100
00000010
00000000
00000001
00000000
00000101
00000000
00000000
00000000
,
00000010
00010000
00001000
00000000
00010000
00000000
00100000
00000000
10000000
00000000
01000000
00000000
00000000
00000000
10000000
00000000
,
00010000
01000000
10000000
00100000
10000000
01000000
00010000
00000000
,
00100000
00001000
00010000
00000000
00001000
00000000
00000010
00000000
00000100
00000000
00001000
00000000
00000000
00000000
00000010
00000000
,
00000100
00000001
00001000
00000100
00000010
00001000
00011000
00000000
,
00010000
00001000
00000100
00000000
00000010
00000000
00001000
00000000
00000100
00000000
00010000
00000000
00000000
00000000
00010000
00000000
,
00100000
01000000
00010000
00100000
01000000
00010000
00001000
00000000
,
00010000
00100000
01000000
00000000
10000000
00000000
01000000
00000000
00010000
00000000
00100000
00000000
00000000
00000000
00001000
00000000
,
00000010
00000100
00001000
00000001
00000110
00000000
00000MM0
00000000
;

//---------------dance-double - J.Casarino----------------
#NOTES:
     dance-double:
     J.Casarino:
     Medium:
     5:
     0.310,0.000,0.124,0.019,0.000,213.000,13.000,2.000,0.000,0.000,0.000:
00000000
00000000
00000000
00000000
,
00000000
00000000
00000000
00000000
,
00000000
00000000
00000000
00000000
,
00000000
00000000
00000000
00000000
,
00011000
00000000
00000000
00000000
,
00001000
00001000
00100000
00100000
,
00010000
00000000
01000000
00000000
00100000
10000000
00100000
00000000
,
10000000
10000000
01000000
01000000
,
00010000
00001000
00010000
00000010
00001000
00000000
00000000
00000000
,
00000100
00000100
00001000
00001000
,
00000001
00000001
00000010
00000010
,
00001000
00010000
00000100
00000000
00010000
00001000
01000000
00000000
,
00010000
00001000
00100000
00010000
01000000
00000000
00000000
00000000
,
00010000
00010000
10000000
10000000
,
00100000
00100000
01000000
01000000
,
00001000
00010000
00000100
00000000
00010000
00001000
01000000
00000000
,
00001000
00010000
00000010
00001000
00000100
00000000
00000000
00000000
,
00000010
00000001
00000100
00001000
,
00010000
00000000
01000000
00000000
10000000
00100000
10000000
00000000
,
01000000
00010000
00001000
00010000
,
00010000
00100000
00010000
00100000
00010000
00000000
00000000
00000000
,
00100000
10000000
01000000
00010000
,
00001000
00000000
00000100
00000000
00000001
00000010
00000001
00000000
,
00000100
00001000
00010000
00001000
,
00001000
00000010
00001000
00000010
00001000
00000000
00000000
00000000
,
00010000
00000000
00000100
00000000
00010000
00000100
00000000
00000000
,
00010000
00010000
00001000
00010000
,
00001000
00000000
01000000
00000000
00001000
01000000
00000000
00000000
,
00100000
01000000
01000000
00000000
,
00001000
00000000
00001000
00000000
00100000
00001000
00000000
00000000
,
00010000
00001000
00010000
00001000
,
00010000
00000000
00010000
00000000
00000010
00010000
00000000
00000000
,
00010000
00000100
00001100
00000000
,
00000001
00000010
00000001
00000010
00000001
00000000
00000000
00000000
,
00000100
00000010
00010000
00000100
00001000
00000000
00000000
00000000
,
00010000
00001000
01000000
00010000
,
00200000
00000000
00000000
00300000
,
00010000
01000000
00100000
10000000
,
02000000
00000000
03010000
00010000
,
01000000
10000000
00100000
10010000
,
00100000
00010000
01000000
10010000
,
01000000
00110000
00100000
00101000
,
00001000
00011000
00011000
00000000
,
00000100
00001000
00000010
00001001
,
00000010
00000001
00000100
00001001
,
00000100
00001100
00010000
00011000
,
00001000
00000000
01001000
00000000
00010000
00100000
01000000
00000000
,
10000000
00100000
10000000
01000000
,
00010000
00000000
00001000
00000000
00010000
00001000
00000100
00000000
,
00000001
00000010
00000001
00000100
,
00000010
00010000
00000010
00010000
00000010
00000000
00000000
00000000
,
00001000
00010000
00000010
00001000
,
00000001
00000000
00000100
00000000
00001000
00010000
01000000
00000000
,
10000000
00010000
00100000
00001000
,
00010000
00100000
10000000
01000000
00010000
00000000
00000000
00000000
;

//---------------dance-double - J.Casarino----------------
#NOTES:
     dance-double:
     J.Casarino:
     Easy:
     3:
     0.208,0.000,0.057,0.057,0.000,141.000,6.000,6.000,0.000,0.000,0.000:
00000000
00000000
00000000
00000000
,
00000000
00000000
00000000
00000000
,
00000000
00000000
00000000
00000000
,
00000000
00000000
00000000
00000000
,
01100000
00000000
00000000
00000000
,
10000000
01000000
10000000
00000000
,
01000000
01000000
00010000
00010000
,
00001000
00010000
00001000
00000000
,
00000100
00000100
00000001
00000000
,
00000010
00000000
00000001
00000000
,
00000100
00000000
00001000
00000000
,
00010000
00010000
00001000
00000000
,
00100000
00010000
01000000
00000000
,
00100000
00000000
10000000
00000000
,
01000000
00000000
00010000
00000000
,
00001000
00001000
00010000
00000000
,
00000010
00001000
00000100
00000000
,
00011000
00000000
00000000
00000000
,
00010000
01000000
10000000
01000000
,
00010000
00000000
00001000
00000000
,
00010000
00000010
00000010
00000000
,
00011000
00000000
00000000
00000000
,
00001000
00000100
00000001
00000100
,
00001000
00000000
00010000
00000000
,
00001000
00100000
00100000
00000000
,
00001000
00010000
00001000
00010000
,
00000010
00000010
00000010
00000000
,
00001000
00000001
00001000
00000001
,
00000100
00001000
00010000
00000000
,
00010000
00001000
00010000
00001000
,
01000000
01000000
01000000
00000000
,
00010000
10000000
00010000
10000000
,
01000000
00010000
00001000
00000000
,
00010000
00010000
00010000
00000000
,
00001000
00001000
00001000
00000000
,
00000200
00000300
00000002
00000003
,
00000020
00000030
00002000
00003000
,
00020000
00030000
00200000
00300000
,
10000000
00000000
00010000
00010000
,
00010000
00100000
00010000
00000000
,
10000000
01000000
10000000
00000000
,
00100000
10000000
00100000
00000000
,
01000000
00010000
01000000
00000000
,
00001000
00010000
00001000
00000000
,
00010000
00000100
00010000
00000000
,
00000010
00001000
00000010
00000000
,
00000100
00000001
00000100
00000000
,
00001001
00000000
00000000
00000000
,
00000001
00000100
00001000
00000100
,
00000010
00000000
00010000
00000000
,
00001000
01000000
00100000
00000000
,
10010000
00000000
00000000
00000000
,
10000000
01000000
00010000
01000000
,
00100000
00000000
00001000
00000000
,
00001000
00010000
00011000
00000000
;
