#TITLE:Hardcore Symphony;
#SUBTITLE:;
#ARTIST:Digital Explosion;
#TITLETRANSLIT:;
#SUBTITLETRANSLIT:;
#ARTISTTRANSLIT:;
#GENRE:Classical Techno;
#CREDIT:;
#BANNER:Hardcore Symphony-banner.png;
#BACKGROUND:Hardcore Symphony-bg.png;
#LYRICSPATH:;
#CDTITLE:;
#MUSIC:Hardcore Symphony.ogg;
#OFFSET:0.002;
#SAMPLESTART:11.000;
#SAMPLELENGTH:11.960;
#SELECTABLE:YES;
#BPMS:0.000=174.040;
#STOPS:;
#BGCHANGES:0.000=Hardcore Symphony-bg.png=1.000=0=0=1=====,
16.000=In The Groove 2/800_JumpBack.mpg=1.000=1=0=1===CrossFade==,
32.000=In The Groove 2/632_JumpBack.mpg=1.000=0=0=1=====,
48.000=-random-=1.000=0=0=1===FadeLeft==,
64.000==1.000=1=0=1===CrossFade==,
80.000=-random-=1.000=0=0=1===FadeRight==,
96.000=In The Groove 2/753_JumpBack.mpg=1.000=0=0=1===FadeUp==,
104.000=-random-=1.000=0=0=1===FadeDown==,
112.000=In The Groove 2/753_JumpBack.mpg=1.000=0=0=1===FadeUp==,
120.000=-random-=1.000=0=0=1===FadeDown==,
128.000=In The Groove 2/753_JumpBack.mpg=1.000=0=0=1===FadeUp==,
136.000=-random-=1.000=0=0=1===FadeDown==,
144.000=In The Groove 2/753_JumpBack.mpg=1.000=0=0=1===FadeUp==,
152.000=-random-=1.000=0=0=1===FadeDown==,
156.000=In The Groove 2/865_JumpBack.mpg=1.000=0=0=1=SongBgWithMovieViz====,
160.000=In The Groove 2/592_JumpBack.mpg=0.300=0=0=1=Kaleidoscope2x2====,
176.000=-random-=0.300=0=0=1=Kaleidoscope2x2====,
192.000=-random-=0.300=0=0=1=Kaleidoscope2x2====,
208.000=-random-=0.300=0=0=1=Kaleidoscope2x2====,
224.000=-random-=1.000=0=0=1=====,
240.000=-random-=1.000=0=0=1===FadeLeft==,
256.000=-random-=1.000=0=0=1===FadeRight==,
272.000=In The Groove 2/445_JumpBack.mpg=1.000=0=0=1===FadeUp==,
288.000=Hardcore Symphony-bg.png=1.000=0=0=1====1^1^0^1=,
289.000=Hardcore Symphony-bg.png=1.000=0=0=1====0^1^1^1=,
290.000=Hardcore Symphony-bg.png=1.000=0=0=1====1^0^1^1=,
291.000=Hardcore Symphony-bg.png=1.000=0=0=1=====,
99999=-nosongbg-=1.000=0=0=0 // don't automatically add -songbackground-
;
#BGCHANGES2:28.000=yellow flash=1.000=0=0=1=====,
32.000=white flash=1.000=0=0=1=====,
156.000=yellow flash=1.000=0=0=1=====,
160.000=white flash=1.000=0=0=1=====,
220.000=yellow flash=1.000=0=0=1=====,
224.000=white flash=1.000=0=0=1=====,
291.000=white flash=1.000=0=0=1=====,
;
#KEYSOUNDS:;
// cache tags:
#FIRSTBEAT:16.000;
#LASTBEAT:291.000;
#SONGFILENAME:/Songs/In The Groove 2/Hardcore Symphony/Hardcore Symphony.sm;
#HASMUSIC:1;
#HASBANNER:1;
#MUSICLENGTH:102.068;
// end cache tags

//---------------dance-double - M.Emirzian----------------
#NOTES:
     dance-double:
     M.Emirzian:
     Easy:
     4:
     0.230,0.000,0.078,0.137,0.000,142.000,8.000,14.000,0.000,0.000,0.000:
00000000
00000000
00000000
00000000
,
00000000
00000000
00000000
00000000
,
00000000
00000000
00000000
00000000
,
00000000
00000000
00000000
00000000
,
00010000
00000000
00000000
00000000
,
10000000
00000000
00000000
00000000
,
01000000
00000000
00000000
00000000
,
00100000
00010000
10000000
01000000
,
10000000
00000000
00010000
00000000
,
01000000
00001000
00010000
00000010
,
00001000
00000000
00000001
00000000
,
00000010
00000001
00001000
00000010
,
00000100
00000000
00000001
00000000
,
00001000
00000100
00010000
00001000
,
01000000
00000000
00010000
00000000
,
10000000
00100000
01000000
00010000
,
00100000
00000000
00001000
00000000
,
00000000
00000000
00010000
00000000
,
00000000
00000000
00000100
00000000
,
00000000
00000000
00001000
00000000
,
00000000
00000000
00000001
00000000
,
00000000
00000000
00001000
00000000
,
00000000
00000000
00000100
00000000
,
00000000
00000000
00010000
00000000
,
00001000
00000000
01000000
00000000
,
00010000
10000000
01000000
00000000
,
00220000
00000000
00000000
00330000
,
00202000
00000000
00000000
00303000
,
00010000
00000000
00001000
00000000
,
01000000
00001000
00010000
00000000
,
00020020
00000000
00000000
00030030
,
00002020
00000000
00000000
00003030
,
00000100
00000000
00000001
00000000
,
00001000
00000100
00000010
00000000
,
00000022
00000000
00000000
00000033
,
00002200
00000000
00000000
00003300
,
00010000
00000000
00000100
00000000
,
00010000
00001000
01000000
00000000
,
02020000
00000000
00000000
03030000
,
00100000
10000000
01000000
00100000
,
00010000
00000000
00000000
00000000
,
10000000
00000000
00000000
00000000
,
00001000
00000000
00000000
00000000
,
00010000
00000000
00000000
00000000
,
00000001
00000000
00000000
00000000
,
00000100
00000000
00000000
00000000
,
00000010
00000000
00000000
00000000
,
00010000
00000000
00000000
00000000
,
01000000
00000000
00000000
00000000
,
10000000
00000000
00000000
00000000
,
00001000
00000000
00000000
00000000
,
00010000
00000000
00000000
00000000
,
00000010
00000000
00000000
00000000
,
00001000
00000000
00000000
00000000
,
00000001
00000000
00000000
00000000
,
00001000
00000100
00000010
00000001
,
00001000
00000000
00000010
00000000
,
00001000
00000100
00010000
00001000
,
01000000
00000000
00100000
00000000
,
10000000
01000000
00100000
00010000
,
10000000
00000000
00100000
00000000
,
01000000
00001000
00010000
00000010
,
00001000
00000000
00000001
00000000
,
00000010
00000100
00001000
00000001
,
00000100
00000000
00000010
00000000
,
00001000
00000100
00010000
00001000
,
01000000
00000000
00100000
00000000
,
10000000
00010000
10000000
01000000
,
00100000
00000000
00010000
00000000
,
01000000
00001000
00010000
00000100
,
00001000
00000000
00000010
00000000
,
00000100
00000001
00000100
00000010
,
00001000
00000100
00010000
00011000
;

//---------------dance-double - M.Emirzian----------------
#NOTES:
     dance-double:
     M.Emirzian:
     Medium:
     6:
     0.279,0.000,0.078,0.000,0.000,191.000,8.000,0.000,0.000,0.000,0.000:
00000000
00000000
00000000
00000000
,
00000000
00000000
00000000
00000000
,
00000000
00000000
00000000
00000000
,
00000000
00000000
00000000
00000000
,
00010000
01000000
00010000
10000000
,
01000000
00100000
00000000
00000000
00010000
00000000
01000000
00000000
,
00001000
00010000
00001000
00100000
,
00001000
00010000
00011000
00010100
,
00000100
00001000
00000100
00000000
,
00000010
00000100
00000010
00000000
00000100
00000000
00001000
00000000
,
00000001
00000000
00000100
00000000
,
00000010
00001000
00000010
00000000
00001000
00000000
00000100
00000000
,
00010000
00001000
00010000
00000000
,
00001000
01000000
00001000
00000000
01000000
00000000
00010000
00000000
,
00100000
00000000
00010000
00000000
,
01000000
00100000
01000000
00000000
00010000
00000000
10000000
00000000
,
01000000
00100000
00000000
00000000
00000000
00010000
00000000
00000000
,
00000000
01000000
00000000
00000000
00000000
00001000
00000000
00000000
,
00000000
00010000
00000000
00000000
00000000
00000100
00000000
00000000
,
00000000
00001000
00000000
00000000
00000000
00000010
00000000
00000000
,
00000000
00001000
00000000
00000000
00000000
00000100
00000000
00000000
,
00000000
00000010
00000000
00000000
00000000
00000001
00000000
00000000
,
00000000
00000100
00000000
00000000
00000000
00000010
00000000
00000000
,
00000000
00010000
00000000
00000000
00000000
00001000
00000000
00000000
,
01000000
00000000
00010000
00000000
,
00100000
00010000
00100000
00000000
,
01000000
10000000
10000000
00000000
,
00010000
01000000
01000000
00000000
,
00001000
00000000
00010000
00000000
,
00000100
00001000
00000100
00000000
,
00000010
00000001
00000001
00000000
,
00001000
00000100
00000100
00000000
,
00010000
00000000
00001000
00000000
,
01000000
00010000
00010000
00000000
,
00100000
00001000
00001000
00000000
,
01000000
00010000
00010000
00000000
,
10000000
00000000
01000000
00000000
,
00100000
00010000
00010000
00000000
,
01000000
00000000
00001000
00000000
,
00010000
00000100
00001100
00001001
,
00001000
00000000
00000000
00000000
,
00000010
00000000
00000000
00000000
,
00010000
00000000
00000000
00000000
,
00001000
00000000
00000000
00000000
,
01000000
00000000
00000000
00000000
,
00010000
00000000
00000000
00000000
,
10000000
00000000
00000000
00000000
,
01000000
00000000
00000000
00000000
,
00010000
00000000
00000000
00000000
,
00001000
00000000
00000000
00000000
,
00000100
00000000
00000000
00000000
,
00000001
00000000
00000000
00000000
,
00000010
00000000
00000000
00000000
,
00000100
00000000
00000000
00000000
,
00001000
00000000
00000001
00000000
,
00000100
00000010
00001010
00010010
,
00010000
00001000
00010000
00000000
,
00000100
00010000
00001000
00000000
01000000
00000000
00010000
00000000
,
10000000
00000000
01000000
00000000
,
00100000
00010000
00100000
00000000
00010000
00000000
01000000
00000000
,
00001000
00010000
00001000
00000000
,
00010000
00000100
00010000
00000000
00000100
00000000
00001000
00000000
,
00000001
00000000
00000010
00000000
,
00000100
00001000
00000100
00000000
00000010
00000000
00000001
00000000
,
00001000
00000010
00000100
00000000
,
00000001
00001000
00000001
00000000
00000100
00000000
00000010
00000000
,
00001000
00000000
00000100
00000000
,
00010000
00001000
00010000
00000000
00000100
00000000
00010000
00000000
,
00001000
01000000
00010000
00000000
,
10000000
01000000
10000000
00000000
00010000
00000000
01000000
00000000
,
00100000
00000000
10000000
00000000
,
01000000
00100000
01000000
00000000
00100000
00000000
00010000
00000000
,
01000000
00001000
00011000
00010100
;

//---------------dance-double - M.Emirzian----------------
#NOTES:
     dance-double:
     M.Emirzian:
     Hard:
     9:
     0.529,0.000,0.274,0.039,0.000,346.000,28.000,4.000,0.000,0.000,0.000:
00000000
00000000
00000000
00000000
,
00000000
00000000
00000000
00000000
,
00000000
00000000
00000000
00000000
,
00000000
00000000
00000000
00000000
,
00000200
00000302
00002003
00003200
,
00000310
00000001
00000000
00000100
00000010
00001000
00000100
00010000
,
00001000
00010000
00100000
01000000
,
10010000
01100000
11000000
00110000
,
01000000
00100000
10000000
00010000
,
00100000
01000000
00000000
10000000
00010000
01000000
00001000
00010000
,
00001000
00000100
00001000
00010000
,
00000100
00000010
00000000
00000100
00001000
00000001
00000100
00001000
,
00000100
00000001
00001000
00000100
,
00000010
00000100
00000000
00010000
00001000
01000000
00100000
01000000
,
00010000
00100000
01000000
10000000
,
00010000
00100000
00000000
00010000
01000000
00100000
10000000
01000000
,
00100000
00010000
00000000
01000000
00000000
00100000
00000000
10100000
,
00000000
01000000
00000000
00100000
00000000
00010000
00000000
01001000
,
00000000
00010000
00000000
00100000
00000000
00010000
00000000
00011000
,
00000000
00000010
00000000
00000100
00000000
00001000
00000000
00001001
,
00000000
00000010
00000000
00000100
00000000
00000001
00000000
00001010
,
00000000
00000100
00000000
00010000
00000000
00001000
00000000
01001000
,
00000000
00100000
00000000
00010000
00000000
00001000
00000000
01100000
,
00000000
00010000
00000000
01000000
00000000
10000000
00000000
01000000
,
00010000
00000000
10000000
01000000
00010000
00000000
01000000
10000000
,
00100000
10000000
01000000
00010000
00001000
00000000
01000000
00000000
,
00100000
00010000
00001000
00000000
00000010
00000000
00001000
00000000
,
00010000
00100000
00010000
00000000
00001000
00000010
00001000
00010000
,
00000100
00000000
00000010
00000100
00001000
00000000
00000001
00000100
,
00001000
00000100
00000001
00000010
00000001
00000000
00000100
00000000
,
00000010
00001000
00000100
00000000
00010000
00000000
00100000
00000000
,
00010000
00001000
00000100
00000000
00001000
00010000
01000000
00010000
,
00001000
00000000
01000000
00100000
00010000
00000000
00100000
10000000
,
00100000
00010000
01000000
00010000
00100000
00000000
10000000
00000000
,
01000000
00100000
00001000
00000000
00010000
00000000
01000000
00000000
,
00010000
00001000
00000010
00000000
00001000
00010000
00100000
00010000
,
00001000
00000000
00000010
00000100
00001000
00000000
00000010
00000100
,
00000001
00000010
00001000
00000010
00000001
00000000
00001000
00000000
,
00000010
00000100
00000001
00000100
00000010
00001000
00000100
00000000
,
00001010
00010100
00011000
01001000
,
00010000
01000000
00100000
10000000
,
01000000
00100000
00000000
00000000
10010000
00000000
00000000
00000000
,
00100000
01000000
00010000
00100000
,
00001000
00010000
00000000
00000000
00010100
00000000
00000000
00000000
,
00010000
00001000
00000010
00001000
,
00010000
00000100
00000000
00000000
00001100
00000000
00000000
00000000
,
00000001
00000100
00000010
00001000
,
00000100
00000010
00000000
00000000
00001100
00000000
00000000
00000000
,
00000010
00010000
00001000
01000000
,
00010000
00100000
00000000
00000000
11000000
00000000
00000000
00000000
,
00010000
01000000
00001000
00010000
,
00000100
00001000
00000000
00000000
00001010
00000000
00000000
00000000
,
00000001
00000010
00001000
00000000
00010000
00100000
10000000
00000000
,
01000000
00010000
00001000
00000000
00000100
00000001
00000010
00000000
,
00001000
00010000
00100000
00000000
00010000
00000000
00000010
00000000
,
00000110
00001001
00000010
00000101
,
00000010
00001000
00000100
00010000
,
00001000
01000000
00000000
00001000
00010000
00100000
00010000
00001000
,
01000000
00100000
10000000
01000000
,
00100000
00010000
00000000
00100000
10000000
00100000
00010000
01000000
,
00010000
00100000
00001000
00010000
,
00000100
00001000
00000000
00000010
00000001
00000010
00001000
00000100
,
00001000
00000001
00000010
00000100
,
00001000
00000001
00000000
00000100
00001000
00010000
00100000
10000000
,
01000000
00100000
01000000
10000000
,
00100000
00010000
00000000
00100000
10000000
01000000
00010000
00001000
,
00000100
00000001
00001000
00000100
,
00000010
00000100
00000000
00001000
00000001
00000010
00000001
00000100
,
00001000
00000100
00000001
00001000
,
00000100
00010000
00000000
00001000
00010000
01000000
00010000
00001000
,
01000000
00100000
01000000
00010000
,
10000000
01000000
00000000
00100000
00010000
01000000
00001000
00010000
,
00101000
00011000
00010100
00000110
;

//---------------dance-double - M.Emirzian----------------
#NOTES:
     dance-double:
     M.Emirzian:
     Challenge:
     10:
     0.708,0.000,0.784,0.000,0.171,426.000,80.000,0.000,0.000,0.000,0.000:
00000000
00000000
00000000
00000000
,
00000000
00000000
00000000
00000000
,
00000000
00000000
00000000
00000000
,
00000000
00000000
00000000
00000000
,
00000100
00001100
00010100
00011000
,
00010000
00000100
00000000
00010000
00001000
01000000
00100000
01000000
,
00010000
01010000
10100000
11000000
,
10010000
01001000
00011000
00010010
,
00001000
00001100
00000011
00001001
,
00000010
00001010
00000000
00000100
00010000
00001000
01000000
00001000
,
00010000
00011000
01000100
00011000
,
01000000
00110000
00000000
00010000
01000000
00100000
10000000
01000000
,
00100000
00110000
01001000
01000100
,
00001000
00011000
00000000
00000100
00010000
00001000
00000100
00000001
,
00001000
00001100
00000110
00000011
,
00000001
00001000
00000001
00001000
00000100
00001000
00000100
00010000
00001000
00010000
00001000
01000000
00010000
01000000
00010000
00000000
,
10000000
01000000
00000000
00100000
00000000
01010000
00000000
01001000
,
00000000
00100000
00000000
00010000
00000000
00100010
00000000
00011000
,
00000000
00000100
00000000
00010000
00000000
00010100
00000000
00010001
,
00000000
00000010
00000000
00000100
00000000
00001010
00000000
00100010
,
00000000
00000010
00000000
00010000
00000000
00011000
00000000
10001000
,
00000000
01000000
00000000
00100000
00000000
01010000
00000000
01000100
,
00000000
00010000
00000000
00001000
00000000
00010010
00000000
00100010
,
00000000
00010000
00000000
00001000
00000000
00010001
00000000
00011000
,
00010000
00000000
00000100
00001000
00000001
00000000
00000010
00001000
,
00000100
00000010
00000100
00001000
00000001
00000000
00000110
00000000
,
00001000
00000000
00000100
00010000
00001000
00000000
00000010
00000000
00001000
00000000
00010000
00000000
00000100
00000000
00010000
00000000
,
00001000
00000000
01000000
00001000
00010000
00000000
01000000
00000000
10000000
00000000
01000000
00000000
00100000
00000000
00010000
00000000
,
01000000
00000000
00100000
10000000
01000000
00000000
00100000
00001000
,
00010000
00100000
10000000
01000000
00100000
00000000
00110000
00000000
,
00010000
00000000
01000000
00100000
10000000
00000000
01000000
00000000
00010000
00000000
00001000
00000000
00000010
00000000
00000001
00000000
,
00001000
00000000
00000010
00000100
00000001
00000000
00001000
00000000
00000100
00000000
00000010
00000000
00000100
00000000
00001000
00000000
,
00000001
00000000
00000010
00001000
00000100
00000000
00010000
00001000
,
00000100
00000001
00001000
00000100
00010000
00000000
00011000
00000000
,
00000100
00000000
00010000
00001000
01000000
00000000
00100000
00000000
00010000
00000000
00001000
00000000
00000100
00000000
00001000
00000000
,
00010000
00000000
00100000
01000000
00010000
00000000
00100000
00000000
10000000
00000000
00100000
00000000
00010000
00000000
10000000
00000000
,
00100000
00000000
00100000
01000000
00010000
00000000
10000000
00100000
,
00010000
00001000
00000010
00000001
00001000
00000000
00000101
00000000
,
00000010
00000000
00001000
00000100
00000010
00000000
00000001
00000000
00000010
00000000
00000100
00000000
00001000
00000000
00000001
00000000
,
00000100
00000010
00001000
00000010
00001000
00000100
00010000
00001000
00010000
00001000
00100000
00010000
00100000
00010000
10000000
00000000
,
01000000
00100000
00010000
10000000
,
01000000
00010000
00000000
01000000
10000000
01000000
00100000
00010000
,
01000000
10000000
01000000
00010000
,
10000000
00100000
00000000
01000000
00010000
10000000
01000000
00010000
,
00001000
00000100
00000001
00000010
,
00000100
00001000
00000000
00000100
00000010
00000100
00001000
00000001
,
00000100
00000010
00010000
00001000
,
00000100
00001000
00000000
00010000
00100000
00010000
00001000
01000000
,
00010000
00100000
01000000
10000000
,
00010000
10000000
00000000
00100000
00010000
00001000
00000010
00000001
,
00000100
00000001
00001000
00000100
,
00000010
00000100
00000000
00001000
00000001
00000100
00001000
00010000
,
00100000
10000000
01000000
00010000
,
00000100
00010000
00000000
00001000
01000000
00010000
00100000
01000000
,
10000000
00010000
01000000
00100000
,
10000000
01000000
10000000
01000000
00100000
00010000
00100000
00001000
00010000
00001000
00010000
00000010
00001000
00000010
00001000
00000000
,
00000001
00001100
00001001
00000011
,
00001000
00001100
00000000
00000010
00010000
00001000
01000000
00010000
,
00100000
00101000
00100010
00011000
,
00100000
00110000
00000000
01000000
10000000
00010000
01000000
00100000
,
10000000
11000000
10010000
00110000
,
00010000
01001000
00000000
00001000
01000000
00001000
00010000
00000100
,
00010000
01000100
00011000
00010001
,
00001000
00001100
00000000
00000001
00000100
00000010
00001000
00000100
,
00010000
00001010
00011000
10001000
,
01000000
01010000
00000000
00100000
10000000
00100000
01000000
00010000
,
10000000
01001000
00011000
00010010
,
00001000
00011000
00000000
01000000
00001000
00010000
00000100
00001000
,
00000010
00010010
00100010
00011000
,
00000100
00011000
00000000
00000010
00001000
00000100
00000010
00000001
,
00001000
00001010
00001001
00000101
,
00001000
00000100
00001000
00000100
00010000
00001000
00010000
00001000
01000000
00010000
10000000
00100000
01000000
00010000
10000000
00000000
,
11000000
00110000
00100010
00011000
;

//---------------dance-single - ----------------
#NOTES:
     dance-single:
     :
     Easy:
     4:
     0.361,0.000,0.392,0.000,0.000,218.000,40.000,0.000,0.000,0.000,0.000:
0000
0000
0000
0000
,
0000
0000
0000
0000
,
0000
0000
0000
0000
,
0000
0000
0000
0000
,
0001
0000
0001
0000
,
1000
0000
1000
0000
,
0001
0010
0100
1000
,
0110
0110
1001
1001
,
0001
0010
0100
1000
,
1001
0000
0010
0100
,
0001
0100
0010
1000
,
0110
0000
0001
1000
,
0100
0010
0001
0100
,
1010
0000
0100
0010
,
0001
1000
0010
0100
,
0011
0000
0010
0010
,
0000
0010
0001
0010
,
0100
1000
0010
0100
,
0000
0001
1000
0100
,
0010
0001
0100
0010
,
0000
1000
0010
0100
,
0001
0010
0100
1000
,
0000
0001
0100
1000
,
0100
0010
1000
0100
,
1001
0000
0001
0100
,
0010
0000
1000
0010
,
1000
0100
0010
0001
,
0100
0000
1001
0000
,
1000
0100
0100
1000
,
0010
0100
0001
0010
,
0100
1000
0100
0010
,
0001
0100
0010
1000
,
0101
0000
0100
0010
,
1000
0000
0100
0001
,
0100
0010
0001
0100
,
0010
0000
1010
0000
,
1000
0001
0001
0010
,
0100
1000
0010
0100
,
0001
1000
0100
0010
,
0011
0011
1100
1100
,
1000
0000
0101
0000
,
0001
0000
1010
0000
,
0100
0010
0000
0001
,
0100
0000
0010
0000
,
1000
0000
0011
0000
,
0001
0000
1100
0000
,
1000
0001
0000
0100
,
0010
0000
1000
0000
,
0001
0000
1010
0000
,
1000
0000
0101
0000
,
0010
0100
0000
1000
,
0010
0000
0100
0000
,
0001
0010
0010
0100
,
1000
1000
0001
0100
,
0010
0010
1000
0001
,
0110
1001
0110
1001
,
1001
0000
0001
0010
,
0100
0000
1100
0000
,
0001
0100
0000
0010
,
1000
0010
0001
0010
,
0110
0000
0100
0010
,
0100
0000
0101
0000
,
0001
0010
0000
1000
,
0010
0001
0000
0100
,
1000
0001
0010
0000
,
1100
0001
1010
0000
,
0100
0001
0010
0100
,
1000
0000
1010
0000
,
0100
0001
0100
0000
,
1100
1000
0101
0000
,
0001
1000
0100
0010
,
0001
0000
0101
0000
,
0101
1010
1100
0011
;

//---------------dance-single - ----------------
#NOTES:
     dance-single:
     :
     Medium:
     7:
     0.486,0.000,0.509,0.000,0.000,295.000,52.000,0.000,0.000,0.000,0.000:
0000
0000
0000
0000
,
0000
0000
0000
0000
,
0000
0000
0000
0000
,
0000
0000
0000
0000
,
1000
0100
0010
0001
,
1000
0100
0010
0001
,
1000
0001
0100
0010
,
1010
1100
1010
1100
,
1000
0101
0010
0011
,
1000
0010
0000
0100
0001
0000
0001
0000
,
1000
1100
0100
0101
,
0001
1000
0000
0010
0100
0000
0100
0000
,
0001
1010
0100
1100
,
1000
0100
0000
0010
0001
0000
0001
0000
,
0100
1010
0100
0011
,
0001
0100
0000
0010
1000
0000
1000
0001
,
0000
1000
0000
0100
0000
0010
0000
0001
,
0000
1000
0000
0001
0000
0100
0000
0010
,
0000
1000
0000
0100
0000
1000
0000
0001
,
0000
0100
0000
0001
0000
1000
0000
0100
,
0000
0001
0000
0010
0000
1000
0000
0001
,
0000
0100
0000
1000
0000
0010
0000
0001
,
0000
1000
0000
0001
0000
0010
0000
0100
,
0000
1000
0000
0010
0000
0100
0001
0000
,
1001
0000
1000
0100
1000
0000
0010
0000
,
0100
0000
0001
0010
0001
0000
1001
0000
,
1000
0010
0100
0000
0001
0000
0001
0000
,
1000
0100
0010
0000
0001
0000
0001
0000
,
1010
0000
1000
1000
1000
0000
0001
0000
,
0010
0000
0100
0100
0100
0000
1001
0000
,
1000
0001
0100
0000
0010
0000
1000
0000
,
1001
0110
1001
0110
,
0110
0000
1000
0001
0010
0000
0100
0000
,
1000
0000
0001
0100
0001
0000
1001
0000
,
1000
0100
1000
0000
0001
0000
0001
0000
,
1000
0010
1000
0000
0001
0000
0001
0000
,
0011
0000
0100
1000
0100
0000
0010
0000
,
0001
0000
0100
0010
0100
0000
1001
0000
,
1000
0001
0100
0000
0010
0000
0010
0000
,
0011
0101
0011
0101
,
1000
0100
0001
0010
,
1000
0000
0001
0000
,
1000
0010
0001
0100
,
1000
0000
0001
0000
,
1000
0001
1000
0001
,
0100
0000
0010
0000
,
1000
0100
0010
0001
,
1010
0101
1010
0101
,
0001
0010
1000
0100
,
0001
0000
1000
0000
,
0001
0100
1000
0010
,
0001
0000
1000
0000
,
0001
1000
0001
1000
,
0010
0000
0100
0000
,
0001
0010
0100
1000
,
0011
1100
0011
1100
,
1000
0001
0100
0010
,
1000
0001
0000
0010
0100
0010
0000
0100
,
1000
0001
0100
0010
,
1000
0100
0000
0010
0001
0100
0000
0010
,
1000
0001
0010
0100
,
1000
0010
0000
0100
0001
0100
0000
1000
,
0100
0010
0100
0010
,
0001
0100
0000
0010
0010
0010
0000
1000
,
0001
1000
0001
0000
0010
0000
0110
0000
,
0100
1100
0001
0101
,
1000
0010
1000
0000
0001
0000
0011
0000
,
0100
1100
0010
0110
,
0100
0001
0100
0000
0010
0000
1010
0000
,
0001
1100
0010
0011
,
1000
0001
0100
0000
0010
0000
1010
0000
,
0100
1010
0001
0101
,
1001
0110
1001
0110
;

//---------------dance-single - ----------------
#NOTES:
     dance-single:
     :
     Hard:
     9:
     0.669,0.000,0.823,0.000,0.029,394.000,84.000,0.000,0.000,0.000,0.000:
0000
0000
0000
0000
,
0000
0000
0000
0000
,
0000
0000
0000
0000
,
0000
0000
0000
0000
,
1000
0100
0001
0010
,
1000
0000
0001
0000
0010
0100
0010
0000
,
0001
0001
0001
0000
1000
1000
1000
0000
,
1010
0101
0011
1100
,
1001
1010
1100
0011
,
0001
0100
0000
1000
0100
0001
1000
0100
,
0011
0101
1010
1100
,
1000
0100
0000
0001
0100
1000
0010
0100
,
1001
0110
1010
0101
,
0001
0010
0000
0100
0001
0100
1000
0010
,
0101
0011
1010
1100
,
1000
0010
0000
0100
1000
0100
0001
0010
,
0000
0100
1000
0100
0010
0001
0100
0010
,
0000
1000
0001
0010
0100
1000
0010
0100
,
0000
0001
0100
0010
1000
0100
0010
0001
,
0000
1000
0010
0001
0010
0100
0001
0010
,
0000
0100
1000
0001
0100
1000
0100
0001
,
0000
1000
0001
0010
0100
1000
0001
0010
,
0000
0100
1000
0010
1000
0001
0010
0001
,
0000
0100
0010
1000
0100
0010
0100
0010
,
1001
0000
1000
0010
0100
0000
1000
0100
,
0001
0010
0100
1000
0010
0000
1001
0000
,
0001
0000
0010
0100
0010
0000
0001
0000
0100
0000
0010
0000
1000
0000
0100
0000
,
0010
0000
0001
0100
0001
0000
0010
0000
0100
0000
1000
0000
0001
0000
0010
0000
,
0101
0000
0100
0010
1000
0000
0100
0001
,
0100
0010
0001
0100
0010
0000
1010
0000
,
1000
0000
0001
0010
0001
0000
0010
0000
0100
0000
1000
0000
0010
0000
0100
0000
,
1001
0110
0011
1100
,
1001
0000
0001
0100
0010
0000
0001
0010
,
1000
0100
0010
0001
0100
0000
1001
0000
,
1000
0000
0100
0010
0100
0000
1000
0000
0010
0000
0100
0000
0001
0000
0010
0000
,
0100
0000
1000
0010
1000
0000
0100
0000
0010
0000
0001
0000
1000
0000
0100
0000
,
1010
0000
0010
0100
0001
0000
0010
1000
,
0010
0100
1000
0010
0100
0000
0101
0000
,
0001
0000
1000
0100
1000
0000
0100
0000
0010
0000
0001
0000
0100
0000
0010
0000
,
1001
0110
1100
0011
,
0001
1010
1000
0101
,
0010
0100
0000
1000
0010
0000
0100
0000
,
0001
1100
1000
0011
,
0001
1000
0000
0010
0100
0000
0001
0000
,
0010
1100
0010
1100
,
1000
0001
0000
0100
0010
0000
1000
0000
,
0001
0011
0100
1001
,
0101
1010
1100
0011
,
1000
0101
0001
1010
,
0100
0010
0000
0001
0100
0000
0010
0000
,
1000
0011
0001
1100
,
1000
0001
0000
0100
0010
0000
1000
0000
,
0100
0011
0100
0011
,
0001
1000
0000
0010
0100
0000
0001
0000
,
1000
1100
0010
1001
,
1010
0101
0011
1100
,
1001
0000
1000
0100
0010
0000
0011
0000
,
1000
0010
0000
0100
0001
0100
1000
0100
,
0110
0000
0010
0010
0010
0000
1010
0000
,
1000
0100
0000
0001
0100
1000
0010
1000
,
1001
0000
0001
0010
0100
0000
1100
0000
,
0001
0100
0000
0010
1000
0010
0001
0010
,
0110
0000
0100
0100
0100
0000
0101
0000
,
0001
0010
0000
1000
0010
0001
0100
0001
,
1000
0010
0011
0101
,
0010
1000
0100
0010
0001
0000
0101
0000
,
0010
1000
0010
0000
0011
0000
1010
0000
,
1000
0001
0010
0100
1000
0000
1010
0000
,
1000
0001
0010
0000
1100
0000
0101
0000
,
0010
1000
0100
0010
0001
0000
1001
0000
,
0010
0100
0010
0000
1010
0000
0011
0000
,
1000
0100
0001
0100
1000
0000
1001
0000
,
1010
0101
0011
1100
;

//---------------dance-single - C. Foy----------------
#NOTES:
     dance-single:
     C. Foy:
     Challenge:
     11:
     1.000,0.000,0.676,0.480,0.676,632.000,69.000,49.000,64.000,0.000,0.000:
0000
0000
0000
0000
,
0000
0000
0000
0000
,
0000
0000
0000
0000
,
0000
0000
0000
0000
,
1000
0100
1000
0001
1000
0100
1000
0001
1000
0010
1000
0001
1000
0100
0010
0100
,
1000
0100
0010
0001
0010
0100
0010
0001
0010
0100
1000
0100
0010
0100
1000
0001
,
1000
0100
1000
0001
1000
0010
1000
0001
1000
0100
1000
0001
1000
0100
1000
0000
,
1M1M
M1M1
M11M
1MM1
,
1000
0000
0010
0000
1000
0000
0100
0010
0100
0000
0100
0000
0001
0000
0100
0000
,
0010
0000
0001
0000
0100
0000
0100
0001
0010
0000
0100
0000
0100
0000
0010
0000
,
0001
0000
0100
0000
0100
0000
0100
0010
1000
0000
1000
0000
0100
0000
0001
0000
,
0100
0000
0010
0000
0001
0000
0001
0100
0010
0000
0010
0000
1000
0000
0100
0000
,
0001
0000
0100
0000
0100
0000
0100
1000
0010
0000
0010
0000
0100
0000
0001
0000
,
0001
0010
0001
1000
0001
0010
0001
1000
0001
0100
0001
1000
0001
0010
0100
0010
,
0001
0010
0100
1000
0100
0010
0100
1000
0100
0010
0001
0010
0100
0010
0001
1000
,
0001
0010
0001
1000
0001
0100
0001
1000
0001
0010
0001
1000
0001
0010
0001
0000
,
MMMM
0000
1001
0000
1001
0000
1000
0001
1000
0000
1000
0000
0001
0000
1000
0000
,
MMMM
0000
0101
0000
1100
0000
1000
0100
0010
0000
0001
0000
0100
0000
0100
0000
,
MMMM
0000
1010
0000
1100
0000
1000
0100
0010
0000
0001
0000
0100
0000
0010
0000
,
MMMM
0000
1100
0000
0101
0000
0100
0001
0010
0000
0010
0000
0100
0000
0100
0000
,
MMMM
0000
0011
0000
1100
0000
0100
1000
0010
0000
0010
0000
0100
0000
0100
0000
,
MMMM
0000
0011
0000
1100
0000
1000
0001
0100
0000
0010
0000
0001
0000
0010
0000
,
MMMM
0000
1010
0000
1100
0000
1000
0100
0010
0000
1000
0000
0010
0000
0001
0000
,
MMMM
0000
0011
0000
1100
0000
1000
0010
0100
0000
1000
0000
0100
0000
0001
0000
,
0200
0000
0010
1000
0010
0300
0020
0001
,
0100
0000
1000
0000
0130
0000
0200
0000
2000
0000
0000
3300
1100
0000
0000
0000
,
0010
0000
0010
1000
0100
0000
0001
0000
0100
0000
0010
0000
1000
0000
0010
0000
,
0001
0000
0100
0001
0010
0000
0010
0000
0100
0000
0010
0000
0001
0000
0100
0000
,
0002
0000
0000
0000
0200
0003
0020
0300
0002
0000
0000
0030
2000
0003
0002
3000
,
0020
0003
2000
0030
0002
3000
2000
0003
0200
0000
0000
3300
1100
0000
0000
0000
,
1000
0000
0010
1000
0100
0000
0100
0000
0001
0000
0100
0000
0010
0000
0001
0000
,
0100
0000
0100
0010
0100
0000
0100
0000
1000
0000
0100
0000
0001
0000
0100
0000
,
0020
0000
0001
0100
1000
0030
0200
0001
,
0010
1000
0310
0002
2000
3003
1001
0000
,
0010
0000
0010
1000
0100
0000
0100
0000
0010
0000
0001
0000
0100
0000
1000
0000
,
0100
0000
0100
0001
0010
0000
0010
0000
1000
0000
0010
0000
0010
0000
0001
0000
,
2000
0000
0000
0000
0002
3000
0020
0003
0200
0000
0000
0030
0002
0300
0200
0003
,
0002
0300
2000
0003
0002
3000
0200
0003
0020
0000
0300
0000
0002
0000
0000
0033
,
0001
0010
0001
1000
0001
1000
0100
1000
0001
1000
0100
0010
0001
1000
0001
0000
,
1MM1
11MM
MM11
1M1M
,
0101
0110
1001
0101
,
0001
0000
2020
0000
0000
3030
0001
0000
0100
0000
1000
0000
0100
0000
0001
0000
,
0202
0000
0000
0303
0101
0000
0010
0000
1001
0000
0100
0000
0011
0000
0100
0000
,
1100
0000
2002
0000
0000
3003
0101
0000
0010
0000
0001
0000
0010
0000
1000
0000
,
0220
0000
0000
0330
1100
0000
1000
0000
1010
0000
1000
0000
1001
0000
0001
0000
,
0010
0100
0000
0001
0100
1000
1000
0010
,
0202
0000
0000
0303
0101
0000
0010
0000
1100
0000
0010
0000
0011
0000
0010
0000
,
0101
0000
2002
0000
0000
3003
0101
0000
0100
0000
1000
0000
0100
0000
0001
0000
,
0220
0000
0000
0330
1100
0000
0000
0000
1010
0000
0000
0000
0101
0000
0000
0000
,
0100
0001
0000
0010
1000
0010
0001
0100
,
2002
0000
0000
3003
1100
0000
0010
0000
0101
0000
0010
0000
1010
0000
0100
0000
,
0110
0000
2002
0000
0000
3003
0101
0000
0100
0000
0001
0000
1000
0000
0100
0000
,
1000
0100
1000
0001
1000
0100
1000
0001
1000
0001
0100
0001
0100
0010
0100
0001
,
1000
0100
0010
0100
1000
0100
0010
0001
0010
0100
0010
0001
0010
0100
1000
0100
,
0010
0100
1000
0100
0010
0001
0010
0100
1000
0100
0010
0001
1000
0001
1000
0000
,
1MM1
M1M1
MM11
11MM
,
0001
0000
0100
0000
0001
0000
0010
0100
0010
0000
0010
0000
1000
0000
0010
0000
,
0100
0000
1000
0000
0010
0000
0010
1000
0100
0000
0010
0000
0010
0000
0100
0000
,
1000
0000
0010
0000
0010
0000
0010
0100
0001
0000
0001
0000
0010
0000
1000
0000
,
0010
0000
0100
0000
1000
0000
1000
0010
0100
0000
0100
0000
0001
0000
0010
0000
,
1000
0000
0010
0000
0010
0000
0010
0001
0100
0000
0100
0000
0010
0000
1000
0000
,
1000
0000
0010
0000
0001
0000
0010
0100
0010
0000
1000
0000
0100
0000
0001
0000
,
0100
0000
0010
0000
0100
0000
0100
1000
0010
0000
0100
0000
0100
0000
1000
0000
,
0100
0000
0010
0000
0100
0000
0100
0001
0010
0000
0010
0000
1000
0000
0010
0000
,
0001
0000
0100
0000
0010
0000
0010
1000
0100
0000
0010
0000
0001
0000
1000
0000
,
0100
0000
1000
0000
0010
0000
0010
1000
0100
0000
0100
0000
0010
0000
0001
0000
,
0100
0000
0010
0000
0100
0000
0100
0001
0010
0000
0010
0000
0001
0000
0100
0000
,
1000
0000
0100
0000
0010
0000
0010
1000
0100
0000
1000
0000
0001
0000
0100
0000
,
0010
0100
0001
0100
0010
0100
0001
1000
0010
0100
0001
0100
0010
1000
0001
0100
,
0010
1000
0010
0100
0010
1000
0001
1000
0010
1000
0001
0100
0010
0100
0001
0100
,
0010
0100
0001
1000
0010
1000
0001
1000
0100
1000
0001
1000
0100
1000
0001
0100
,
0001
1000
0001
0010
0001
1000
0001
0100
0001
1000
0010
1000
0001
0100
0001
0000
,
M1M1
1M1M
11MM
MM11
;

//---------------dance-single - K. Ward----------------
#NOTES:
     dance-single:
     K. Ward:
     Beginner:
     1:
     0.106,0.000,0.020,0.000,0.000,74.000,2.000,0.000,0.000,0.000,0.000:

0000
0000
0000
0000
,
0000
0000
0000
0000
,
0000
0000
0000
0000
,
0000
0000
0000
0000
,
0001
0000
0000
0000
,
0000
0000
0000
0000
,
1000
0000
0000
0000
,
0000
0000
0000
0000
,
0010
0000
0000
0000
,
0010
0000
0000
0000
,
0100
0000
0000
0000
,
0100
0000
0000
0000
,
0001
0000
0000
0000
,
0001
0000
0000
0000
,
1000
0000
0000
0000
,
1000
0000
0000
0000
,
1001
0000
0000
0000
,
0000
0000
0000
0000
,
0001
0000
0000
0000
,
1000
0000
0000
0000
,
0100
0000
0000
0000
,
0100
0000
0000
0000
,
0010
0000
0000
0000
,
0001
0000
1000
0000
,
0001
0000
0001
0000
,
0001
0000
0000
0000
,
1000
0000
0000
0000
,
0100
0000
0000
0000
,
1000
0000
1000
0000
,
1000
0000
0000
0000
,
0010
0000
0000
0000
,
0100
0000
0000
0000
,
0001
0000
0001
0000
,
0001
0000
0000
0000
,
0010
0000
0000
0000
,
0100
0000
0000
0000
,
0010
0000
0010
0000
,
0010
0000
0000
0000
,
0001
0000
0000
0000
,
1000
0000
0000
0000
,
1001
0000
0000
0000
,
0000
0000
0000
0000
,
0001
0000
0000
0000
,
1000
0000
1000
0000
,
0001
0000
0000
0000
,
0001
0000
0000
0000
,
0010
0000
0000
0000
,
0001
0000
0000
0000
,
1000
0000
0000
0000
,
1000
0000
0000
0000
,
0001
0000
0000
0000
,
0001
0000
0001
0000
,
1000
0000
0000
0000
,
1000
0000
0000
0000
,
0100
0000
0000
0000
,
1000
0000
0000
0000
,
0001
0000
0000
0000
,
0010
0000
0000
0000
,
0001
0000
0000
0000
,
1000
0000
0000
0000
,
0010
0000
0000
0000
,
0010
0000
0000
0000
,
0100
0000
0000
0000
,
0100
0000
0000
0000
,
0001
0000
0000
0000
,
0001
0000
0000
0000
,
1000
0000
0000
0000
,
1000
0000
0001
0000
,
1000
0000
0000
0000
,
1000
0000
0000
0000
,
0010
0000
0000
0000
,
0100
0000
0000
0000
,
0001
0000
0001
0000
;
