#TITLE:Spin Chicken;
#SUBTITLE:;
#ARTIST:Freebie & The Bean;
#TITLETRANSLIT:;
#SUBTITLETRANSLIT:;
#ARTISTTRANSLIT:;
#GENRE:Disco;
#CREDIT:;
#BANNER:Spin Chicken-banner.png;
#BACKGROUND:Spin Chicken-bg.png;
#LYRICSPATH:;
#CDTITLE:;
#MUSIC:Spin Chicken.ogg;
#OFFSET:-1.804;
#SAMPLESTART:16.340;
#SAMPLELENGTH:11.960;
#SELECTABLE:YES;
#BPMS:0.000=132.000;
#STOPS:;
#BGCHANGES:0.000=Spin Chicken-bg.png=1.000=0=0=1=====,
16.000=In The Groove 2/776_JumpBack.mpg=1.000=0=0=1=====,
32.000=In The Groove 2/945_JumpBack.mpg=1.000=0=0=1=====,
48.000=In The Groove 2/457_JumpBack.mpg=1.000=0=0=1===FadeLeft==,
64.000=In The Groove 2/930_JumpBack.mpg=1.000=0=0=1=====,
80.000=In The Groove 2/911_JumpBack.mpg=1.000=0=0=1===FadeRight==,
88.000=In The Groove 2/957_JumpBack.mpg=1.000=0=0=1=====,
104.000=-random-=1.000=0=0=1=====,
120.000=-random-=1.000=0=0=1===FadeUp==,
132.000=In The Groove 2/759_JumpBack.mpg=1.000=0=0=1=SongBgWithMovieViz====0^1^1^1,
132.500=In The Groove 2/759_JumpBack.mpg=1.000=0=0=1=====,
133.000=In The Groove 2/759_JumpBack.mpg=1.000=0=0=1=SongBgWithMovieViz====1^1^0^1,
133.500=In The Groove 2/759_JumpBack.mpg=1.000=0=0=1=====,
134.000=In The Groove 2/759_JumpBack.mpg=1.000=0=0=1=SongBgWithMovieViz====1^0^1^1,
134.500=In The Groove 2/759_JumpBack.mpg=1.000=0=0=1=====,
135.000=In The Groove 2/759_JumpBack.mpg=1.000=0=0=1=SongBgWithMovieViz====1^0^0^1,
135.500=In The Groove 2/759_JumpBack.mpg=1.000=0=0=1=====,
136.000=-random-=1.000=0=0=1=====,
152.000=-random-=1.000=0=0=1===FadeDown==,
168.000=-random-=1.000=0=0=1=====,
184.000=-random-=1.000=0=0=1===FadeLeft==,
200.000=-random-=1.000=0=0=1=====,
216.000=-random-=1.000=0=0=1===FadeRight==,
228.000=In The Groove 2/776_JumpBack.mpg=1.000=0=0=1=SongBgWithMovieViz===0.5^0.5^0.5^1=1^1^0^1,
228.500=In The Groove 2/776_JumpBack.mpg=1.000=0=0=1====0.5^0.5^0.5^1=,
229.000=In The Groove 2/776_JumpBack.mpg=1.000=0=0=1=SongBgWithMovieViz===0^1^1^1=,
229.500=In The Groove 2/776_JumpBack.mpg=1.000=0=0=1====0.5^0.5^0.5^1=,
230.000=In The Groove 2/776_JumpBack.mpg=1.000=0=0=1=SongBgWithMovieViz===1^0^1^1=,
230.500=In The Groove 2/776_JumpBack.mpg=1.000=0=0=1====0.5^0.5^0.5^1=,
231.000=In The Groove 2/776_JumpBack.mpg=1.000=0=0=1=SongBgWithMovieViz===1^0^0^1=1^0^0^1,
231.500=In The Groove 2/776_JumpBack.mpg=1.000=0=0=1====0.5^0.5^0.5^1=,
232.000=Spin Chicken-bg.png=1.000=0=0=1=====,
99999=-nosongbg-=1.000=0=0=0 // don't automatically add -songbackground-
;
#BGCHANGES2:16.000=flash=1.000=0=0=1====1^1^0^1=,
32.000=flash=1.000=0=0=1=====,
64.000=flash=1.000=0=0=1=====,
84.000=flash=1.000=0=0=1====1^1^0^1=,
88.000=flash=1.000=0=0=1=====,
104.000=flash=1.000=0=0=1=====,
136.000=flash=1.000=0=0=1=====,
168.000=flash=1.000=0=0=1====1^1^0^1=,
196.000=flash=1.000=0=0=1====1^1^0^1=,
200.000=flash=1.000=0=0=1=====,
232.000=flash=1.000=0=0=1=====,
;
#KEYSOUNDS:;
// cache tags:
#FIRSTBEAT:11.500;
#LASTBEAT:232.000;
#SONGFILENAME:/Songs/In The Groove 2/Spin Chicken/Spin Chicken.sm;
#HASMUSIC:1;
#HASBANNER:1;
#MUSICLENGTH:109.090;
// end cache tags

//---------------dance-double - M.Emirzian----------------
#NOTES:
     dance-double:
     M.Emirzian:
     Easy:
     3:
     0.170,0.000,0.037,0.018,0.000,124.000,4.000,2.000,0.000,0.000,0.000:
00000000
00000000
00000000
00000000
,
00000000
00000000
00000000
00000000
,
00000000
00000000
00000000
00000000
,
00000000
00000000
00000000
00000000
,
00010000
00000000
00010000
00000000
,
00010000
00000000
00010000
00000000
,
00010000
00000000
00010000
00000000
,
00010000
00001000
00000100
00000001
,
00000010
00000000
00000010
00000000
,
00000010
00000000
00000010
00000000
,
00000010
00000000
00000010
00000000
,
00000010
00001000
00010000
00100000
,
10000000
00000000
10000000
00000000
,
10000000
00000000
10000000
00000000
,
10000000
00000000
10000000
00000000
,
10000000
01000000
00010000
00001000
,
00011000
00000000
00000000
00000000
,
00000000
00000000
00000000
00000000
,
00010000
00000000
00000000
00000000
,
00000000
00000000
00000000
00000000
,
00000000
00000000
00000000
00000000
,
00002002
00000000
00000000
00003003
,
00001000
00000000
00001000
00000000
,
00001000
00000000
00001000
00000000
,
00001000
00000000
00001000
00000000
,
00010000
00001000
00010000
00001000
,
00000100
00000001
00000010
00001000
,
00000100
00000001
00000010
00001000
,
00010000
00100000
10000000
01000000
,
00010000
00100000
10000000
01000000
,
00010000
00100000
01000000
10000000
,
00010000
00010000
00001000
00001000
,
00000100
00000001
00000010
00001000
,
00000100
00000001
00000010
00000100
,
00001001
00000000
00000000
00000000
,
00000000
00000000
00000000
00000000
,
00000000
00000000
00000000
00000000
,
00010000
00000000
00000000
00000000
,
01000000
00000000
00000000
00000000
,
00001000
00000000
00000000
00000000
,
00000100
00000000
00000000
00000000
,
00010000
00000000
00000000
00000000
,
00100000
00000000
00100000
00000000
,
00100000
00000000
00100000
00000000
,
00100000
00000000
00100000
00000000
,
00100000
01000000
00010000
00001000
,
00000100
00000000
00000100
00000000
,
00000100
00000000
00000100
00000000
,
00000100
00000000
00000100
00000000
,
00000100
00000001
00000010
00001000
,
00010000
00000000
00010000
00000000
,
00010000
00000000
00010000
00000000
,
00010000
00000000
00010000
00000000
,
00010000
00100000
10000000
01000000
,
00010000
00000000
00010000
00000000
,
00010000
00000000
00010000
00000000
,
00010000
00001000
00000001
00000010
,
00001000
00000100
00000001
00000010
,
00001001
00000000
00000000
00000000
;

//---------------dance-double - M.Emirzian----------------
#NOTES:
     dance-double:
     M.Emirzian:
     Medium:
     5:
     0.327,0.000,0.202,0.183,0.000,208.000,22.000,20.000,0.000,0.000,0.000:
00000000
00000000
00000000
00000000
,
00000000
00000000
00000000
00000000
,
00000000
00000000
00000000
00000000
,
00000000
00000000
00000000
00000000
,
00010000
00000000
10000000
02000000
00000000
00000000
03010000
00000000
,
00001000
00000000
00010000
00000200
00000000
00000000
00001300
00000000
,
00000010
00000000
00000100
00000002
00000000
00000000
00001003
00000000
,
00001100
00000011
00001001
00000110
,
00000100
00000000
00001000
00000100
00001000
00000000
00000010
00000000
,
00010000
00000000
00001000
00010000
00001000
00000000
01000000
00000000
,
00010000
00000000
10000000
01000000
10000000
00000000
00000000
00110000
,
00110000
00000000
00000000
10010000
10010000
00000000
00100000
00000000
,
10000000
00000000
01000000
00100000
01000000
00000000
00100000
00000000
,
00010000
00000000
01000000
00001000
01000000
00000000
00010000
00000000
,
00100000
00000000
00001000
00010000
00001000
00000000
00000000
00000000
,
01001000
00000000
00011000
00000000
00010010
00000000
00001000
00000010
,
00002020
00000000
00000000
00000000
,
00000000
00000000
00000000
00000000
,
00000000
00000000
00000000
00000000
,
00000000
00000000
00000000
00000000
,
00003030
00000000
00000000
00000000
,
20020000
00000000
00000000
30030000
,
00100000
01000000
00000000
00000000
10000000
00010000
00000000
00000000
,
01000000
00001000
00000000
00000000
00010000
00000010
00000000
00000000
,
00001000
00000100
00000000
00000000
00001000
00000001
00000000
00000000
,
00000110
00001100
00000011
00001100
,
00000100
00001000
00000100
00000000
00010000
00001000
00000000
00000000
,
00010000
00001000
01000000
00000000
00010000
01000000
00000000
00000000
,
00100000
10000000
00100000
00000000
01000000
00010000
00000000
00000000
,
10000000
01000000
10000000
01000000
10000000
00010000
01000000
00010000
,
01000000
00010000
10000000
00000000
01000000
00100000
00000000
00000000
,
00010000
01000000
00010000
00000000
00100000
00001000
00000000
00000000
,
00010000
00001000
00010000
00001000
00010000
00000010
00001000
00000010
,
00001000
00000010
00000100
00000001
00000100
00000001
00000100
00000001
,
00000100
00000000
00000100
00000000
,
00000100
00000000
00001000
00000000
,
00001000
00000000
00001000
00000000
,
00010000
00000000
00001000
00001000
,
00001000
00000000
01000000
01000000
,
01000000
00000000
00100000
00100000
,
00100000
00000000
10000000
00010000
,
02200000
00000000
00000000
03300000
,
20000000
01000000
31000000
00000000
,
00020000
01000000
01030000
00000000
,
00002000
00010000
00013000
00000000
,
00000020
00000001
00000031
00000000
,
00020000
00001000
00031000
00000000
,
00000200
00001000
00001300
00000000
,
00002000
00010000
00013000
00000000
,
00200000
01000000
01300000
00000000
,
00010000
00000000
10000000
02000000
00000000
00000000
13000000
00000000
,
00010000
00000000
01000000
00002000
00000000
00000000
00013000
00000000
,
00000100
00000000
00001000
00000020
00000000
00000000
00000130
00000001
,
00000100
00000000
00000000
00000110
00000110
00000000
00001001
00000000
,
00000010
00000000
00001000
00000100
00001000
00000000
00010000
00000000
,
00001000
00000000
01000000
00010000
01000000
00000000
00100000
00000000
,
10000000
00010000
10000000
00010000
10000000
01000000
00100000
00010000
,
00100000
00010000
00100000
00001000
00010000
00001000
00010000
00001000
,
00011000
00000000
00000000
00000000
;

//---------------dance-double - M.Emirzian----------------
#NOTES:
     dance-double:
     M.Emirzian:
     Hard:
     7:
     0.402,0.000,0.174,0.037,0.083,284.000,19.000,4.000,2.000,0.000,0.000:
00000000
00000000
00000000
00000000
,
00000000
00000000
00000000
00000000
,
00000000
00000000
00000000
00000000
,
00000000
00000000
00000000
00000000
,
01000000
00000000
00100000
00001000
00010000
00000000
00000100
00001000
,
00000010
00000000
00010000
00001000
00100000
00000000
00010000
01000000
,
00001000
00000000
00010000
00000010
00001000
00000000
00000100
00000010
,
00001001
00000110
00011000
00001001
,
00000010
00000000
00000100
00001000
00000001
00000000
00000100
00000010
,
00010000
00000000
00001000
01000000
00010000
00000000
00100000
00001000
,
00010000
00000000
00000010
00001000
00000100
00000000
00010000
00001000
,
01001000
00000000
00000000
00000000
00000000
00000000
00010000
01000000
00100000
00000000
M00M0000
00000000
10010000
00000000
00000000
00000000
,
00100000
00000000
01000000
10000000
00010000
00000000
00100000
00001000
,
00010000
00000000
00000100
00001000
00000010
00000000
00010000
00001000
,
00100000
00000000
01000000
00010000
00100000
00000000
10000000
01000000
,
10010000
00000000
01100000
00000000
00011000
00000000
10010000
01000000
,
00100000
00000000
00010000
00000000
,
10000000
00000000
00100000
00000000
,
00010000
00000000
01000000
00000000
,
00100000
00000000
00001000
00000000
,
00000100
00000000
00000001
00000000
,
00002020
00000000
00000000
00003030
,
00000001
00000000
00000100
00000000
00000000
00000000
00000000
00000000
00010000
00001000
00100000
00000000
00000000
00000000
00000000
00000000
,
00010000
01000000
10000000
00100000
,
00010000
00000000
10000000
00000000
00000000
00000000
00000000
00000000
01000000
00100000
00010000
00000000
00000000
00000000
00000000
00000000
,
01100000
00000000
00000000
00000000
00011000
00000000
00000000
00000000
10010000
00000000
00000000
01000000
00100000
00000000
00010000
00000000
,
01000000
00000000
00100000
00000000
00000000
00000000
00000000
00000000
10000000
00010000
10000000
00000000
00000000
00000000
00000000
00000000
,
01000000
00000000
00010000
00000000
00000000
00000000
00000000
00000000
00001000
00010000
00001000
00000000
00000000
00000000
00000000
00000000
,
00000010
00000000
00000001
00000000
00000000
00000000
00000000
00000000
00001000
00000100
00001000
00000000
00000000
00000000
00000000
00000000
,
00000001
00001000
00000100
00000010
00000001
00000100
00001000
00000010
,
00000001
00000000
00001000
00000000
00000000
00000000
00000000
00000000
00010000
00001000
00010000
00000000
00000000
00000000
00000000
00000000
,
00100000
00000000
10000000
00000000
00000000
00000000
00000000
00000000
01000000
00010000
01000000
00000000
00000000
00000000
00000000
00000000
,
00100000
10000000
00010000
01000000
00100000
00010000
01000000
00100000
,
10000000
00000000
01000000
00000000
00100000
00000000
00001000
00000000
00010000
00001000
00010000
00001000
00010000
00000010
00001000
00000000
,
00001001
00000000
00001000
00000100
00001000
00000000
00000001
00000000
,
00000100
00000000
00000010
00001000
00000010
00000000
00010000
00000000
,
00001000
00000000
01000000
00010000
01000000
00000000
00001000
00000000
,
00100000
00000000
00010000
01000000
00010000
00000000
00100000
00000000
,
01000000
00000000
10000000
00010000
01000000
00000000
00001000
00000000
,
00010000
00000000
00000100
00001000
00000010
00000000
00000100
00000000
,
00000001
00000000
00000010
00000001
00000100
00000000
00000220
00000000
,
00000000
00000000
00000330
00001001
,
00000001
00000000
00000100
00000000
00001000
00000000
00010000
00001000
,
01000000
00000000
00010000
00000000
00100000
00000000
01000000
00010000
,
00100000
00000000
01000000
00000000
10000000
00000000
00010000
10000000
,
01000000
00000000
00000000
00000000
00000000
00000000
00100000
00010000
00100000
00000000
00000000
00000000
10010000
00000000
00000000
00000000
,
00100000
00000000
01000000
00000000
00001000
00000000
00010000
00000100
,
00001000
00000000
00000010
00000000
00000100
00000000
00000010
00001000
,
00000100
00000000
00000010
00000000
00000001
00000000
00000100
00010000
,
00001000
00000000
00000000
00000000
00000000
00000000
00000010
00000100
00000010
00000000
00000000
00000001
00000100
00000000
00000010
00000000
,
00001000
00000000
00000100
00010000
00001000
00000000
01000000
00010000
,
00100000
00000000
01000000
10000000
00010000
00000000
01000000
00001000
,
00010000
00000000
00000100
00001000
00000010
00000000
00000100
00001000
,
00000010
00000000
00000000
00000000
00000010
00000000
00000100
00000001
00000100
00000000
00000000
00000000
00000010
00000000
00000000
00000000
,
00001000
00000000
00000100
00010000
00001000
00000000
01000000
00010000
,
00100000
00000000
01000000
00010000
00100000
00000000
00100000
01000000
,
10000000
00010000
00100000
01000000
10000000
00010000
00100000
00001000
,
00010000
00000000
00000100
00001000
00000100
00000000
00000010
00000001
00000010
00000000
00000100
00000000
00001000
00000000
00000001
00000000
,
00000110
00000000
00000000
00000000
;

//---------------dance-double - M.Emirzian----------------
#NOTES:
     dance-double:
     M.Emirzian:
     Challenge:
     9:
     0.653,0.000,0.321,0.183,0.600,444.000,35.000,20.000,0.000,10.000,0.000:
00000000
00000000
00000000
00000000
,
00000000
00000000
00000000
00000000
,
00000000
00000000
00000000
00000000
,
00000000
00000000
00000000
00000000
,
01100000
00000000
10000000
01000000
00100000
00010000
00100000
01000000
10000000
00000000
00010000
01000000
00100000
10000000
00100000
01000000
,
00010000
00000000
00100000
00001000
00010000
00001000
00100000
00001000
00010000
00000000
00000100
00001000
00000010
00000100
00000010
00001000
,
00000001
00000000
00000010
00000100
00001000
00000100
00000010
00000001
00000010
00000000
00000001
00000100
00000010
00001000
00000010
00000100
,
00000001
00000000
00000000
00000000
00011000
00000000
00000000
00000000
01000100
00000000
00000000
00010000
00001000
00000000
00101000
00000000
,
00100000
00000000
00010000
01000000
00100000
01000000
00010000
01000000
00100000
00000000
10000000
00010000
00100000
01000000
10000000
01000000
,
00100000
00000000
00010000
10000000
00100000
01000000
00010000
01000000
00100000
00000000
01000000
00001000
00010000
00001000
01000000
00001000
,
00010000
00000000
00000010
00010000
00001000
00010000
00000100
00010000
00001000
00000000
00010000
00000100
00001000
00000100
00000010
00000001
,
00000010
00000000
00000001
00001000
00000010
00000100
00000001
00000100
00000010
00000000
00000100
00000001
00000010
00000100
00000010
00000001
,
00000010
00000000
00000100
00001000
00000010
00000100
00000001
00000100
00000010
00000000
00001000
00000100
00010000
00001000
01000000
00001000
,
00010000
00000000
00001000
01000000
00010000
01000000
00001000
01000000
00010000
00000000
00100000
00001000
00010000
00001000
00100000
00010000
,
01000000
00000000
00100000
01000000
00010000
01000000
00100000
10000000
00100000
00000000
01000000
00010000
00100000
01000000
10000000
01000000
,
00100000
00000000
00011000
00000000
00100010
00000000
00010000
00011000
,
00010100
00010000
00001000
00000010
,
00000001
00000000
00000000
00000100
00000000
00000000
00001000
00000000
00000000
00000000
00000010
00000000
00000001
00000000
00001000
00000000
,
00000100
00000010
00001000
00010000
,
00100000
00000000
00000000
10000000
00000000
00000000
01000000
00000000
00000000
00000000
00010000
00000000
00100000
00000000
10000000
00000000
,
00010000
00100000
10000000
01000000
,
20020000
00000000
00000000
30030000
,
00100000
00000000
02002000
00000000
00000000
00000000
00000000
00000000
00100000
00010000
00100000
03003000
00000000
00000000
00000000
00000000
,
00100000
10000000
01000000
00010000
,
00001000
00000000
00022000
00000000
00000000
00000000
00000000
00000000
00000100
00000010
00000100
00033000
00000000
00000000
00000000
00000000
,
00001001
00000000
00000000
00000000
00011000
00000000
00000000
00000000
10010000
00000000
00000000
00100000
10000000
00000000
11000000
00000000
,
00100000
00000000
00010000
10000000
00010000
00000000
00100000
00000000
00010000
01000000
00100000
00000000
01000000
00000000
00010000
00000000
,
00100000
00000000
00001000
00010000
00001000
00000000
01000000
00000000
00001000
00010000
00000010
00000000
00010000
00000000
00000100
00000000
,
00001000
00000000
00000010
00000100
00000010
00000000
00000100
00000000
00000001
00001000
00000100
00000000
00001000
00000000
00000010
00000000
,
00000110
00000010
00001010
00001000
00010010
00001000
00011000
00001000
,
00000100
00000000
00000001
00000100
00000001
00000000
00000100
00000000
00001000
00010000
00001000
00000000
00010000
00000000
00100000
00000000
,
10000000
00000000
01000000
00010000
01000000
00000000
00010000
00000000
00001000
00000010
00000001
00000000
00000010
00000000
00000100
00000000
,
00001001
00000010
00001010
00001000
00001100
00010000
00011000
00001000
,
01001000
00000000
01000000
00000000
00010000
00000000
00100000
00000000
01000000
10000000
00100000
01000000
00010000
00100000
00001000
00010000
,
00000100
00000010
00000001
00000100
,
00001000
00000000
00000010
00000000
00000000
00000001
00000000
00001000
00000000
00000000
00000100
00000000
00000000
00000000
00000000
00000000
,
00010000
00001000
01000000
10000000
,
00100000
00000000
00010000
00000000
00000000
10000000
00000000
00010000
00000000
00000000
10000000
00000000
01000000
00000000
00000000
00000000
,
01000000
00010000
00001000
00000010
,
00000001
00000000
00000100
00000000
00000000
00001000
00000000
00000010
00000000
00000000
00000001
00000000
00000000
00000000
00000000
00000000
,
00000010
00001000
00010000
00100000
,
10000000
00000000
00010000
00000000
00000000
00100000
00000000
01000000
00000000
00000000
10000000
00000000
00010000
00000000
00000000
00000000
,
20020000
00000000
00000000
30030000
,
20000000
00000000
02000000
00000000
00100000
30000000
00020000
03000000
,
00002000
00030000
00000020
00000000
00000100
00003000
00000031
00000000
,
00000000
00000000
00000000
00000000
00000110
00000000
00000000
00002002
,
00000000
00000000
00000000
00003003
,
00000002
00000000
00000200
00000000
00000010
00000003
00002000
00000300
,
00020000
00003000
00200000
00000000
01000000
00030000
10300000
00000000
,
10000000
00000000
00000000
00000000
11000000
00000000
00000000
00000000
00110000
00000000
00000000
10000000
00100000
00000000
10010000
00000000
,
00100000
00000000
01000000
10000000
00100000
01000000
00100000
10000000
00010000
00000000
00100000
01000000
10000000
01000000
00100000
00010000
,
00100000
00000000
00001000
00010000
00000010
00010000
00001000
00010000
00000100
00000000
00000010
00000100
00001000
00000100
00000010
00000100
,
00001000
00000000
00000001
00000100
00000010
00000100
00000001
00000100
00000010
00000000
00001000
00000100
00010000
00000100
00001000
00000100
,
00010000
00000000
00000010
00000100
00000010
00001000
00000100
00010000
00001000
00000000
01000000
00010000
01000000
00100000
10000000
00100000
,
01000000
00000000
00010000
00100000
01000000
10000000
01000000
00100000
00010000
00000000
01000000
00001000
00010000
00000100
00010000
00001000
,
00010000
00000000
00000100
00001000
00000010
00000100
00000001
00000100
00000010
00000000
00001000
00000100
00000010
00000001
00000010
00000100
,
00001000
00001100
00000010
00001001
00001000
00001100
00010000
00011000
,
00001000
00000000
00010000
00001000
01000000
00000000
00010000
01000000
00100000
10000000
01000000
00100000
00001000
00010000
00000100
00001000
,
00001100
00000000
00000000
00000000
;

//---------------dance-single - C. Foy----------------
#NOTES:
     dance-single:
     C. Foy:
     Easy:
     2:
     0.157,0.000,0.064,0.147,0.000,97.000,7.000,16.000,2.000,0.000,0.000:
0000
0000
0000
0000
,
0000
0000
0000
0000
,
0000
0000
0000
0000
,
0000
0000
0000
0000
,
2000
0000
0000
3000
,
0002
0000
0000
0003
,
0200
0000
0000
0300
,
0001
1000
0001
1000
,
0001
0000
0000
0000
,
0010
0000
0000
0000
,
0100
0000
0000
0000
,
1000
0000
0010
0000
,
0200
0000
0000
0300
,
0001
0000
1000
0000
,
0010
0000
0100
0000
,
0001
0000
0010
0000
,
1001
0000
0000
0000
,
1000
0000
0010
0000
,
0001
0000
0000
0000
,
0010
0000
0000
0000
,
1000
0000
0000
0000
,
0002
0000
0000
0003
,
1001
0000
0100
0000
,
0000
0000
0000
0000
,
1001
0000
0100
0000
,
0001
1000
0001
1000
,
0001
0000
0010
0000
,
0100
0000
1000
0000
,
0100
0000
0001
0000
,
0100
0010
0100
0010
,
0100
0000
1000
0000
,
0010
0000
0100
0000
,
0001
0010
0001
0010
,
0001
1000
0001
1000
,
1001
0000
0000
0000
,
1000
0000
0100
0000
,
0001
0000
0100
0000
,
1000
0000
0010
0000
,
0001
0000
0010
0000
,
1000
0000
0010
0000
,
1000
0000
0001
0000
,
M000
0000
000M
0000
,
2002
0000
0000
3003
,
0200
0000
0000
0300
,
0020
0000
0000
0030
,
1000
0000
0010
0000
,
0200
0000
0000
0300
,
0020
0000
0000
0030
,
2000
0000
0000
3000
,
0001
1000
0001
1000
,
1001
0000
0000
0000
,
0200
0000
0000
0300
,
0020
0000
0000
0030
,
0100
0000
0001
0000
,
0020
0000
0000
0030
,
0200
0000
0000
0300
,
1000
0100
1000
0100
,
1000
0001
1000
0001
,
1001
0000
0000
0000
;

//---------------dance-single - C. Foy----------------
#NOTES:
     dance-single:
     C. Foy:
     Medium:
     4:
     0.238,0.000,0.165,0.330,0.000,128.000,18.000,36.000,4.000,0.000,0.000:
0000
0000
0000
0000
,
0000
0000
0000
0000
,
0000
0000
0000
0000
,
0000
0000
0000
0000
,
2000
0000
0000
0000
0000
0001
0000
3002
,
0000
0000
0000
0000
0000
0000
0000
0003
,
0200
0000
0000
0300
,
0001
0100
0010
1000
,
0200
0000
0000
0000
0000
0010
0000
0320
,
0000
0000
0000
0000
0000
0000
0000
0030
,
0002
0000
0000
0000
0000
0000
0000
0003
,
1000
0000
0001
0100
,
0020
0000
0000
0000
0000
0000
0000
0030
,
0200
0000
0000
0000
0001
0000
0000
0300
,
0100
0000
0001
0000
,
0010
0100
0010
0001
,
0101
0000
0000
0000
,
0002
0000
2003
0000
,
3020
0000
0130
0100
,
0102
0000
0023
0000
,
0230
1000
1300
1000
,
0022
0000
0000
0033
,
1MM1
0000
0100
0000
,
0001
0000
0010
0000
,
1001
0000
1000
0000
,
0010
0001
0010
1000
,
0100
0000
0001
0000
,
0100
0000
1000
0000
,
0010
0000
0001
0000
,
0010
1000
0001
0100
,
0010
0000
1000
0000
,
0010
0000
0100
0000
,
0010
1000
0100
0010
,
0001
0100
0010
0100
,
1001
0000
0000
0000
,
0000
1000
0000
0100
0000
1000
0000
0000
,
0000
0010
0000
0100
0010
0000
0000
0000
,
0000
0001
0000
1000
0001
1000
0001
0000
,
0000
0100
0000
0010
0100
0000
0000
0000
,
0000
0010
0000
0100
0010
0100
0000
0000
,
0000
0001
1000
0001
0000
0000
0000
0000
,
M000
0000
000M
0000
,
2002
0000
0000
3003
,
0202
0000
0000
0303
,
2200
0000
0000
3300
,
1000
0000
0010
0010
,
0202
0000
0000
0303
,
2200
0000
0000
3300
,
2002
0000
0000
0000
0000
0000
3003
1000
,
0001
0010
0100
1000
,
2100
0000
0000
0000
0000
3100
0000
2002
,
0000
0000
0000
3003
,
0022
0000
0000
0000
0000
0000
0033
0001
,
0100
0000
0001
0010
,
2200
0000
0000
3300
,
0012
0000
0000
0000
0000
0010
0003
0000
,
0001
0100
0010
0100
,
0001
1000
0001
1000
0001
1000
0001
0000
,
1001
0000
0000
0000
;

//---------------dance-single - C. Foy K. Ward----------------
#NOTES:
     dance-single:
     C. Foy K. Ward:
     Hard:
     7:
     0.385,0.000,0.486,0.321,0.124,206.000,53.000,35.000,10.000,0.000,0.000:
0000
0000
0000
0000
,
0000
0000
0000
0000
,
0000
0000
0000
0000
,
0000
0000
0000
0000
,
2200
0000
0000
0300
0000
0001
0000
3002
,
0000
0000
0000
0000
0000
0000
0000
0003
,
0202
0000
0000
0303
,
1001
0101
1100
1001
,
0202
0000
0000
0003
0000
0010
0300
0120
,
0000
0000
0000
0000
0000
1000
0000
0030
,
2002
0000
0000
0000
0000
0000
3000
1003
,
0001
0000
0000
0000
0000
0000
1000
0001
1000
0000
0000
0000
0010
0000
0000
0000
,
0220
0000
0000
0000
0300
0100
0000
0030
,
0201
0000
0000
0000
0010
0000
0001
0300
,
0020
0000
0000
0000
0230
0000
0000
0300
,
0011
1010
0011
1010
,
1001
0000
0000
0000
,
0001
0000
0010
0001
0000
0000
1000
0000
1000
0000
0000
0000
0010
0000
0100
0000
,
0002
0000
0100
0000
0013
0000
0000
0100
,
2000
0001
3020
0100
,
2030
0100
0001
3010
,
2002
0000
0000
3003
,
MM11
0000
0000
0000
0000
0000
0000
0000
0001
1000
0001
0000
0000
0000
0000
0000
,
0200
1000
0310
1000
,
0001
0000
0010
0000
0000
0000
0000
0000
0100
0010
0100
0000
0000
0000
0000
0000
,
1010
0000
0000
0000
0110
0000
0000
0000
0101
0000
0000
0010
0100
0000
0001
0000
,
1001
0000
1000
0000
0000
0000
0000
0000
0001
0010
0001
0000
0000
0000
0000
0000
,
0110
0000
0010
0000
0000
0000
0000
0000
1000
0100
1000
0000
0000
0000
0000
0000
,
1001
0000
1000
0000
0000
0000
0000
0000
0001
0100
0001
0000
0000
0000
0000
0000
,
0011
1010
0011
1010
,
0110
0000
0010
0000
0000
0000
0000
0000
1000
0100
1000
0000
0000
0000
0000
0000
,
0101
0000
0001
0000
0000
0000
0000
0000
0100
0010
0100
0000
0000
0000
0000
0000
,
0001
1000
0001
1000
0001
1000
0001
1000
,
0001
0000
0100
0000
0010
0000
1000
0000
0001
0010
0001
0000
0100
0000
0010
0000
,
1001
0000
0000
0000
,
0000
0000
1000
0000
0000
0010
0000
0100
0000
0000
0001
0000
0000
0000
0000
0000
,
0000
0000
0010
0000
0000
0100
0000
1000
0000
0000
0000
0000
0000
0000
0000
0000
,
0000
0000
0100
0000
0000
0010
0000
0001
0000
0000
0100
0000
1010
0000
0000
0000
,
0000
0000
0100
0000
0000
0010
0000
1000
0000
0000
0000
0000
0000
0000
0000
0000
,
0000
0000
0010
0000
0000
0100
0000
0001
0000
0000
1000
0000
0000
0000
0000
0000
,
0000
0000
0001
0000
0000
1000
0000
0100
0000
0000
0000
0000
0000
0000
0000
0000
,
MMMM
0000
MMMM
0000
,
2001
0010
0001
3001
,
0102
0010
0100
0013
,
1200
0000
0010
0000
1000
0000
0310
0001
,
1000
0000
0000
0000
0000
0000
0001
1000
0001
0000
0000
0000
0010
0000
0000
0000
,
0102
0010
0100
0013
,
2001
0000
0010
0000
3001
1100
0000
0000
,
0210
0000
1000
0000
0010
0000
1300
0001
,
1001
1100
0101
1010
,
0012
0000
0100
0000
0000
0013
0000
2001
,
0000
0000
0100
0000
0000
0010
3000
0000
,
0022
0000
0000
0000
0030
0000
0103
1000
,
0100
0000
0000
0000
0000
0000
0010
0100
0001
0000
0000
0000
0010
0000
0000
0000
,
2200
0000
0000
3300
,
0012
0000
0000
0000
0000
0100
0003
0000
,
0110
1001
1100
0011
,
1000
0000
0001
1000
0001
0000
0100
0010
0100
0000
0001
0000
0010
0000
0100
0000
,
1001
0000
0000
0000
;

//---------------dance-single - C. Foy----------------
#NOTES:
     dance-single:
     C. Foy:
     Challenge:
     10:
     0.710,0.000,0.440,0.128,0.697,480.000,48.000,14.000,4.000,0.000,0.000:
0000
0000
0000
0000
,
0000
0000
0000
0000
,
0000
0000
0000
0000
0000
0000
0000
0001
,
1000
0000
0000
0000
0000
0000
1000
0100
1000
0000
0000
0001
0010
0000
0001
0000
,
1001
0000
0001
0010
0100
1000
0100
0010
0001
0000
1000
0010
0100
0001
1000
0010
,
0100
0000
0001
1000
0001
0010
0100
1000
0001
0000
0100
0010
1000
0001
0100
0010
,
0100
0000
0001
1000
0001
0010
0001
1000
0010
0000
1000
0010
0100
0001
1000
0000
,
1001
0000
0000
0000
0011
0000
0000
0000
1010
0000
0000
0001
0100
0000
0010
0000
,
0101
0000
0001
1000
0001
0100
0010
0100
0001
0000
1000
0100
1000
0100
0010
0100
,
0010
0000
0001
0010
0100
0010
0100
1000
0100
0000
1000
0100
0010
0100
0010
0001
,
0010
0000
0001
0010
0001
1000
0010
1000
0010
0000
1000
0010
0100
0010
1000
0010
,
1000
0000
0001
1000
0100
1000
0010
0100
0001
0000
1000
0010
1000
0001
1000
0010
,
0100
0000
0010
0100
0001
1000
0100
0010
0001
0000
1000
0100
0010
0001
0010
0100
,
1000
0000
0001
0100
0010
1000
0001
0100
0010
0000
0100
0001
1000
0010
0100
0001
,
1000
0000
0001
0010
0100
1000
0100
0010
0001
0000
1000
0001
1000
0010
1000
0000
,
1010
0000
1010
0000
0011
0000
1010
0001
,
1001
0000
0000
0000
0000
0000
1000
0000
0000
0000
0100
0000
0000
0010
0000
0001
,
0000
0000
0000
0100
0000
0000
0100
0000
0000
0000
0000
0010
0000
0010
1000
0000
,
0001
0000
0000
0100
0000
0000
1000
0000
0100
0000
0010
0000
0000
0100
0000
0100
,
0000
0000
0000
0010
0000
0000
0010
0000
1000
0000
0000
0100
0000
0100
0010
0000
,
0001
0000
0000
0100
0000
0000
0001
0000
0100
0000
0010
0000
0000
1000
0000
0000
,
2002
0000
0000
3003
,
M11M
0000
0010
0000
0000
0000
0000
0000
1000
0001
0010
0000
0000
0000
0000
0000
,
0202
0000
0000
0300
0000
0000
0M03
0000
2020
0000
0000
0030
0000
0000
30M0
0000
,
1001
0000
0100
0000
0000
0000
0000
0000
0001
1000
0100
0000
0000
0000
0000
0000
,
0011
0000
0000
0000
1100
0000
0000
0000
1010
0000
0000
0001
0101
0000
0010
0000
,
1001
0000
0100
0000
0000
0000
0000
0000
0001
0100
0010
0000
0000
0000
0000
0000
,
0110
0000
1000
0000
0000
0000
0000
0000
0010
1000
0100
0000
0000
0000
0000
0000
,
1001
0000
0100
0000
0000
0000
0000
0000
0010
1000
0100
0000
0000
0000
0000
0000
,
1001
0100
1001
0001
0110
0010
0110
1000
,
1010
0000
0001
0000
0000
0000
0000
0000
0100
0001
0010
0000
0000
0000
0000
0000
,
0101
0000
1000
0000
0000
0000
0000
0000
0100
1000
0010
0000
0000
0000
0000
0000
,
0010
1000
0100
0010
0001
0100
0010
0100
,
0001
0000
0010
0000
0100
0000
1000
0000
0010
0100
0001
0010
0100
0010
0001
1000
,
1001
0000
1000
0000
0010
0000
0000
0010
0000
0000
0000
0000
0000
0000
0000
0000
,
0000
0000
0100
0000
0000
0100
0000
0001
0000
0000
0010
0000
0000
0000
0000
0000
,
0000
0000
0010
0000
0000
0001
0000
0100
0000
0000
0000
0000
0000
0000
0000
0000
,
0000
0000
0100
0000
0000
0001
0000
0010
0000
0000
0001
0000
1010
0000
0000
0000
,
0000
0000
1000
0100
0010
0100
1000
0100
1000
0000
0001
0010
0100
0010
0001
0010
,
0001
0000
1000
0100
0010
0001
0010
0100
1000
0000
0001
0010
0100
1000
0100
0010
,
0001
0000
1000
0001
1000
0010
1000
0001
1000
0000
0001
1000
0001
0010
0001
1000
,
0001
0000
1000
0100
0010
0001
0010
0100
1000
0100
0010
0100
1000
0001
0100
0001
,
2001
0010
0001
0001
0001
0010
3001
0000
,
0102
1000
0100
0100
0100
1000
0103
0000
,
1200
0010
1000
1000
1000
0010
1300
0001
,
1000
0000
0000
0000
0000
0000
0010
0100
0001
0000
0000
0000
0010
0000
0000
0000
,
0102
1000
0100
0100
0100
1000
0103
0000
,
2010
0001
0010
0010
0010
0001
3010
0000
,
1020
0100
1000
1000
1000
0100
1030
0001
,
1001
0000
0000
0000
1100
0000
0001
0100
0101
0000
0000
0010
1010
0000
1000
0000
,
0000
0000
0001
0010
0100
0010
0001
0010
0001
0000
1000
0100
0010
0100
1000
0100
,
1000
0000
0001
0010
0100
1000
0100
0010
0001
0000
1000
0100
0010
0001
0010
0100
,
1000
0000
0001
1000
0001
0100
0001
1000
0001
0000
1000
0001
1000
0100
1000
0001
,
1000
0000
0001
0010
0100
1000
0100
0010
0001
0010
0100
0010
0001
1000
0010
1000
,
2100
0001
0100
0100
0100
0010
3100
0000
,
0012
1000
0010
0010
0010
0100
0013
0000
,
0011
0100
1010
0001
1100
0010
0101
0010
,
1001
0000
0001
0100
0010
0000
1000
0100
0010
0001
0010
0100
0010
0001
1000
0001
,
1001
0000
0000
0000
;

//---------------dance-single - K. Ward----------------
#NOTES:
     dance-single:
     K. Ward:
     Beginner:
     1:
     0.085,0.000,0.028,0.000,0.000,62.000,3.000,0.000,0.000,0.000,0.000:

0000
0000
0000
0000
,
0000
0000
0000
0000
,
0000
0000
0000
0000
,
0000
0000
0000
0000
,
1000
0000
0000
0000
,
0100
0000
0000
0000
,
0010
0000
0000
0000
,
0001
0000
1000
0000
,
0001
0000
0000
0000
,
0010
0000
0000
0000
,
0100
0000
0000
0000
,
1000
0000
0001
0000
,
0100
0000
0000
0000
,
0010
0000
0000
0000
,
1000
0000
0000
0000
,
0001
0000
1000
0000
,
0001
0000
0000
0000
,
0000
0000
0000
0000
,
0010
0000
0000
0000
,
0100
0000
0010
0000
,
0010
0000
0000
0000
,
0110
0000
0000
0000
,
0001
0000
0000
0000
,
1000
0000
0000
0000
,
0100
0000
0000
0000
,
1000
0000
1000
0000
,
0010
0000
0000
0000
,
0100
0000
0000
0000
,
0001
0000
0001
0000
,
1000
0000
0001
0000
,
1000
0000
0000
0000
,
0001
0000
0000
0000
,
1000
0000
0000
0000
,
0001
0000
0000
0000
,
1001
0000
0000
0000
,
0000
0000
0000
0000
,
0100
0000
0000
0000
,
0010
0000
0000
0000
,
1000
1000
0000
0000
,
0000
0000
0000
0000
,
0001
0001
0000
0000
,
0000
0000
0000
0000
,
1000
0000
0000
0000
,
0001
0000
0000
0000
,
0100
0000
0000
0000
,
0010
0000
0000
0000
,
1000
0000
0000
0000
,
0001
0000
0000
0000
,
0010
0000
0000
0000
,
0001
0000
0000
0000
,
1000
0000
0000
0000
,
0001
0000
0000
0000
,
0010
0000
0000
0000
,
0100
0000
0000
0000
,
0010
0000
0000
0000
,
0001
0000
0000
0000
,
1000
0000
0001
0000
,
1000
0000
0001
0000
,
1001
0000
0000
0000
;
