#TITLE:Summer in Belize;
#SUBTITLE:;
#ARTIST:Digital Explosion;
#TITLETRANSLIT:;
#SUBTITLETRANSLIT:;
#ARTISTTRANSLIT:;
#GENRE:Trance;
#CREDIT:;
#BANNER:Summer in Belize-banner.png;
#BACKGROUND:Summer in Belize-bg.png;
#LYRICSPATH:;
#CDTITLE:;
#MUSIC:Summer in Belize.ogg;
#OFFSET:0.002;
#SAMPLESTART:27.880;
#SAMPLELENGTH:11.960;
#SELECTABLE:YES;
#BPMS:0.000=137.480;
#STOPS:;
#BGCHANGES:0.000=Summer in Belize-bg.png=1.000=0=0=1=====,
8.000=In The Groove 2/859_JumpBack.mpg=1.400=1=0=1===CrossFade==,
32.000=In The Groove 2/963_JumpBack.mpg=1.000=0=0=1=====,
48.000=In The Groove 2/800_JumpBack.mpg=1.000=0=0=1===FadeLeft==,
64.000=-random-=1.000=0=0=1===FadeRight==,
80.000=-random-=1.000=0=0=1===FadeUp==,
96.000=In The Groove 2/592_JumpBack.mpg=1.000=0=0=1=SongBgWithMovieViz===0^1^1^1=,
112.000=In The Groove 2/751_JumpBack.mpg=1.000=1=0=1=SongBgWithMovieViz==CrossFade=1^0^1^1=,
122.000=In The Groove 2/751_JumpBack.mpg=1.000=1=0=1=SongBgWithMovieViz==CrossFade=1^1^0^1=,
132.000=In The Groove 2/865_JumpBack.mpg=1.000=0=0=1=SongBgWithMovieViz====,
136.000=In The Groove 2/865_JumpBack.mpg=1.000=0=0=1=====,
146.000=In The Groove 2/632_JumpBack.mpg=1.000=0=0=1=====,
148.000=In The Groove 2/864_JumpBack.mpg=1.000=0=0=1=====,
164.000=-random-=1.000=0=0=1===FadeLeft==,
180.000=-random-=1.000=0=0=1===FadeRight==,
196.000=-random-=1.000=0=0=1===FadeUp==,
212.000=-random-=1.000=0=0=1===FadeDown==,
228.000=-random-=1.000=0=0=1===FadeLeft==,
243.500=Summer in Belize-bg.png=1.000=0=0=1=====,
99999=-nosongbg-=1.000=0=0=0 // don't automatically add -songbackground-
;
#BGCHANGES2:32.000=flash=1.000=0=0=1=====,
132.000=flash=1.000=0=0=1====1^1^0^1=,
136.000=flash=1.000=0=0=1====1^1^0^1=,
138.000=flash=1.000=0=0=1====1^0^0^1=,
140.000=flash=1.000=0=0=1====1^1^0^1=,
142.000=flash=1.000=0=0=1====0^1^0^1=,
144.000=flash=1.000=0=0=1====1^1^0^1=,
146.000=flash=1.000=0=0=1====0^0^1^1=,
148.000=flash=1.000=0=0=1=====,
243.500=flash=1.000=0=0=1=====,
;
#KEYSOUNDS:;
// cache tags:
#FIRSTBEAT:7.500;
#LASTBEAT:243.500;
#SONGFILENAME:/Songs/In The Groove 2/Summer in Belize/Summer in Belize.sm;
#HASMUSIC:1;
#HASBANNER:1;
#MUSICLENGTH:108.233;
// end cache tags

//---------------dance-single - C. Foy----------------
#NOTES:
     dance-single:
     C. Foy:
     Easy:
     3:
     0.275,0.000,0.203,0.055,0.000,180.000,22.000,6.000,0.000,0.000,0.000:
0000
0000
0000
0000
,
0000
0000
0000
0000
,
2002
0000
0000
0000
,
3003
0000
0000
0000
,
0220
0000
0000
0000
,
0330
0000
0000
0000
,
2200
0000
0000
0000
,
3300
0000
0000
0000
,
1000
0001
1000
0001
,
1000
0001
1000
0001
,
1000
0100
1000
0100
,
1000
0100
1000
0100
,
0010
0100
0010
0100
,
0010
0100
0010
0100
,
0010
0001
0010
0001
,
0010
0001
0010
0001
,
1000
0100
1000
0100
,
1000
0100
1000
0100
,
1000
0010
1000
0010
,
1000
0010
1000
0010
,
0100
0001
0100
0001
,
0100
0001
0100
0001
,
0010
0100
0010
0100
,
0010
0100
0010
0100
,
1001
0000
0110
0000
,
1100
0000
1001
0000
,
0011
0000
0110
0000
,
1100
0000
1001
0000
,
0011
0000
1001
0000
,
0110
0000
1001
1000
,
1000
1000
0001
0001
,
0100
0100
0010
0010
,
0100
0100
0001
0001
,
1000
0000
0000
0000
,
0110
0000
0110
0000
,
1001
1001
1001
1001
,
1000
0001
1000
0001
1000
0001
1000
0001
,
1000
1000
0001
0001
,
1000
1000
0001
0001
,
0100
0100
0010
0010
,
0100
0100
0010
0010
,
1000
1000
0100
0100
,
1000
1000
0100
0100
,
0010
0010
0001
0001
,
0010
0010
0001
0001
,
1000
0000
0100
0000
,
0010
0000
0001
0000
,
0100
0000
0010
0000
,
1000
0000
0100
0000
,
0010
0000
0001
0000
,
0100
0000
0010
0000
,
1000
0000
0100
0000
,
0010
0000
0001
0000
,
1000
0001
1000
0000
0000
0000
0000
0000
,
0010
0100
0010
0000
0000
0000
0000
0000
,
1000
0100
1000
0000
0000
0000
0000
0000
,
0001
0010
0001
0000
0000
0000
0000
0000
,
0100
0010
0100
0000
0000
0000
0000
0000
,
0001
1000
0001
0000
0000
0000
0000
0000
,
0010
0100
0010
0000
0000
0000
0000
0000
,
0001
1000
0001
0000
0000
0000
0000
1001
;

//---------------dance-single - C. Foy----------------
#NOTES:
     dance-single:
     C. Foy:
     Challenge:
     10:
     0.888,0.000,0.323,0.000,1.000,638.000,35.000,0.000,0.000,0.000,0.000:
0000
0000
0000
0000
,
0000
0000
0000
0000
,
1000
0100
0000
0010
0001
0000
1000
0010
0000
0100
0001
0000
0010
0100
0000
1000
,
0100
0000
1000
0001
0000
0100
0010
0000
1000
0001
0000
0010
0100
0000
0010
0000
,
0001
0100
0000
0010
1000
0000
0100
1000
0000
0010
0100
0000
0001
0010
0000
0100
,
1000
0000
0010
0100
0000
0001
0010
0000
0100
0010
0000
0100
1000
0000
0001
0000
,
1000
0010
0000
1000
0100
0000
0010
0001
0000
0010
0100
0000
1000
0010
0000
0100
,
0001
0000
0010
0100
0000
1000
0010
0000
1001
0000
0000
0000
1100
0000
0001
0000
,
0001
0100
0000
0100
0010
0000
0010
1000
0000
1000
0100
0000
0100
0010
0000
0010
,
0001
0000
0001
0100
0000
0100
0010
0000
0010
1000
0000
1000
0100
0000
0010
0000
,
0001
0100
0000
0100
0010
0000
0010
1000
0000
1000
0100
0000
0100
0010
0000
0010
,
0001
0000
0001
0100
0000
0100
0010
0000
0010
1000
0100
0000
0100
0000
0100
0000
,
0010
0001
0000
0001
0100
0000
0100
0010
0000
0010
1000
0000
1000
0100
0000
0100
,
0010
0000
0010
0001
0000
0001
0100
0000
0100
0010
0000
0010
1000
0000
0001
0000
,
0010
0100
0000
0100
1000
0000
1000
0010
0000
0010
0100
0000
0100
0001
0000
0001
,
1000
0000
1000
0001
0000
0001
0100
0000
0100
0010
1000
0000
1000
0000
1000
0000
,
0001
0100
0000
1000
0100
0000
0010
0001
0000
0010
1000
0000
0010
1000
0000
0001
,
0010
0000
0001
0100
0000
1000
0100
0000
0001
0010
0000
1000
0010
0000
0100
0000
,
0010
0001
0000
0100
1000
0000
0100
0001
0000
0010
1000
0000
0010
0001
0000
0100
,
0010
0000
0001
0010
0000
0100
0001
0000
0100
0001
0010
0000
0010
0000
0010
0000
,
0001
0100
0000
0100
0001
0000
1000
0100
0000
0010
0001
0000
0001
0100
0000
0100
,
0010
0000
1000
0100
0000
0010
0100
0000
0100
1000
0000
1000
0010
0000
0100
0000
,
0001
0010
0000
0100
1000
0000
1000
0010
0000
0010
0100
0000
0001
0100
0000
0010
,
1000
0000
1000
0100
0000
0100
0010
0000
1001
0000
0110
0000
1100
0000
0101
0000
,
1000
0001
0100
0001
0100
0001
1000
0000
0010
1000
0001
1000
0001
1000
0010
0000
,
1000
0001
0100
0001
0100
0001
1000
0000
0010
0100
0001
0100
0001
0100
0010
0000
,
0100
0010
1000
0010
1000
0010
0100
0000
0001
0010
0100
0010
0100
0010
0001
0000
,
1000
0010
0100
0010
0100
0010
1000
0000
0010
1000
0100
1000
0100
1000
0001
0000
,
0100
0010
1000
0010
1000
0010
0100
0000
0001
0010
0100
0010
0100
0010
0001
0000
,
0100
0010
1000
0010
1000
0010
0100
0000
0010
0100
0001
0100
0001
0100
0001
0100
,
0010
1000
0010
1000
0010
1000
0010
1000
0001
0100
0001
0100
0001
0100
0001
0100
,
0010
0100
0010
0100
0010
0100
0010
0100
0001
0010
0001
0010
0001
0010
0001
0010
,
0100
1000
0100
1000
0100
1000
0100
1000
0010
1000
0010
1000
0010
1000
0010
1000
,
0010
0000
0000
0000
0000
0000
0000
0000
1000
0100
0010
0001
1000
0100
0010
0001
,
1000
0000
0000
0000
0000
0000
0000
0000
0000
0000
0000
0000
0000
0000
0000
0000
0001
1000
0000
0000
0000
0000
0000
0000
0000
0000
0000
0000
0000
0000
0000
0000
,
0010
1000
0000
0000
0000
0000
0000
0000
0000
0000
0000
0000
0000
0000
0000
0000
0001
0100
0000
0000
0000
0000
0000
0000
0000
0000
0000
0000
0000
0000
0000
0000
0010
0100
0000
0000
0000
0000
0000
0000
0000
0000
0000
0000
0000
0000
0000
0000
0001
0010
0000
0000
0000
0000
0000
0000
0000
0000
0000
0000
0000
0000
0000
0000
,
0001
0010
0000
0000
0000
0000
0000
0000
1000
0001
0000
0000
0000
0000
0000
0000
1000
0010
0000
0000
0000
0000
0000
0000
0100
0010
0000
0000
0000
0000
0000
0000
0100
0001
0000
0000
0000
0000
0000
0000
0010
0001
0000
0000
0000
0000
0000
0000
0010
0100
0000
0000
0000
0000
0000
0000
1000
0001
0000
0000
0000
0000
0000
0000
,
0001
0010
0000
0100
1000
0000
0001
0100
0000
0010
1000
0000
0100
0010
0000
0001
,
0010
0000
0001
1000
0000
0010
0100
0000
0001
0010
0100
1000
0100
0010
0001
0000
,
1000
0010
0000
0100
0001
0000
0010
0001
0000
0100
0010
0000
1000
0100
0000
0010
,
0001
0000
0100
0010
0000
1000
0100
0000
1000
0000
1001
0000
1100
0000
0101
0000
,
0001
0100
0000
0001
0010
0000
0100
1000
0000
0100
0010
0000
0001
0100
0000
0010
,
1000
0000
0100
0010
0000
0001
0100
0000
0001
0010
0001
1000
0001
0100
0001
0000
,
0001
0010
0000
0010
0100
0000
0100
0001
0000
0001
0100
0000
0100
1000
0000
1000
,
0010
0000
0010
1000
0000
1000
0100
0000
0010
0000
0011
0000
1001
0000
1001
0000
,
1000
0010
0000
0010
0100
0000
0100
0001
0000
0001
0010
0000
0010
0100
0000
0100
,
1000
0000
1000
0010
0000
0010
0100
0000
0100
0001
0010
0100
1000
0100
0010
0000
,
0100
1000
0000
1000
0010
0000
0010
0100
0000
0100
0001
0000
0001
0010
0000
0010
,
0100
0000
0100
1000
0000
1000
0010
0000
0010
0000
0110
0000
1010
0000
1001
0000
,
0001
0010
0000
0010
0001
0000
0001
0100
0000
0100
0010
0000
0010
1000
0000
1000
,
0001
0000
0001
1000
0000
1000
0010
0000
1000
0100
0010
0001
1000
0100
0010
0000
,
0001
0010
0000
0001
0010
0000
0100
1000
0000
0100
0010
0000
0001
0100
0000
0010
,
0100
0000
0001
0010
0000
0100
1000
0000
1000
0000
1010
0000
1001
0000
0110
0000
,
1001
1100
0101
1001
,
0011
1010
1001
0110
,
1000
0010
1000
0100
0010
0001
0100
0010
,
0100
0001
0010
0100
1000
0100
0100
0100
,
1001
0100
1001
0010
0011
1000
0011
0100
,
0101
0010
0101
0100
1100
1000
1100
0001
,
1000
0100
1000
0100
1000
0001
1000
0001
0100
0001
0100
0001
0010
0001
0010
0001
,
1000
0100
0010
0001
1000
0100
0010
0001
1000
0100
0010
0000
0100
0000
1001
0000
;

//---------------dance-single - C. Foy----------------
#NOTES:
     dance-single:
     C. Foy:
     Medium:
     5:
     0.330,0.056,0.055,0.148,0.009,228.000,6.000,16.000,0.000,0.000,0.000:
0000
0000
0000
0000
,
0000
0000
0000
0000
0000
0000
0000
2000
,
0002
0000
0000
0000
,
3003
0000
0000
0000
0000
0000
0000
0020
,
2000
0000
0000
0000
,
3030
0000
0000
0000
0000
0000
0000
2000
,
0020
0000
0000
0000
,
3030
0000
0000
0000
,
1000
0100
0010
0100
,
1000
0010
0100
0010
,
1000
0001
0100
0010
,
1000
0001
0010
0100
,
1000
0010
0100
0001
,
0100
0010
1000
0100
,
0010
0001
0100
0010
,
1000
0001
0100
0010
,
1000
0100
0010
0100
,
1000
0100
0010
0001
,
0010
0100
1000
0010
,
0100
0001
0100
0010
,
1000
0100
0010
0001
,
0100
0010
1000
0100
,
1000
0010
0100
0001
,
0010
0100
1000
0001
,
1001
0000
0000
1000
0100
0000
0000
0010
,
0001
0000
0000
1000
0010
0000
0000
0100
,
0001
0000
0000
1000
0010
0000
0000
1000
,
0010
0000
0000
0100
0001
0000
0000
1000
,
0010
0000
0000
0100
0001
0000
0000
1000
,
0001
0000
0000
0001
1000
0001
1000
0001
,
1000
0001
1000
0001
0100
0010
0100
0010
,
1000
0001
1000
0001
0100
0010
0100
0010
,
1000
0001
1000
0001
0010
0100
0010
0100
,
1000
0000
0000
0000
0001
0010
0001
0010
,
0001
0000
1001
0000
,
1001
0110
1001
0110
,
1000
0000
0001
0000
1000
0000
0001
0000
1000
0000
0001
0000
1000
0001
1000
0001
,
1000
0001
0100
1000
,
0100
0000
0001
0000
0010
0001
0010
0000
,
0100
1000
0100
0001
,
0100
0000
0010
0000
0001
1000
0001
1000
,
0001
0100
0010
0001
,
0010
0000
1000
0000
0100
1000
0100
0000
,
0010
1000
0010
0001
,
0100
0000
0010
0000
0100
0010
0100
0010
,
0100
0000
0001
0100
0000
0010
0000
1000
,
0000
0200
0000
0000
0300
0000
0000
0000
,
0010
0000
0010
0001
0000
0100
0000
0020
,
0000
0030
0000
0000
,
0100
0000
0001
1000
0000
0010
0000
0100
,
0000
0002
0000
0000
0003
0000
0000
0000
,
0010
0000
0100
2000
0000
0000
3000
0000
,
0000
0000
0100
0020
0000
0031
0100
0000
,
0100
0000
0010
0010
0000
1000
0000
0100
,
0000
0020
0000
0000
0030
0000
0000
0000
,
0001
0000
0100
0100
0000
0010
0000
2000
,
0000
3000
0000
0000
,
0010
0000
1000
0100
0000
0010
0000
0100
,
0000
0020
0000
0000
0030
0000
0000
0000
,
0001
0000
0100
0200
0000
0000
0300
0000
,
0000
0000
0010
0200
0000
0301
1000
0001
;

//---------------dance-single - C. Foy----------------
#NOTES:
     dance-single:
     C. Foy:
     Hard:
     8:
     0.537,0.028,0.305,0.249,0.217,347.000,33.000,27.000,0.000,0.000,0.000:
0000
0000
0000
0000
,
0000
0000
0000
0000
0000
0000
0000
1000
,
2002
0000
0000
0000
,
3003
0000
0000
0000
0000
0000
0000
0010
,
2020
0000
0000
0000
,
3030
0000
0000
0000
0000
0000
0000
1000
,
2020
0000
0000
0000
,
3030
0000
1001
0110
,
1000
0100
0010
0100
1000
0100
0010
0100
,
1000
0010
0100
0001
1000
0010
0100
0001
,
0010
0100
1000
0001
0010
0100
1000
0001
,
0100
0010
1000
0010
0100
0010
0010
0010
,
0100
0001
0100
0010
0100
0001
0100
0010
,
1000
0100
1000
0001
1000
0100
1000
0001
,
0100
0010
0100
0001
0100
0010
0100
0001
,
0010
0100
1000
0001
0010
0100
0100
0100
,
1000
0010
0100
0001
1000
0010
0100
0001
,
0010
0100
0010
0001
0010
0100
0010
0001
,
0100
0010
0100
0001
0100
0010
0100
0001
,
0010
0100
1000
0001
0010
0100
0100
0100
,
1000
0001
1000
0010
0100
0001
1000
0010
,
0100
0010
0100
0001
1000
0010
0100
0001
,
1000
0100
0010
0001
1000
0100
0010
0001
,
1000
0001
0010
0100
1000
0010
0010
0010
,
1001
0000
0000
1000
1100
0000
0000
0001
,
0101
0000
0000
1000
1001
0000
0000
0001
,
0011
0000
0000
1000
1010
0000
0000
0010
,
0110
0000
0000
0010
0011
0000
0000
0100
,
1100
0000
0000
1000
1010
0000
0000
0001
,
0101
0000
0000
1000
1001
0001
1000
0001
,
1000
0001
1000
0001
0100
0001
0100
0001
,
1000
0100
1000
0100
0010
0001
0010
0001
,
0100
0001
0100
0001
0010
0100
0010
0100
,
1000
0000
0000
0000
0000
0000
0000
0000
0100
1000
0100
1000
0100
1000
0100
1000
,
0100
0000
1001
0000
,
1100
0101
1100
1001
,
1000
0000
0001
0000
1000
0000
0001
0000
1000
0001
1000
0001
1000
0001
1000
0001
,
1000
0000
0000
1000
0100
0000
0100
1000
0000
1000
0100
0000
0100
1000
0000
1000
,
0100
0000
0010
0001
0000
0001
0010
0000
0010
0001
0000
0001
0010
0000
0000
0000
,
0001
0100
0000
0100
0001
0000
0001
0100
0000
0100
0001
0000
0001
0100
0000
0100
,
0001
0000
1000
0010
0000
0010
1000
0000
1000
0010
0000
0010
1000
0000
0000
0000
,
0010
0100
0000
0100
0010
0000
0010
0100
0000
0100
0010
0000
0010
0100
0000
0100
,
0010
0000
0100
0001
0000
0001
0100
0000
0100
0001
0000
0100
0001
0000
0000
0000
,
1000
0100
0000
0100
1000
0000
1000
0100
0000
0100
1000
0000
1000
0100
0000
0100
,
1000
0000
0001
1000
0000
1000
0001
0000
0001
1000
0000
1000
0001
0000
0000
0000
,
0200
0000
0010
0001
0300
1100
0000
1001
,
0000
0200
0000
0000
0300
0000
0000
0000
,
0020
0000
0000
0000
1000
0000
0100
0030
0000
0000
1001
0000
0000
0000
0220
0000
,
0000
0000
0330
0000
0000
0010
0010
0010
,
0200
0000
0000
0000
0010
0000
1000
0300
0000
0000
0100
0000
0000
0000
1001
0000
,
0000
2200
0000
3300
0000
0000
0000
0000
,
0020
0000
0100
2000
0000
0000
3030
0000
,
0000
0000
1000
0020
0000
0001
0100
0030
,
1001
0000
0010
0010
0000
1000
0000
0200
,
0000
0002
0000
0303
0000
0000
0000
0000
,
0002
0000
0100
0100
0003
0010
0000
0202
,
0000
0000
0303
0000
0000
0100
0100
0100
,
0020
0000
0001
0100
0030
1001
0000
0110
,
0000
0020
0000
0000
0030
0000
0000
0000
,
2000
0000
0100
0200
0000
0000
3300
0000
,
0000
0000
0010
0200
0000
1300
0001
1001
;

//---------------dance-single - C. Foy----------------
#NOTES:
     dance-single:
     C. Foy:
     Beginner:
     1:
     0.104,0.000,0.083,0.000,0.000,70.000,9.000,0.000,0.000,0.000,0.000:

0000
0000
0000
0000
,
0000
0000
0000
0000
,
1001
0000
0000
0000
,
0000
0000
0000
0000
,
1001
0000
0000
0000
,
0000
0000
0000
0000
,
0110
0000
0000
0000
,
0000
0000
0000
0000
,
1000
0000
0000
0000
,
0001
0000
0000
0000
,
1000
0000
0000
0000
,
0100
0000
0000
0000
,
0010
0000
0000
0000
,
1000
0000
0001
0000
,
1000
0000
0001
0000
,
1000
0000
0000
0000
,
0010
0000
0000
0000
,
0100
0000
0000
0000
,
0001
0000
0000
0000
,
1000
0000
0000
0000
,
0100
0000
0000
0000
,
0010
0000
0000
0000
,
0100
0000
0000
0000
,
1000
0000
0000
0000
,
1001
0000
0000
0000
,
0000
0000
0000
0000
,
0110
0000
0000
0000
,
0001
0000
0001
0000
,
0001
0000
1000
0000
,
1000
0000
1000
0000
,
0000
0000
0001
0000
,
0000
0000
1000
0000
,
0000
0000
0010
0000
,
0010
0000
0000
0000
,
1001
0000
0000
0000
,
1001
0000
0000
0000
,
1001
0000
1001
0000
,
1000
0000
0000
0000
,
0001
0000
0000
0000
,
0100
0000
0000
0000
,
0010
0000
0000
0000
,
1000
0000
0000
0000
,
0001
0000
0000
0000
,
0010
0000
0000
0000
,
0001
0000
0000
0000
,
1000
0000
1000
0000
,
0000
0000
0000
0000
,
0001
0000
0001
0000
,
0000
0000
0000
0000
,
1000
0000
0001
0000
,
1000
0000
0000
0000
,
0010
0000
0100
0000
,
0010
0000
0000
0000
,
1000
1000
0000
0000
,
0010
0000
0010
0000
,
0100
0100
0000
0000
,
0001
0000
0001
0000
,
1000
0000
0001
0000
,
0001
0000
0000
0000
,
1000
0000
0100
0000
,
1000
0000
0001
0000
;

//---------------dance-double - M.Emirzian----------------
#NOTES:
     dance-double:
     M.Emirzian:
     Easy:
     3:
     0.193,0.000,0.037,0.000,0.000,142.000,4.000,0.000,0.000,0.000,0.000:
00000000
00000000
00000000
00000000
,
00000000
00000000
00000000
00000000
,
00000000
00000000
00000000
00000000
,
00000000
00000000
00000000
00000000
,
00010000
10000000
00000000
10000000
,
01000000
00000000
01000000
00100000
,
00000000
00100000
00001000
00000000
,
00010000
00001000
00011000
00011000
,
00010000
00000100
00000000
00000100
,
00001000
00000000
00001000
00000001
,
00000000
00000001
00000100
00000000
,
00000010
00001000
00000000
00001000
,
00000100
00000000
00010000
00001000
,
00000000
01000000
00010000
00000000
,
00000000
10000000
01000000
00000000
,
01000000
00100000
00000000
00100000
,
00001000
00000000
00001000
00010000
,
00000000
00010000
00000100
00000000
,
00000100
00000010
00000000
00000001
,
00001000
00000000
00000000
00000010
,
00001000
00000000
00001000
00000100
,
00000000
00000100
00010000
00000000
,
00010000
00001000
00000000
00001000
,
01000000
00000000
11000000
10010000
,
01000000
00000000
00000000
00000000
,
00001000
00000000
00000000
00000000
,
00010000
00000000
00000000
00000000
,
00000001
00000000
00000000
00000000
,
00001000
00000000
00000000
00000000
,
00000100
00000000
00010000
00000000
,
00001000
00000000
01000000
00000000
,
00010000
00000000
10000000
00000000
,
01000000
00000000
00100000
00000000
,
00010000
00000000
01000000
00001000
,
00010000
00000000
00000100
00000000
,
00000001
00000000
00001000
00000000
,
00000001
00000100
00000010
00010000
,
00001000
01000000
00000000
00010000
,
10000000
00000000
01000000
00100000
,
00000000
00010000
01000000
00000000
,
00001000
00010000
00000000
00000100
,
00001000
00000000
00000010
00000100
,
00000000
00000001
00001000
00000000
,
00000000
00001000
00000100
00000000
,
00000100
00010000
00000000
00010000
,
00001000
00000000
00001000
01000000
,
00000000
01000000
00010000
00000000
,
00010000
01000000
00000000
01000000
,
00100000
00000000
00000000
10000000
,
01000000
00100000
00000000
00100000
,
00010000
00000000
00010000
01000000
,
00000000
01000000
00001000
00000000
,
00001000
00010000
00000000
00010000
,
00000100
00000000
00000100
00001000
,
00000000
00001000
00000010
00000000
,
00000000
00000100
00000001
00000000
,
00000100
00000010
00000000
00001000
,
00000100
00000000
00010000
00001000
,
00000000
01000000
00010000
00000000
,
10000000
01000000
00000000
00100000
,
00010000
00000000
00000000
00000000
00100000
00000000
01000000
00100000
;

//---------------dance-double - M.Emirzian----------------
#NOTES:
     dance-double:
     M.Emirzian:
     Medium:
     6:
     0.385,0.000,0.092,0.055,0.000,276.000,10.000,6.000,0.000,0.000,0.000:
00000000
00000000
00000000
00000000
,
00000000
00000000
00000000
00000000
,
00000000
00000000
00000000
00000000
,
00000000
00000000
00000000
00000000
,
00010000
10000000
00000000
10000000
01000000
00000000
01000000
00100000
,
00000000
00100000
00010000
00000000
01000000
00001000
00010000
00000000
,
00001000
00010000
00000000
00010000
00000100
00000000
00000100
00001000
,
00000000
00001000
00000010
00000000
00000101
00000000
00001001
00000000
,
00000010
00001000
00000000
00000010
00010000
00000000
00001000
00010000
,
00000000
00001000
01000000
00000000
00010000
10000000
01000000
00000000
,
00100000
00010000
00000000
01000000
00001000
00000000
00010000
00001000
,
00000000
00010000
00000100
00000000
00001000
00000010
00000100
00000010
,
00001000
00000100
00000000
00000100
00000010
00000000
00000010
00000001
,
00000000
00000001
00000100
00000000
00000010
00001000
00000010
00000000
,
00001000
00000100
00000000
00000100
00010000
00000000
00010000
00001000
,
00000000
00001000
01000000
00000000
01000000
00010000
10000000
01000000
,
00100000
00010000
00000000
00100000
01000000
00000000
10000000
01000000
,
00000000
00010000
00001000
00000000
00010000
00000100
00001000
00000000
,
00000010
00000100
00000000
00000001
00001000
00000000
00000100
00000010
,
00000000
00000100
00001000
00000000
00000001
00000100
00000010
00001000
,
00000100
00010000
00000000
00010000
00001000
00000000
00001000
01000000
,
00000000
01000000
00100000
00000000
10000000
00100000
01000000
00000000
,
00010000
10000000
00000000
10000000
01000000
00000000
01000000
00010000
,
00000000
00010000
00001000
00000000
00011000
00000000
00010010
00000000
,
00001000
00000100
00000010
00000000
,
00000001
00001000
00000100
00000000
,
01000000
00010000
10000000
00000000
,
00000100
00010000
00001000
00000000
,
00000010
00001000
00000100
00000000
,
00100000
00010000
01000000
00100000
,
10000000
01000000
00100000
00001000
,
00000100
00000010
00000001
00000010
,
00001000
00000100
00010000
00001000
,
01000000
00000000
00010000
10000000
,
01000000
00000000
00000010
00000000
,
00001000
00000100
00000010
00000001
,
00001000
00000010
00001000
00000010
00000100
00000001
00000100
00000001
,
00001000
00000100
00000000
00010000
00001000
00000000
01000000
00010000
,
00000000
01000000
00100000
00000000
10000000
01000000
00100000
00000000
,
01000000
10000000
00000000
00010000
01000000
00000000
00001000
00010000
,
00000000
00000100
00001000
00000000
00000010
00000100
00000010
00001000
,
00000001
00000010
00000000
00000010
00000100
00000000
00000100
00010000
,
00000000
00010000
00001000
00000000
01000000
00010000
01000000
00000000
,
00100000
10000000
00000000
10000000
01000000
00000000
01000000
00100000
,
00000000
00100000
00010000
00000000
01000000
00001000
00010000
00001000
,
00010000
00000000
00000100
00001000
00000000
00000010
00000000
00000100
,
00000000
00002002
00000000
00000000
00000000
00003003
00000000
00000000
,
00000110
00000000
00000100
00010000
00000000
00001000
00000000
02002000
,
00000000
00000000
00000000
03003000
,
00100000
00000000
00010000
01000000
00000000
00100000
00000000
10000000
,
00000000
00220000
00000000
00000000
00000000
00000000
00330000
00000000
,
11000000
00000000
00100000
10000000
00000000
00000000
00000000
00000000
,
00110000
00000000
00100000
00001000
00000000
00001000
00010000
00000000
,
00000100
00001000
00000000
00000001
00000100
00000000
00000010
00001000
,
00000000
00000100
00010000
00000000
00001000
01000000
00001000
00000000
,
01000000
00010000
00000000
01000000
00100000
00000000
10000000
00100000
,
00000000
01000000
00100000
00000000
00010000
01000000
00010000
01000000
,
00001000
00010000
00000000
00010000
01000000
00000000
01000000
00010000
,
00000000
00010000
00001000
00000000
00000010
00000100
00001000
00000000
,
00000001
00000100
00000000
00000100
00001000
00000000
00001000
00010000
,
00000000
00010000
00100000
00000000
10000000
01000000
00100000
00010000
;

//---------------dance-double - M.Emirzian----------------
#NOTES:
     dance-double:
     M.Emirzian:
     Hard:
     9:
     0.639,0.000,0.185,0.000,0.624,464.000,20.000,0.000,0.000,0.000,0.000:
00000000
00000000
00000000
00000000
,
00000000
00000000
00000000
00000000
,
00000000
00000000
00000000
00000000
,
00000000
00000000
00000000
00000000
,
00010000
10000000
00000000
10000000
01000000
00000000
01000000
00100000
00000000
00000000
00010000
00000000
00010000
00000000
00000000
01000000
,
00001000
00000000
00001000
00010000
00000000
00010000
00000100
00000000
00001000
00000000
00000000
00000000
00000110
00000000
00000000
00000000
,
00000001
00000100
00000000
00000010
00001000
00000000
00000100
00001000
00000000
00000000
00000010
00000000
00000010
00000000
00000000
00010000
,
00001000
00000000
01000000
00010000
00000000
00100000
00010000
00000000
10010000
00000000
00000000
00000000
11000000
00000000
00000000
00000000
,
00100000
01000000
00000000
01000000
00010000
00000000
00010000
10000000
00000000
00000000
01000000
00000000
01000000
00000000
00000000
00100000
,
00010000
00000000
00010000
01000000
00000000
01000000
00001000
00000000
00010000
00000000
00000000
00000000
01001000
00000000
00000000
00000000
,
00001000
00010000
00000000
00000100
00001000
00000000
00000010
00001000
00000000
00000000
00000100
00000000
00000100
00000000
00000000
00000010
,
00000001
00000000
00000010
00000100
00000000
00001000
00000001
00000000
00000100
00000000
00000010
00000000
00000010
00000000
00000010
00000000
,
00001000
00000100
00000000
00000100
00010000
00000000
00010000
00001000
00000000
00000000
01000000
00000000
01000000
00000000
00000000
00010000
,
10000000
00000000
10000000
01000000
00000000
01000000
00100000
00000000
00010000
00000000
00000000
00000000
01010000
00000000
00000000
00000000
,
00010000
00100000
00000000
00001000
00100000
00000000
00001000
00010000
00000000
00000000
00000100
00000000
00000100
00000000
00000000
00001000
,
00000010
00000000
00000100
00000001
00000000
00000010
00000100
00000000
00001000
00000000
00000001
00000000
00000100
00000000
00000010
00000000
,
00001000
00000100
00000000
00000100
00010000
00000000
00010000
00001000
00000000
00000000
01000000
00000000
01000000
00000000
00000000
00010000
,
00100000
00000000
00100000
01000000
00000000
01000000
10000000
00000000
00010000
00000000
00000000
00000000
01010000
00000000
00000000
00000000
,
00100000
01000000
00000000
00010000
00100000
00000000
00001000
00010000
00000000
00000000
00100000
00000000
00100000
00000000
00000000
00010000
,
00100000
00000000
01000000
00001000
00000000
00010000
00001000
00000000
00000010
00000000
00000100
00000000
00001000
00000000
00000001
00000000
,
00000100
00000010
00000000
00000010
00001000
00000000
00001000
00000100
00000000
00000000
00000010
00000000
00000010
00000000
00000000
00000100
,
00010000
00000000
00010000
00001000
00000000
00001000
01000000
00000000
00100000
00000000
00000000
00000000
01001000
00000000
00000000
00000000
,
00100000
00010000
00000000
00010000
10000000
00000000
10000000
01000000
00000000
00000000
00100000
00000000
00100000
00000000
00000000
00001000
,
00010000
00000000
00010000
00000100
00000000
00000100
00001000
00000000
00001001
00000000
00000000
00000000
00000101
00000000
00000000
00000000
,
00000010
00001000
00000100
00001000
00000001
00000010
00001000
00010000
,
00001000
00000100
00001000
00010000
00100000
10000000
01000000
00100000
,
00010000
01000000
00100000
00010000
00001000
01000000
00100000
01000000
,
00001000
00010000
01000000
10000000
00100000
00010000
00001000
00000010
,
00000001
00001000
00000010
00000100
00001000
00010000
00000010
00000100
,
00001000
00010000
00000100
00000010
00000100
00010000
00100000
00010000
,
00001000
01000000
10000000
01000000
00010000
10000000
01000000
00100000
,
00001000
01000000
00100000
00010000
00001000
00000010
00000001
00001000
,
00000010
00010000
00100000
10000000
01000000
00100000
00000100
00000010
,
00000001
00000000
00000000
00000000
00000000
00000000
00000000
00000000
00001000
00000010
00001000
00000000
00000001
00000100
00000001
00000100
,
00000001
00000000
00001001
00000000
,
00001100
00010010
01001000
00110000
,
00100000
10000000
01000000
00010000
01000000
10000000
00100000
01000000
,
10000000
01000000
00000000
01000000
00010000
00000000
00010000
00001000
00000000
00000000
00000100
00000000
00000100
00000000
00000000
00000001
,
00001000
00000000
00001000
00000100
00000000
00000100
00000010
00000000
00000001
00000000
00000000
00000000
00001100
00000000
00000000
00000000
,
00000010
00001000
00000000
00000100
00010000
00000000
00001000
01000000
00000000
00000000
00100000
00000000
00100000
00000000
00000000
10000000
,
01000000
00000000
00010000
01000000
00000000
00010000
00001000
00000000
00010000
00000000
00001000
00000000
00000100
00000000
00000001
00000000
,
00000010
00000001
00000000
00000001
00000100
00000000
00000100
00001000
00000000
00000000
00010000
00000000
00010000
00000000
00000000
00001000
,
00010000
00000000
00010000
01000000
00000000
01000000
10000000
00000000
00010000
00000000
00000000
00000000
11000000
00000000
00000000
00000000
,
00100000
01000000
00000000
01000000
00001000
00000000
00001000
00010000
00000000
00000000
01000000
00000000
01000000
00000000
00000000
00010000
,
00001000
00000000
00001000
00000010
00000000
00000010
00000001
00000000
00000100
00000000
00000010
00000000
00000100
00000000
00001000
00000000
,
00000100
00000001
00000000
00000100
00001000
00000000
00010000
00001000
00000000
00000000
00010000
00000000
00010000
00000000
00000000
00100000
,
01000000
00000000
00010000
10000000
00000000
01000000
00100000
00000000
00010000
00000000
00000000
00000000
00101000
00000000
00000000
00000000
,
00010000
00000100
00000000
00010000
00001000
00000000
00000010
00000100
00000000
00000000
00001000
00000000
00001000
00000000
00000000
00000001
,
00000100
00000000
00000010
00001000
00000000
00000100
00010000
00000000
00001000
00000000
00000100
00000000
00001000
00000000
00010000
00000000
,
00001000
01000000
00000000
01000000
00010000
00000000
00010000
10000000
00000000
00000000
01000000
00000000
01000000
00000000
00000000
00100000
,
00010000
00000000
00010000
01000000
00000000
01000000
00001000
00000000
00010000
00000000
00000000
00000000
00010100
00000000
00000000
00000000
,
00001000
00000100
00000000
00000001
00000100
00000000
00000010
00001000
00000000
00000000
00000100
00000000
00000100
00000000
00000000
00010000
,
00001000
00000000
01000000
00100000
00000000
01000000
00010000
00000000
10000000
00000000
01000000
00000000
00100000
00000000
00010000
00000000
,
01000000
10000000
00000000
10000000
01000000
00000000
01000000
00010000
00000000
00000000
00100000
00000000
00100000
00000000
00000000
10000000
,
01000000
00000000
01000000
00010000
00000000
00010000
00001000
00000000
00000100
00000000
00000000
00000000
00000101
00000000
00000000
00000000
,
00000010
00000100
00000000
00001000
00000001
00000000
00000100
00001000
00000000
00000000
00010000
00000000
00010000
00000000
00000000
00001000
,
01000000
00000000
00001000
00010000
00000000
01000000
00100000
00000000
00010000
00000000
01000000
00000000
00100000
00000000
10000000
00000000
,
01000000
00100000
00000000
00100000
00001000
00000000
00001000
00000100
00000000
00000000
00000001
00000000
00000001
00000000
00000000
00000010
,
00001000
00000000
00001000
00000100
00000000
00000100
00010000
00000000
00100000
00000000
00000000
00000000
10100000
00000000
00000000
00000000
,
10000000
01000000
00000000
01000000
00010000
00000000
00010000
00001000
00000000
00000000
00000100
00000000
00000100
00000000
00000000
00000001
,
00001000
00000000
00001000
00000100
00000000
00000100
00000010
00000000
00000001
00000000
00000100
00000000
00001000
00000000
00010000
00000000
;

//---------------dance-double - M.Emirzian----------------
#NOTES:
     dance-double:
     M.Emirzian:
     Challenge:
     11:
     0.817,0.000,0.092,0.000,1.000,609.000,10.000,0.000,0.000,0.000,0.000:
00000000
00000000
00000000
00000000
,
00000000
00000000
00000000
00000000
,
00000000
00000000
00000000
00000000
,
00000000
00000000
00000000
00000000
,
10000000
01000000
00000000
10000000
00010000
00000000
10000000
00100000
00000000
10000000
00010000
00000000
01000000
00100000
00000000
01000000
,
00010000
00000000
01000000
00001000
00000000
00010000
00000010
00000000
00010000
00001000
00000000
00010000
00000100
00000000
00001000
00000000
,
00000010
00000100
00000000
00000010
00001000
00000000
00000001
00000010
00000000
00000001
00001000
00000000
00000001
00000100
00000000
00000010
,
00001000
00000000
00000001
00000010
00000000
00000100
00001000
00000001
00000110
00000000
00000000
00000000
00011000
00000000
00000000
00000000
,
00001000
00010000
00000000
00010000
00100000
00000000
00100000
10000000
00000000
10000000
01000000
00000000
01000000
00100000
00000000
00100000
,
00010000
00000000
00010000
01000000
00000000
01000000
00001000
00000000
00001000
00010000
00000000
00010000
00000100
00000000
00001000
00000000
,
00000010
00001000
00000000
00000001
00000100
00000000
00000010
00001000
00000000
00000100
00010000
00000000
00001000
01000000
00000000
00010000
,
00100000
00000000
01000000
10000000
00000000
00100000
00010000
00000000
00100000
01000000
00010000
00000000
00010000
00000000
00010000
00000000
,
10000000
01000000
00000000
01000000
00100000
00000000
00100000
00000010
00000000
00000010
00010000
00000000
00010000
00001000
00000000
00001000
,
00000010
00000000
00000010
00001000
00000000
00001000
00010000
00000000
00010000
00001000
00000000
00001000
00000100
00000000
00000001
00000000
,
00000010
00000001
00000000
00001000
00000010
00000000
00000100
00000001
00000000
00000010
00000100
00000000
00010000
00001000
00000000
01000000
,
00100000
00000000
01000000
00010000
00000000
00100000
01000000
00000000
00010000
00001000
00010000
00000000
00010000
00000000
00010000
00000000
,
00100000
10000000
00000000
10000000
01000000
00000000
01000000
00010000
00000000
00010000
00001000
00000000
00001000
00000010
00000000
00000010
,
00001000
00000000
00001000
00010000
00000000
00010000
00000100
00000000
00000100
01000000
00000000
01000000
00001000
00000000
00010000
00000000
,
00001000
00010000
00000000
00000100
00001000
00000000
00000001
00000100
00000000
00000010
00001000
00000000
00000100
00010000
00000000
00001000
,
00100000
00000000
00010000
01000000
00000000
00100000
10000000
00000000
01000000
00100000
00010000
00000000
00010000
00000000
00010000
00000000
,
01000000
00100000
00000000
00100000
00010000
00000000
00010000
00000010
00000000
00000010
00000001
00000000
00000001
00001000
00000000
00001000
,
00000100
00000000
00000100
00000001
00000000
00000001
00000010
00000000
00000010
00000100
00000000
00000100
00010000
00000000
00100000
00000000
,
00010000
00001000
00000000
00000100
00001000
00000000
00010000
00001000
00000000
00010000
01000000
00000000
00010000
00001000
00000000
00000010
,
00001000
00000000
00010000
00001000
00000000
00010000
00100000
01000000
10010000
00000000
00000000
00000000
00011000
00000000
00000000
00000000
,
00000001
00000000
00000010
00000100
00001000
00000000
00000001
00000100
00001000
00000000
00000100
00000010
00010000
00000000
00000100
00000010
,
00001000
00000000
00100000
00010000
01000000
00000000
00100000
00010000
00001000
00000000
00100000
01000000
10000000
00000000
00010000
01000000
,
00100000
00000000
01000000
00100000
00010000
00000000
00001000
00100000
01000000
00000000
10000000
01000000
00100000
00000000
00010000
01000000
,
00001000
00000000
00010000
00000100
00001000
00000000
00000010
00000100
00001000
00000000
00010000
00001000
00000100
00000000
00000010
00001000
,
00000001
00000000
00000100
00000010
00001000
00000000
00000001
00000010
00001000
00000000
00000010
00000100
00010000
00000000
00001000
01000000
,
00100000
00000000
01000000
00010000
10000000
00000000
01000000
10000000
01000000
10000000
00100000
10000000
00100000
10000000
00100000
00010000
,
00100000
00010000
00001000
00010000
00001000
00000010
00001000
00000010
00000001
00000100
00000001
00000100
00001000
00000100
00001000
00010000
,
00001000
00010000
00100000
00010000
00100000
10000000
01000000
10000000
01000000
00010000
01000000
00010000
00001000
00010000
00001000
00000100
,
00000001
00000100
00000001
00000010
00001000
00000010
00001000
00010000
00100000
00010000
00100000
10000000
00100000
10000000
01000000
00100000
,
00010000
00000000
00000000
00000000
00000000
00000000
00000000
00000000
10000000
01000000
00010000
00001000
00010000
01000000
10000000
01000000
,
10000000
00010000
00000000
00000000
00000000
00000000
00000000
00000000
00000000
00000000
00000000
00000000
00000000
00000000
00000000
00000000
01000000
00100000
00000000
00000000
00000000
00000000
00000000
00000000
00000000
00000000
00000000
00000000
00000000
00000000
00000000
00000000
,
01000100
00011000
01000010
00011000
,
00001000
00000000
00000010
00000000
00000001
00000000
00001000
00000000
00000010
00000100
00000001
00000100
00000001
00000100
00000001
00000100
,
00000010
00001000
00000000
00001000
00000100
00000000
00000100
00010000
00000000
00010000
00100000
00000000
00100000
00010000
00000000
00010000
,
00000100
00000000
00000100
00000010
00000000
00000010
00001000
00000000
00001000
00100000
00000000
00100000
01000000
00000000
00010000
00000000
,
00001000
01000000
00000000
00100000
10000000
00000000
01000000
00100000
00000000
00000100
00001000
00000000
00100000
00010000
00000000
00001000
,
00000010
00000000
00000100
00001000
00000000
00000100
00010000
00000000
00001000
00000100
00000010
00000000
00000010
00000000
00000010
00000000
,
00001000
00000100
00000000
00000100
01000000
00000000
01000000
00001000
00000000
00001000
00000100
00000000
00000100
00001000
00000000
00001000
,
00100000
00000000
00100000
01000000
00000000
01000000
00010000
00000000
00010000
00000100
00000000
00000100
00000001
00000000
00000100
00000000
,
00001000
00000010
00000000
00000100
00000001
00000000
00000100
00001000
00000000
00010000
00001000
00000000
00010000
00100000
00000000
10000000
,
00010000
00000000
01000000
00001000
00000000
01000000
00100000
00000000
01000000
00010000
10000000
00000000
10000000
00000000
10000000
00000000
,
01000000
00100000
00000000
00100000
00001000
00000000
00001000
00000010
00000000
00000010
00000100
00000000
00000100
00100000
00000000
00100000
,
01000000
00000000
01000000
00010000
00000000
00010000
00000010
00000000
00000010
00000100
00000000
00000100
00000001
00000000
00001000
00000000
,
00000010
00000100
00000000
00000001
00000100
00000000
00001000
00000100
00000000
00001000
00010000
00000000
01000000
00010000
00000000
00000100
,
00001000
00000000
00100000
00010000
00000000
00100000
10000000
00000000
01000000
00100000
00010000
00000000
00010000
00000000
00010000
00000000
,
01000000
00100000
00000000
00100000
00010000
00000000
00010000
00000010
00000000
00000010
01000000
00000000
01000000
00001000
00000000
00001000
,
00010000
00000000
00010000
01000000
00000000
01000000
00010000
00000000
00010000
00000010
00000000
00000010
00000100
00000000
00000001
00000000
,
00001000
00000100
00000000
00000010
00000100
00000000
00010000
00001000
00000000
01000000
00100000
00000000
00010000
00001000
00000000
00000010
,
00000100
00000000
00010000
00001000
00000000
01000000
00100000
00000000
10000000
00010000
00100000
00000000
00100000
00000000
00100000
00000000
,
01000000
10000000
00000000
10000000
00100000
00000000
00100000
00010000
00000000
00010000
01000000
00000000
01000000
00010000
00000000
00010000
,
00001000
00000000
00001000
00000010
00000000
00000010
00001000
00000000
00001000
00010000
00000000
00010000
00000010
00000000
00000100
00000000
,
00000001
00000010
00000000
00001000
00000010
00000000
00000100
00010000
00000000
00001000
01000000
00000000
00100000
00010000
00000000
00100000
,
01000000
00000000
00001000
00010000
00000000
01000000
00100000
00000000
00010000
10000000
01000000
00000000
01000000
00000000
01000000
00000000
,
10000000
01000000
00000000
01000000
00010000
00000000
00010000
00100000
00000000
00100000
00010000
00000000
00010000
00001000
00000000
00001000
,
00000100
00000000
00000100
00001000
00000000
00001000
00100000
00000000
00100000
00001000
00000000
00001000
00000010
00000000
00000001
00000000
,
00000100
00000010
00000000
00100000
00010000
00000000
00000100
00001000
00000000
00010000
00000100
00000000
00010000
00100000
00000000
00010000
,
01000000
00000000
00010000
00100000
00000000
10000000
01000000
00000000
00100000
00010000
01000000
00000000
01001000
00000000
00011000
00000000
;
