#TITLE:PA Theme;
#SUBTITLE:;
#ARTIST:MC Frontalot;
#TITLETRANSLIT:;
#SUBTITLETRANSLIT:;
#ARTISTTRANSLIT:;
#GENRE:;
#CREDIT:;
#BANNER:Pa Theme Song-banner.png;
#BACKGROUND:PA Theme Song-bg.png;
#LYRICSPATH:;
#CDTITLE:;
#MUSIC:MC Frontalot - PA theme.ogg;
#OFFSET:-0.198;
#SAMPLESTART:89.788;
#SAMPLELENGTH:14.000;
#SELECTABLE:YES;
#BPMS:0.000=142.003;
#STOPS:;
#BGCHANGES:0.000=PA Theme Song-bg.png=1.000=0=0=1=====,
20.000=-random-=1.000=0=0=1=====,
36.000=-random-=1.000=0=0=1=====,
52.000=-random-=1.000=0=0=1=====,
68.000=-random-=1.000=0=0=1=====,
84.000=-random-=1.000=0=0=1=====,
100.000=-random-=1.000=0=0=1=====,
116.000=-random-=1.000=0=0=1=====,
132.000=-random-=1.000=0=0=1=====,
148.000=-random-=1.000=0=0=1=====,
164.000=-random-=1.000=0=0=1=====,
180.000=-random-=1.000=0=0=1=====,
196.000=-random-=1.000=0=0=1=====,
212.000=-random-=1.000=0=0=1=====,
228.000=-random-=1.000=0=0=1=====,
244.000=-random-=1.000=0=0=1=====,
260.000=-random-=1.000=0=0=1=====,
276.000=-random-=1.000=0=0=1=====,
291.000=PA Theme Song-bg.png=1.000=0=0=1=====,
99999=-nosongbg-=1.000=0=0=0 // don't automatically add -songbackground-
;
#KEYSOUNDS:;
// cache tags:
#FIRSTBEAT:20.000;
#LASTBEAT:292.000;
#SONGFILENAME:/Songs/In The Groove/PA Theme/MC Frontalot - PA Theme.sm;
#HASMUSIC:1;
#HASBANNER:1;
#MUSICLENGTH:124.856;
// end cache tags

//---------------dance-double - M. Emirzian----------------
#NOTES:
     dance-double:
     M. Emirzian:
     Easy:
     2:
     0.096,0.000,0.000,0.008,0.000,83.000,0.000,1.000,0.000,0.000,0.000:


00000000
00000000
00000000
00000000
,
00000000
00000000
00000000
00000000
,
00000000
00000000
00000000
00000000
,
00000000
00000000
00000000
00000000
,
00000000
00000000
00000000
00000000
,
10000000
00000000
00000000
00000000
,
01000000
00000000
00100000
00000000
,
00001000
00000000
00000000
00000000
,
00010000
00000000
00000000
00000000
,
00000100
00000000
00000010
00000000
,
00000001
00000000
00000000
00000000
,
00000100
00000000
00000000
00000000
,
00001000
00000000
00000010
00000000
,
00010000
00000000
00001000
00000000
,
01000000
00000000
00000000
00000000
,
00100000
00000000
00000000
00000000
,
10000000
00000000
00000000
00000000
,
00001000
00000000
00000000
00000000
,
00000001
00000000
00000100
00000000
,
00001000
00000000
00000000
00000000
,
00010000
00000000
00000000
00000000
,
10000000
00000000
00000000
00000000
,
00010000
00000000
00000000
00000000
,
00000010
00000000
00000000
00000000
,
00010000
00000000
00000000
00000000
,
01000000
00000000
00000000
00000000
,
00010000
00000000
00001000
00000000
,
00000100
00000000
00000000
00000000
,
00000001
00000000
00000000
00000000
,
00010000
00000000
00000000
00000000
,
00100000
00000000
00000000
00000000
,
10000000
00000000
00000000
00000000
,
00001000
00000000
00000000
00000000
,
00000001
00000000
00000010
00000000
,
00001000
00000000
00000000
00000000
,
00010000
00000000
00000000
00000000
,
00100000
00000000
00000000
00000000
,
10000000
00000000
00000000
00000000
,
00001000
00000000
00000000
00000000
,
00010000
00000000
00001000
00000000
,
00000010
00000000
00000000
00000000
,
00000001
00000000
00000000
00000000
,
00001000
00000000
00000000
00000000
,
00010000
00000000
00000000
00000000
,
10000000
00000000
01000000
00000000
,
00010000
00000000
00000000
00000000
,
00001000
00000000
00000000
00000000
,
00000001
00000000
00000000
00000000
,
00000100
00000000
00001000
00000000
,
00010000
00000000
00000000
00000000
,
10000000
00000000
00000000
00000000
,
00001000
00000000
00000100
00000000
,
00000001
00000000
00000000
00000000
,
00010000
00000000
00000000
00000000
,
01000000
00000000
00000000
00000000
,
00100000
00000000
00000000
00000000
,
00000001
00000000
00000000
00000000
,
00001000
00000000
00000000
00000000
,
01000000
00000000
00000000
00000000
,
00001000
00000000
00010000
00000000
,
00000010
00000000
00000000
00000000
,
00000001
00000000
00000000
00000000
,
00000100
00000000
00000000
00000000
,
00010000
00000000
00000000
00000000
,
10000000
00000000
00000000
00000000
,
00010000
00000000
00000000
00000000
,
00001000
00000000
00000000
00000000
,
00000001
00000000
00000000
00000000
,
00000100
00000000
00001000
00000000
,
00010000
00000000
00000000
00000000
,
00001000
00000000
00010000
00000000
,
01000000
00000000
00000000
00000000
,
01000000
00000000
00200000
00300000
;

//---------------dance-double - M. Emirzian----------------
#NOTES:
     dance-double:
     M. Emirzian:
     Medium:
     3:
     0.164,0.000,0.000,0.008,0.000,142.000,0.000,1.000,0.000,0.000,0.000:


00000000
00000000
00000000
00000000
,
00000000
00000000
00000000
00000000
,
00000000
00000000
00000000
00000000
,
00000000
00000000
00000000
00000000
,
00000000
00000000
00000000
00000000
,
00000000
10000000
00000000
01000000
,
00000000
00010000
00001000
00010000
,
00000000
00000100
00000000
00000010
,
00000000
00000001
00001000
00000001
,
00000000
00000100
00000000
00000000
,
00001000
00000000
01000000
00010000
,
01000000
00000000
00100000
00000000
,
10000000
00000000
01000000
00000000
,
00100000
00000000
00001000
00000000
,
00010000
00000000
00000000
00000000
,
00000100
00000000
00000010
00000000
,
00000001
00000000
00000000
00000000
,
00010000
00000000
00001000
00000000
,
01000000
00000000
00000000
00000000
,
00010000
00000000
00100000
00000000
,
10000000
00000000
00000000
00000000
,
00001000
00000000
00000010
00000000
,
00000001
00000000
00000000
00000000
,
00001000
00000000
00000100
00000000
,
00010000
00000000
00000000
00000000
,
00001000
00000000
00000000
00000000
,
01000000
00000000
00100000
00000000
,
10000000
00000000
01000000
00000000
,
00010000
00000000
00001000
00000000
,
00010000
00000000
00001000
00000000
,
00000010
00000000
00000001
00000000
,
00001000
00000000
00000010
00000000
,
00000100
00000000
00000001
00000000
,
00000100
00000000
00000000
00000000
,
00000010
00000000
00010000
00000000
,
00001000
01000000
00001000
00000000
,
00010000
00000000
00100000
00000000
,
10000000
01000000
10000000
00000000
,
00100000
00000000
01000000
00001000
,
00010000
00000010
00000000
00000000
,
00001000
00000000
00000000
00000000
,
00000100
00000000
00000010
00000000
,
00000001
00000000
00001000
00000000
,
00000010
00000000
00010000
00000000
,
00001000
01000000
00100000
00000000
,
10000000
00000000
01000000
00000000
,
00100000
00000000
00000000
00000000
,
00001000
00000000
00000100
00000000
,
00000001
00000000
00001000
00000000
,
00000000
00000100
00000000
00010000
,
00000000
00001000
00010000
00001000
,
00000000
00100000
00000000
01000000
,
00000000
10000000
00010000
10000000
,
00000000
00100000
00000000
00010000
,
00000000
00001000
00010000
00001000
,
00000000
00000010
00000000
00000001
,
00000000
00001000
00000100
00000010
,
00000000
00000001
00000000
00000100
,
00000000
00001000
00010000
00001000
,
00000000
01000000
00000000
00100000
,
00000000
10000000
00100000
01000000
,
00000000
00001000
00000000
00010000
,
00000100
00000010
00000000
00000000
,
00000000
00000001
00001000
00000000
,
00000100
00000000
00000100
00010000
,
00000000
00001000
00000000
01000000
,
00000000
01000000
00100000
10000000
,
00000000
01000000
00000000
00100000
,
00000000
00001000
00010000
00000100
,
00000000
00000010
00000000
00000001
,
00000000
00000100
00000010
00010000
,
00000000
00001000
00000000
00010000
,
00000000
01000000
20000000
30000000
;

//---------------dance-double - M. Emirzian----------------
#NOTES:
     dance-double:
     M. Emirzian:
     Hard:
     5:
     0.286,0.000,0.000,0.008,0.000,249.000,0.000,1.000,0.000,0.000,0.000:


00000000
00000000
00000000
00000000
,
00000000
00000000
00000000
00000000
,
00000000
00000000
00000000
00000000
,
00000000
00000000
00000000
00000000
,
00000000
00000000
00000000
00000000
,
00010000
10000000
01000000
10000000
,
00100000
00000000
01000000
00000000
00001000
00010000
00000010
00000000
,
00001000
00000100
00001000
00000001
,
00000010
00000000
00000100
00000000
00001000
00000010
00010000
00000000
,
00001000
01000000
00010000
10000000
,
00010000
00000000
00100000
00000000
01000000
10000000
00010000
00000000
,
01000000
00001000
00010000
00000010
,
00001000
00000000
00000100
00000000
00000010
00000001
00001000
00000000
,
00000010
00010000
00000000
00001000
,
00000000
01000000
00000000
00100000
,
10000000
00000000
00100000
01000000
,
00000000
00001000
00000000
00010000
,
00000000
00000010
00001000
00000100
,
00000000
00000010
00000000
00000001
,
00001000
00000010
00010000
00000000
,
00001000
01000000
00010000
00000000
,
00100000
01000000
10000000
00010000
,
00100000
00001000
00010000
00000000
,
00001000
01000000
00001000
00000000
,
00010000
00000010
00001000
00000000
,
00000100
00000010
00000001
00000000
,
00001000
00000100
00010000
00001000
,
01000000
00000000
00100000
00000000
,
01000000
00001000
00010000
00000000
,
00000100
00000010
00000001
00000010
,
00000100
00000000
00010000
00001000
,
00100000
00000000
01000000
00000000
,
10000000
01000000
00100000
00001000
,
00000000
00010000
00000000
00000100
,
00000000
00001000
00000010
00000100
,
00000001
00000010
00000100
00000000
,
00010000
00001000
01000000
00010000
,
00000000
00100000
00000000
01000000
,
00000000
10000000
00010000
00100000
,
00000000
00001000
00000000
00010000
,
00000000
00000010
00000100
00000001
,
00000000
00001000
00000000
00000100
,
00000000
00010000
00001000
01000000
,
00000000
00100000
00000000
10000000
,
00000000
00010000
00100000
00001000
,
00010000
00000010
00000000
00001000
,
00000000
00000100
00000000
00000010
,
00000001
00000100
00000010
00000000
,
00010000
00000000
00001000
00000000
01000000
00010000
00100000
01000000
,
10000000
00100000
01000000
00001000
,
00100000
00000000
00001000
00000000
00010000
00000010
00001000
00000000
,
00000100
00000010
00000001
00000010
,
00000100
00000000
00010000
00000000
00001000
01000000
00010000
00000000
,
00100000
01000000
10000000
00100000
,
01000000
00000000
00001000
00000000
00010000
00000010
00001000
00000000
,
00000100
00000010
00000001
00000010
,
00000001
00000000
00001000
00000000
00000010
00010000
00001000
00000000
,
01000000
00010000
01000000
00100000
,
10000000
00000000
00010000
00000000
00100000
01000000
10000000
00000000
,
01000000
00100000
00001000
00010000
,
00000010
00000000
00001000
00000000
00000100
00000010
00000001
00000000
,
00001000
00000100
00001000
00000001
,
00000100
00000000
00000010
00000000
00010000
00001000
01000000
00000000
,
00100000
10000000
00010000
00100000
,
01000000
00000000
10000000
00000000
00100000
01000000
00001000
00000000
,
00010000
00000010
00001000
00000100
,
00000010
00000000
00000001
00000000
00000100
00000010
00010000
00000000
,
00001000
01000000
00001000
00010000
,
01000000
00000000
10000000
00000000
00010000
01000000
00100000
00000000
,
10000000
01000000
00100000
00001000
,
00010000
00000000
00000010
00000000
00001000
00000100
00000010
00000000
,
00000001
00000100
00000010
00010000
,
00001000
00000000
01000000
00000000
00100000
10000000
02000000
00000000
,
03000000
00000000
00000000
00000000
;

//---------------dance-single - K. Ward----------------
#NOTES:
     dance-single:
     K. Ward:
     Hard:
     6:
     0.429,0.000,0.184,0.232,0.000,323.000,23.000,29.000,0.000,0.000,0.000:



0000
0000
0000
0000
,
0000
0000
0000
0000
,
0000
0000
0000
0000
,
0000
0000
0000
0000
,
0000
0000
0000
0000
,
0001
0000
1000
0000
0100
1000
0010
0100
,
0000
0100
0001
0010
0001
0000
0001
0000
,
1000
0000
0100
0000
1000
0100
1000
0010
,
0000
0010
0100
0001
0010
0000
0011
0000
,
1000
0010
0100
0001
,
0100
0000
0010
0000
1000
0000
0001
0010
,
0010
0001
1000
0010
,
1000
0000
0100
0000
0010
0001
0100
0010
,
1000
0010
0110
0000
,
0001
0010
0011
0000
,
1000
0100
1000
0010
0100
0001
0010
0001
,
0200
0010
0301
0010
,
1000
0010
1000
0100
,
0010
0001
0200
1000
,
0310
0000
1000
0000
0001
0000
0010
0100
,
0010
0001
2000
0100
,
3001
0010
0100
0010
,
1000
0010
0100
0010
,
1000
0100
1000
0001
,
0010
0000
0001
0000
0001
0010
0001
0100
,
0010
1000
0010
0100
,
1000
0100
0001
1000
,
0200
0000
0000
0000
0310
0000
0000
0001
,
0001
1000
0110
1001
,
1000
0010
0100
0001
,
0010
0000
0001
0010
0011
0000
0000
0000
,
1000
0010
0100
0001
,
0100
0010
1000
0010
,
0010
0100
0010
1000
0010
0100
0010
1000
,
0010
0100
0010
0100
0020
0000
0100
0000
,
0130
0010
0100
0001
0100
0010
0100
0001
,
0100
0010
0100
0010
2000
0000
0010
0000
,
3100
0001
0010
0001
,
1000
0010
0100
0010
,
1000
0100
1000
0010
0100
0001
0010
0001
,
1000
0100
0010
0001
,
1000
1000
0010
0010
,
0100
0100
0001
0002
,
1000
0103
0020
0001
,
0230
1000
1300
0000
,
1000
0100
1000
0100
1000
0010
0100
0010
,
0100
0001
0010
0001
0020
0000
0000
0031
,
0100
0010
1000
0011
,
1000
0001
0200
0001
,
0310
0000
1000
0000
0100
1000
0100
2000
,
0000
0010
3100
0000
0011
0000
1100
0000
,
0020
0000
0000
0130
0002
0000
0000
0013
,
0001
0100
0000
0010
1100
1100
0000
0000
,
0001
0000
0100
0000
0010
1000
0100
2000
,
0000
3100
0011
1100
,
0020
0000
0000
0130
0002
0000
0000
0013
,
0001
0010
0000
0100
0110
0000
0000
0000
,
1000
0010
0020
0000
0130
0001
0002
0000
,
0013
0001
2000
0100
3200
0000
1300
0000
,
0020
0100
0130
0000
0002
0010
0013
0000
,
0001
1000
0100
1000
0100
0000
1100
0000
,
0011
0001
0001
0001
,
0010
0001
0001
0011
,
0110
0010
0010
0010
,
0100
0010
0010
0110
,
1100
0100
0100
0100
,
1000
0100
0100
1100
,
1001
0001
0001
0001
,
0100
0000
0001
0000
0010
0100
1000
0010
,
2000
3100
0020
0130
,
0002
0000
0013
0000
0001
0100
0010
1000
,
2000
3100
0020
0130
,
2000
0000
3010
0000
0100
0010
0110
0000
;

//---------------dance-single - K. Ward----------------
#NOTES:
     dance-single:
     K. Ward:
     Medium:
     4:
     0.273,0.000,0.176,0.048,0.000,211.000,22.000,6.000,0.000,0.000,0.000:


0000
0000
0000
0000
,
0000
0000
0000
0000
,
0000
0000
0000
0000
,
0000
0000
0000
0000
,
0000
0000
0000
0000
,
1000
0001
0200
0000
,
0310
1000
1000
0001
,
1000
0010
0200
0000
,
0310
0010
0100
0000
,
0011
0011
0011
0000
,
1000
0000
0010
0000
,
1100
1100
1100
0000
,
0100
0000
0010
0001
,
0011
0000
0100
0000
,
0010
0000
1000
0000
,
0001
0001
0010
0010
,
0001
0001
1000
1000
,
0002
0000
0103
0000
,
0020
0000
1030
0000
,
0100
1000
0010
0100
,
0001
0001
1000
0000
,
2000
0000
3010
0000
,
0200
0000
0301
0000
,
0010
0001
0100
0010
,
1000
1000
1100
0000
,
0010
0000
0100
0000
,
0010
0000
0100
0000
,
0010
0000
0100
0000
,
0001
0001
0001
0000
,
1000
0100
1000
0000
,
0010
1000
0010
0000
,
1000
0010
0100
0001
,
0100
0010
1000
0010
,
0100
0100
0100
0100
,
0100
0100
0100
0000
,
0010
0010
0010
0010
,
0010
0010
0010
0000
,
1000
0000
0100
0000
,
0010
0000
0001
0001
,
1000
0010
0010
1000
,
0001
0001
1001
0000
,
1000
0100
1000
0010
,
1000
0100
1000
0010
,
0110
0000
1100
0000
,
0011
0000
0110
0010
,
1100
0000
0110
0000
,
1100
0100
1100
0000
,
0010
0100
0001
0010
,
0001
0001
0100
0010
,
1000
0000
0010
0000
,
1000
0010
1100
0000
,
0001
0000
0100
0000
,
0001
0010
0011
0000
,
1000
0000
0100
0000
,
1000
1000
1100
0000
,
0001
0000
0010
0000
,
0001
0001
0011
0000
,
1000
0100
1000
0010
,
0100
0001
0010
0001
,
0100
0010
1000
0100
,
1000
0010
0110
0000
,
0001
1000
1000
1000
,
1000
1000
1000
0010
,
0100
0100
0100
0100
,
0100
0100
0100
0001
,
0010
0010
0010
0010
,
0010
0010
0010
0001
,
1000
1000
1000
1000
,
1000
1000
1000
0010
,
1000
0000
0100
0000
,
1000
0000
0010
0100
,
0001
0000
0010
0000
,
0001
0100
0001
0001
;

//---------------dance-single - K. Ward----------------
#NOTES:
     dance-single:
     K. Ward:
     Easy:
     2:
     0.153,0.000,0.056,0.000,0.000,127.000,7.000,0.000,0.000,0.000,0.000:


0000
0000
0000
0000
,
0000
0000
0000
0000
,
0000
0000
0000
0000
,
0000
0000
0000
0000
,
0000
0000
0000
0000
,
0000
1000
0000
0100
,
0000
1000
0010
0000
,
0000
1000
0000
0010
,
0000
1000
0010
0000
,
1000
0000
1000
0000
,
1000
0000
0000
0000
,
0001
0000
0001
0000
,
0001
0000
0000
0000
,
0110
0000
0010
0000
,
0010
0000
1000
1000
,
0100
0000
0100
0000
,
0100
0000
0100
0000
,
1000
1000
1000
0000
,
1000
1000
1000
0000
,
0001
0000
0100
0000
,
0001
0000
0100
0000
,
0001
0001
0001
0000
,
1000
0000
1000
0000
,
1000
0000
0010
0000
,
0100
0000
0001
0000
,
1000
0000
0000
0000
,
0100
0000
0000
0000
,
1000
0000
0100
0000
,
1000
0000
0001
0000
,
1000
1000
0000
0000
,
0010
0010
0000
0000
,
1000
1000
0000
0000
,
0010
0000
0010
0000
,
0100
0000
0000
0000
,
0001
0000
0000
0000
,
1000
0000
0000
0000
,
0100
0000
0100
0000
,
1000
0000
0000
0000
,
0010
0000
0000
0000
,
0100
0000
0100
0000
,
0001
0000
0000
0000
,
1000
0000
0010
0000
,
0010
0000
1000
0000
,
1000
0000
0000
0000
,
0001
0000
0000
0000
,
0100
0000
0100
0000
,
0010
0000
0010
0000
,
1000
0000
0100
0000
,
1000
0000
0001
0000
,
1000
1000
1000
0000
,
0010
0000
1000
0000
,
0001
0001
0001
0000
,
0100
0000
0001
0000
,
0100
0100
0100
0000
,
0010
0000
1000
0000
,
0010
0010
0010
0000
,
0100
0000
0001
0000
,
0000
0001
0000
0100
,
0000
0001
1000
0001
,
0000
0100
0000
0010
,
0000
1000
0000
1000
,
1100
0000
0000
0000
,
0000
0000
0000
1000
,
1100
0000
0000
0000
,
0000
0000
0000
0001
,
0011
0000
0000
0000
,
0000
0000
0000
0001
,
0011
0000
0000
0000
,
0000
0000
0000
0100
,
0110
0000
0010
0000
,
0010
0000
0010
0100
,
0110
0000
0001
0000
,
0010
0000
0001
0001
;

//---------------lights-cabinet - ----------------
#NOTES:
     lights-cabinet:
     :
     Easy:
     1:
     0.906,0.000,1.000,0.232,0.000,388.000,221.000,29.000,0.000,159.000,0.000:


00000000
00000000
00000000
00000000
,
00000000
00000000
00000000
00000000
,
00000000
00000000
00000000
00000000
,
00000000
00000000
00000000
00000000
,
00000000
00000000
00000000
00000000
,
00010011
00000000
10000000
00000011
01000000
10000000
00100011
01000000
,
00000000
01000011
00010000
00100000
00010011
00000000
00010011
00000000
,
10000011
00000000
01000000
00000011
10000000
01000011
10000000
00100000
,
00000011
00100000
01000000
00010011
00100000
00000011
00110000
00000011
,
10000011
00100011
01000011
00010011
,
01000011
00000000
00100000
00000011
10000000
00000000
00010000
00100011
,
00100011
00000000
00010011
00000000
10000011
00000011
00100000
00000011
,
10000000
00000011
01000011
00000000
00100011
00010000
01000011
00100000
,
10000011
00000000
00100000
00000011
01100000
00000000
00000000
00000000
,
00010011
00000000
00100000
00000011
00110000
00000000
00000000
00000000
,
10000011
01000000
10000000
00100011
01000000
00010000
00100011
00010000
,
02000011
00000000
00100000
00000011
03100000
00000000
00000011
00000000
,
10000011
00000000
00100000
00000011
10000000
00000000
01000000
00000000
,
00100011
00000000
00010000
00000011
02000000
00000000
00000000
00000011
,
03100011
00000000
10000000
00000011
00010000
00000000
00100000
00000000
,
00010011
00000000
01000000
00010011
00020000
00000000
00000011
00000000
,
10030011
00000000
00100000
00000011
01000000
00000000
00100000
00000000
,
10000011
00000000
00100000
00000011
01000000
00000000
00100000
00000000
,
10000011
00000000
01000000
00000011
10000000
00000000
00010000
00000000
,
00100011
00000000
00010000
00000011
00010000
00100000
00010011
01000000
,
00100011
00000000
10000000
00000011
00100000
00000000
10000000
00000000
,
01000011
00000000
10000000
00000011
00100000
00000000
10000000
00000000
,
02000011
00000000
00000000
00000011
03100000
00000000
00000011
00010000
,
00010011
00000000
01000000
00000011
01000000
00000000
00100011
00000000
,
10000011
00000000
00100000
00000011
01000000
00000000
00010000
00000000
,
00100011
00000000
00010000
00100011
00110000
00000000
00000000
00000000
,
10000011
00000000
00100000
00000011
01000000
00000000
00010000
00000000
,
01000011
00000000
00100000
00000011
10000000
00000000
00100000
00000000
,
00100011
01000000
00100011
10000000
00100011
01000000
00100000
10000000
,
00100011
01000000
00100011
01000000
00200011
00000000
01000000
00000000
,
01300011
00100000
01000000
00010011
01000000
00100000
01000000
00010000
,
01000011
00100000
01000000
00100011
20000000
00000000
00100011
00000000
,
31000011
00000000
00010000
00000011
00100000
00000000
00010000
00000011
,
10000011
00000000
00100000
00000011
01000000
00000000
00100000
00000000
,
10000011
01000000
10000000
00100011
01000000
00010000
00100011
00010000
,
10000011
00000000
00100000
00000011
01000000
00000011
00010011
00000000
,
10000011
00000000
10000011
00000000
00100000
00000011
00100000
00000000
,
01000011
00000000
01000000
00000011
00010000
00000000
00020011
00000000
,
10000011
00000000
01030000
00000011
00200000
00000000
00010011
00000000
,
00320011
00000000
01000000
00000011
10030000
00000000
00000011
00000000
,
10000011
01000000
10000000
01000011
10000000
00100000
01000011
00100000
,
01000011
00010000
00100000
00010011
00200000
00000000
00000011
00310011
,
01000011
00000000
00100000
00000011
10000000
00000000
00110000
00000011
,
10000011
00010011
02000011
00100011
,
03100011
00000000
10000011
00000000
01000011
10000000
01000011
20000000
,
00000011
00100000
31000011
00010000
00110011
00000011
11000000
00000000
,
00200011
00000000
00000011
01300000
00020011
00000000
00000011
00130000
,
00010011
01000000
00000011
00100000
11000011
11000011
00000000
00000000
,
00010011
00000000
01000011
00000000
00100011
10000000
01000011
20000000
,
00000011
00100000
31000011
00010000
00110011
00000011
11000000
00000000
,
00200011
00000000
00000011
01300000
00020011
00000000
00000011
00130000
,
00010011
00100000
00000011
00110000
00110011
00000011
00000000
00000000
,
10000011
00100000
00200011
00000000
01300011
00010000
00020011
00000000
,
00130011
00010000
20000011
01000000
32000011
00000011
13000000
00000000
,
00200011
01000000
01300011
00000000
00020011
00100000
00130011
00000000
,
00010011
10000000
01000011
10000000
01000011
00000011
11000000
00000000
,
00110011
00000000
00010011
00000000
00010000
00000011
00010000
00000000
,
00100011
00000000
00010011
00000000
00010000
00000011
00110000
00000000
,
01100011
00000000
00100011
00000000
00100000
00000011
00100000
00000000
,
01000011
00000000
00100011
00000000
00100000
00000011
01100000
00000000
,
11000011
00000000
01000011
00000000
01000000
00000011
01000000
00000000
,
10000011
00000000
01000011
00000000
01000000
00000011
11000000
00000000
,
10010011
00000000
00010011
00000000
00010000
00000011
00010000
00000000
,
01000011
00000000
00010000
00000000
00100011
01000000
10000011
00100000
,
20000011
00000000
31000011
00000000
00200000
00000011
01300000
00000000
,
00020011
00000000
00130011
00000000
00010000
01000011
00100000
10000000
,
20000011
00000000
31000011
00000000
00200000
00000011
01300000
00000000
,
20000011
00000000
30100000
00000000
01000011
00100000
01100011
00000000
;

//---------------dance-single - M. Puls----------------
#NOTES:
     dance-single:
     M. Puls:
     Beginner:
     1:
     0.093,0.000,0.000,0.000,0.000,81.000,0.000,0.000,0.000,0.000,0.000:


0000
0000
0000
0000
,
0000
0000
0000
0000
,
0000
0000
0000
0000
,
0000
0000
0000
0000
,
0000
0000
0000
0000
,
0000
1000
0000
0000
,
0000
1000
0000
0000
,
0000
0001
0000
0000
,
0000
0001
0000
0000
,
1000
0000
0000
0000
,
1000
0000
0000
0000
,
0010
0000
0000
0000
,
0100
0000
0000
0000
,
0001
0000
0000
0000
,
0100
0000
0000
0000
,
0010
0000
0000
0000
,
0010
0000
0000
0000
,
1000
0000
0000
0000
,
0100
0000
0000
0000
,
0100
0100
0100
0000
,
0010
0000
0000
0000
,
0001
0001
0000
0000
,
0100
0000
0000
0000
,
0010
0000
0000
0000
,
1000
0000
0000
0000
,
0001
0000
0000
0000
,
0010
0000
0000
0000
,
0010
0000
0000
0000
,
0001
0000
0000
0000
,
0001
0000
0000
0000
,
1000
1000
1000
0000
,
0001
0000
0000
0000
,
0010
0000
0010
0000
,
0100
0000
0000
0000
,
0001
0000
0000
0000
,
0100
0000
0000
0000
,
0010
0000
0000
0000
,
1000
0000
0100
0000
,
0010
0000
0000
0000
,
0001
0000
0000
0000
,
1000
0000
0000
0000
,
0010
0000
0000
0000
,
0100
0000
0001
0000
,
0001
0000
0000
0000
,
0000
0000
0000
0000
,
1000
0000
0000
0000
,
0100
0000
0000
0000
,
0100
0000
0000
0000
,
1000
0000
0000
0000
,
0010
0000
0000
0000
,
0100
0000
0000
0000
,
0001
0000
0000
0000
,
0010
0000
0000
0000
,
0010
0000
0000
0000
,
0100
0000
0000
0000
,
1000
0000
0000
0000
,
0100
0000
0000
0000
,
0010
0000
0000
0000
,
0100
0000
0000
0000
,
0001
0000
0000
0000
,
0100
0000
0000
0100
,
0100
0000
0000
0000
,
0001
0000
0000
0010
,
0010
0000
0000
0000
,
0001
0000
0000
0100
,
0100
0000
0000
0000
,
0010
0000
0000
1000
,
1000
0000
0000
0000
,
1000
0000
0000
0001
,
0001
0000
0000
0000
,
1000
0000
0000
0000
,
0001
0000
0000
0000
,
1000
0000
0001
0000
;
