#TITLE:Temple of Boom;
#SUBTITLE:;
#ARTIST:Yanis Kamarinos;
#TITLETRANSLIT:;
#SUBTITLETRANSLIT:;
#ARTISTTRANSLIT:;
#GENRE:Trance;
#CREDIT:;
#BANNER:Temple of Boom-banner.png;
#BACKGROUND:Temple of Boom-bg.png;
#LYRICSPATH:;
#CDTITLE:;
#MUSIC:Temple of Boom.ogg;
#OFFSET:0.010;
#SAMPLESTART:26.300;
#SAMPLELENGTH:11.880;
#SELECTABLE:YES;
#BPMS:0.000=146.056;
#STOPS:;
#BGCHANGES:0.000=Temple of Boom-bg.png=1.000=0=0=1=====,
16.000=In The Groove 2/445_JumpBack.mpg=1.000=0=0=1=SongBgWithMovieViz====,
32.000=In The Groove 2/864_JumpBack.mpg=1.000=0=0=1=====,
48.000=In The Groove 2/592_JumpBack.mpg=1.000=0=0=1===FadeRight==,
64.000=In The Groove 2/592_JumpBack.mpg=0.300=0=0=1=Kaleidoscope2x2====,
80.000=In The Groove 2/445_JumpBack.mpg=1.000=0=0=1=====,
96.000=In The Groove 2/800_JumpBack.mpg=1.000=0=0=1=====,
112.000=In The Groove 2/779_JumpBack.mpg=1.000=0=0=1=====,
128.000=In The Groove 2/779_JumpBack.mpg=0.300=0=0=1=Kaleidoscope2x2====,
144.000=In The Groove 2/632_JumpBack.mpg=1.000=0=0=1=====,
160.000=In The Groove 2/632_JumpBack.mpg=0.300=0=0=1=Kaleidoscope2x2====,
176.000=In The Groove 2/800_JumpBack.mpg=1.000=0=0=1=SongBgWithMovieViz====,
192.000=In The Groove 2/959_JumpBack.mpg=1.000=1=0=1=SongBgWithMovieViz==CrossFade==,
208.000=-random-=1.000=0=0=1=====,
224.000=-random-=1.000=0=0=1===FadeLeft==,
240.000=-random-=1.000=0=0=1=====,
256.000=Temple of Boom-bg.png=1.000=0=0=1=====,
99999=-nosongbg-=1.000=0=0=0 // don't automatically add -songbackground-
;
#BGCHANGES2:12.000=flash=1.000=0=0=1====1^0^0^1=,
14.000=flash=1.000=0=0=1====1^1^0^1=,
16.000=flash=1.000=0=0=1=====,
32.000=flash=1.000=0=0=1=====,
96.000=flash=1.000=0=0=1=====,
112.000=flash=1.000=0=0=1=====,
144.000=flash=1.000=0=0=1=====,
176.000=flash=1.000=0=0=1=====,
208.000=flash=1.000=0=0=1=====,
240.000=flash=1.000=0=0=1=====,
252.000=flash=1.000=0=0=1====1^1^0^1=,
256.000=flash=1.000=0=0=1=====,
;
#KEYSOUNDS:;
// cache tags:
#FIRSTBEAT:11.500;
#LASTBEAT:260.000;
#SONGFILENAME:/Songs/In The Groove 2/Temple of Boom/Temple of Boom.sm;
#HASMUSIC:1;
#HASBANNER:1;
#MUSICLENGTH:108.493;
// end cache tags

//---------------dance-single - ----------------
#NOTES:
     dance-single:
     :
     Hard:
     9:
     0.574,0.000,0.323,0.267,0.295,372.000,35.000,29.000,25.000,0.000,0.000:
0000
0000
0000
0000
,
0000
0000
0000
0000
,
0000
0000
0000
0000
0000
0000
0000
1000
,
1000
0100
0010
0001
0001
0010
0100
1000
,
2002
0000
0000
0000
,
0000
0000
0000
0000
,
0000
0000
0000
0000
,
0000
0000
0000
3003
,
1000
0000
0000
0100
0000
0000
0010
0000
0020
0000
0000
0000
0000
0000
0001
0000
,
0001
0000
0000
0100
0000
0000
0001
0000
0100
0000
0000
0000
0130
0000
0000
0000
,
0100
0000
0000
0010
0000
0000
0100
0000
2000
0000
0000
0000
0000
0000
0010
0000
,
0010
0000
0000
0100
0000
0100
0000
0000
3100
0000
0000
0000
1001
0000
0000
0000
,
0010
0100
0010
0100
0010
1100
0000
0100
,
0100
1000
0010
0100
0010
0110
0000
0010
,
0100
0001
0010
0100
0020
0000
0000
0031
,
1000
0000
0000
0010
0000
0100
0001
0000
0010
0000
0000
0000
0001
0000
0000
0000
,
1000
0000
0100
0010
0000
0010
0100
0000
2000
0000
0000
0000
0000
0000
3010
0000
,
0100
0000
0001
0010
0000
0010
0001
0000
1000
0000
0000
0000
0010
0000
1000
0000
,
0100
0000
0100
0010
0000
0010
0001
0000
2000
0000
0000
0000
0000
0000
3100
0000
,
0010
0000
0000
0100
0000
1000
0000
0010
0001
0000
0010
0000
0100
0000
0100
0000
,
0001
0000
0010
0100
0000
0100
0010
0000
0002
0000
0000
0000
0000
0000
0013
0000
,
0100
0000
1000
0100
0000
0100
0010
0000
0100
0000
0000
1000
0000
0000
0010
0000
,
0100
0000
0100
0001
0000
0001
0010
0000
0002
0000
0000
0000
0000
0000
0103
0000
,
1000
0000
0000
0100
0000
0010
0000
1000
0002
0000
0010
0000
0013
0000
0000
0000
,
0100
0100
0010
0100
1000
0010
0000
0010
,
0001
0100
1000
0100
0010
0100
0000
0100
,
1000
0001
0010
0100
1000
0010
0000
0010
,
0001
0100
1000
0100
0010
0000
1001
0000
,
0001
0010
0001
0000
0010
0000
0010
0000
0100
1000
0100
0000
1000
0000
1000
0000
,
0100
0010
0100
0010
0002
0000
1003
0000
,
0010
0100
0010
0000
1000
0000
1000
0000
0001
0010
0001
0000
0100
0000
1000
0000
,
1000
0000
0100
0010
0000
0010
0100
0000
0002
0000
0010
0000
0013
0000
0000
0000
,
0100
0010
0100
0000
0010
0001
0010
0000
0001
1000
0001
0000
2000
0000
0000
3000
,
0100
0010
0100
0000
0010
0001
0010
0000
0002
0000
0000
0000
1003
0000
0000
0000
,
1000
0100
1000
0000
0100
0010
0100
0000
1000
0001
1000
0000
0001
0000
0100
0000
,
1000
0000
0100
0010
0000
0010
0100
0000
0001
0000
0010
0000
0100
0000
0010
0000
,
0001
0000
0100
0000
0100
0100
0100
0000
,
0001
0010
0100
0010
0100
0000
1100
0000
,
0010
0000
0010
0000
0010
0010
0010
0000
,
0100
0000
0100
0000
0001
0000
0010
0000
0200
0000
0000
0000
0310
0000
0000
0001
,
0020
0000
0130
M0M0
0200
0000
1300
0MM0
,
0010
0001
0010
0100
0001
0000
1100
0000
,
0020
0000
0130
0MM0
0002
0000
1003
M00M
,
0001
0010
0100
0010
0100
1000
0010
0001
,
0000
M000
0010
0000
0000
0000
11M0
0000
0000
000M
0010
0000
1001
0000
0000
M000
,
0000
0000
0010
0000
0000
0000
010M
0000
1000
0000
0100
0000
0010
M000
0000
0000
,
00M0
0001
0M00
1000
0000
0M10
0110
0000
,
00M0
0000
0000
1000
0000
0000
0M00
0000
0000
0100
0000
0000
0010
0000
0000
0100
0000
0000
1100
0000
0000
0000
M00M
0000
,
0MM0
0001
0100
1000
0000
1000
0100
0001
,
0000
1000
0001
0010
0100
0010
0001
0000
,
0100
0010
0100
1000
0000
0100
0001
0010
,
0001
0000
1000
0000
0010
0100
0000
0100
0010
0000
1000
0000
0001
0010
0001
0000
,
0011
0000
0000
0101
0000
0000
0110
0000
1100
0000
0000
0000
0000
0000
1100
0000
,
1010
0000
0000
0110
0000
0000
0011
0000
0110
0000
0000
1010
0000
0000
0110
0000
,
1010
0000
0000
0101
0000
0000
0011
0000
2200
0000
0000
0000
3300
0000
0110
0000
,
1001
0000
0000
0011
0000
1100
0000
0010
0100
0000
0001
0000
1000
0000
0000
0000
,
0010
0000
0100
0001
0000
0001
0010
0000
0002
0000
0000
0000
0000
0000
1003
0000
,
1000
0000
0100
0010
0000
0010
0001
0000
0200
0000
0000
0000
1300
0000
M00M
0000
,
0100
0000
0001
0010
0000
0100
0010
0000
0002
0000
0000
0000
0000
0000
1003
0000
,
1000
0110
0011
0000
,
2000
0000
0100
0200
3000
0000
0000
0310
,
0020
0000
0100
0000
0001
0000
0130
0010
,
0002
0000
0010
0020
0003
0000
0000
0130
,
1100
0000
0011
0000
1000
0010
0100
0000
,
1001
0000
0000
0000
;

//---------------dance-single - K.W----------------
#NOTES:
     dance-single:
     K.W:
     Medium:
     6:
     0.424,0.000,0.138,0.286,0.014,276.000,15.000,31.000,0.000,0.000,0.000:
0000
0000
0000
0000
,
0000
0000
0000
0000
,
0000
0000
0000
0000
,
0010
0001
0100
0000
1000
0001
0010
0100
,
2000
0000
0000
0000
,
0000
0000
0000
0000
,
0000
0000
0000
0000
,
0000
0000
0000
3000
,
0100
0000
0000
0010
0000
0000
0001
0000
0002
0000
0000
0000
0000
0000
0000
0000
,
0013
0000
0000
0100
0000
0000
1000
0000
2000
0000
0000
0000
0000
0000
0000
0000
,
3100
0000
0000
0010
0000
0000
0100
0000
0002
0000
0000
0000
0000
0000
0000
0000
,
0013
0000
1000
0000
0010
0100
0001
0000
,
0010
0000
0010
0000
0010
0110
0000
0000
,
0100
0000
0100
0000
0100
1100
0000
0000
,
1000
0000
1000
0000
1010
0000
0000
0001
,
0010
0100
1000
0100
0010
0100
1000
0000
,
0001
0010
0000
0100
0020
0000
0000
0030
,
0100
1000
0000
1000
0020
0000
0130
0000
,
0100
0001
0000
0010
0002
0000
0000
0103
,
0010
1000
0100
0010
0200
0000
1300
0000
,
0001
0010
0100
0010
0002
0000
0000
0013
,
0100
1000
0100
0010
0200
0000
1300
0000
,
1000
0001
0010
0100
0020
0000
0000
0031
,
0100
0011
0110
1001
,
0100
0010
1000
0010
0100
0000
0000
0000
,
0001
0010
0100
0010
0001
0000
0000
0000
,
1000
0100
1000
0010
0100
0000
0000
0000
,
0010
1000
0100
0010
0100
0000
1000
0000
,
0001
0000
1000
0000
0001
0100
0001
0000
,
0010
0000
0100
0000
1000
0010
0100
0000
,
0001
0000
0010
0000
0001
0010
0100
0000
,
1000
0100
0010
0001
0000
0100
1000
0000
,
1000
0000
0100
0000
0001
0010
0001
0000
,
0010
0000
0100
0000
1000
0010
0001
0000
,
0001
0010
1000
0100
,
0001
0110
1000
0110
,
0001
1000
0001
1000
0000
2000
0000
3000
,
0010
0100
0010
0100
0000
0200
0000
0300
,
0001
0010
0100
0010
0000
0020
0000
0030
,
0100
1000
0100
1000
0000
2000
0000
3000
,
0100
0010
0001
0020
0000
0031
0000
0000
,
0100
1000
0010
0200
0000
0310
0000
0000
,
0001
0010
0100
0010
0000
1100
0000
0000
,
1000
0100
0010
0001
0000
0011
0000
0000
,
0200
0000
1000
0310
,
0020
0000
0001
0130
,
0200
0000
0010
1300
,
2000
0010
0100
3001
,
0200
0000
0010
1300
,
0002
0000
0010
0103
,
0000
1000
0100
0000
0101
0010
0000
1100
,
0010
0000
1001
1000
0000
0001
0011
0000
,
1000
0001
1000
0000
0010
0100
0010
0000
,
1000
0001
1000
0000
0100
0010
0100
0000
,
1000
0001
1000
0000
0010
0100
0010
0000
,
1000
0001
1000
0000
0100
0010
0100
0000
,
1000
0100
0001
0000
0001
0100
1000
0000
,
1000
0100
0001
0000
0001
0100
1000
0000
,
0001
0010
1000
0000
1000
0010
0001
0000
,
0001
0010
1000
0000
1000
0010
0001
0000
,
2000
0100
0020
3030
,
0002
0010
0200
0303
,
0200
0010
0002
0303
,
0020
0001
0200
0330
,
0011
0000
0000
0000
;

//---------------dance-single - K.W----------------
#NOTES:
     dance-single:
     K.W:
     Easy:
     3:
     0.242,0.000,0.101,0.046,0.000,168.000,11.000,5.000,0.000,0.000,0.000:
0000
0000
0000
0000
,
0000
0000
0000
0000
,
0000
0000
0000
0000
,
0001
0010
0100
0010
,
0001
0000
0000
0000
,
0000
0000
0000
0000
,
0000
0000
0000
0000
,
0000
0000
0000
0000
,
1000
0000
0001
0000
,
0100
0000
0001
0000
,
0010
0000
0001
0000
,
1000
1000
1000
0000
,
0001
1000
0100
0000
,
0100
1000
0001
0000
,
0001
1000
0100
0000
,
0100
1000
0001
0001
,
1000
0100
0010
0000
,
0010
0100
1000
0000
,
0100
0010
0001
0000
,
0001
0010
0001
1000
,
0001
0010
0100
0000
,
0100
0010
0001
0000
,
0010
0100
1000
0000
,
1000
0100
1000
0001
,
1000
1000
1001
0000
,
0001
0001
1001
0000
,
0100
0100
0110
0000
,
0010
0010
0110
0000
,
1000
0100
0010
0001
,
0001
0010
0100
1000
,
1000
0100
0010
0001
,
0001
0010
0000
0010
,
0001
0010
0100
0010
,
0100
1000
0100
1000
,
1000
0100
0010
0001
,
0010
0001
1000
0000
,
0010
0000
0001
0000
,
0100
0000
1000
0000
,
0010
0000
0001
0000
,
0100
0000
1000
0000
,
0100
1000
1000
0000
,
0010
0100
0100
0000
,
0010
1000
1000
0000
,
0010
0100
0010
0001
,
0010
0000
0110
0000
,
0010
0000
1100
0000
,
0100
0000
0110
0000
,
0002
0000
0010
0013
,
0100
0000
0110
0000
,
0100
0000
0011
0000
,
0010
0000
0110
0000
,
2000
0000
0100
3100
,
1000
0001
0001
0000
,
0100
0001
0001
0000
,
1000
0001
0001
0000
,
0100
0010
1000
0001
,
0001
1000
1000
0000
,
0010
1000
1000
0000
,
0001
1000
1000
0000
,
0010
0100
0001
1000
,
0002
0000
0003
0000
,
0020
0000
0030
0000
,
0002
0000
0003
0000
,
0010
0100
1000
0100
,
1100
0000
0000
0000
;

//---------------dance-single - C. Foy----------------
#NOTES:
     dance-single:
     C. Foy:
     Challenge:
     10:
     0.757,0.000,0.304,0.442,0.747,494.000,33.000,48.000,16.000,0.000,0.000:
0000
0000
0000
0000
,
0000
0000
0000
0000
,
0000
0000
0000
0000
,
0000
0000
0000
0000
,
2MM2
0000
00M0
0000
,
0M00
0000
0000
0000
,
00M0
0000
0M00
0000
,
00M0
0000
0000
0000
0M00
0000
00M0
3003
,
1001
0000
0000
1000
0000
0001
0100
0000
2002
0000
0000
0000
3003
0000
1000
0000
,
0100
0000
0010
0001
0000
1000
0100
0000
2000
0000
0000
0000
3010
0000
0010
0000
,
1000
0000
0001
0100
0000
0010
1000
0000
2002
0000
0000
0000
3003
0000
0100
0000
,
0010
0000
1000
0001
0000
1000
0000
0010
1000
0000
0100
0000
0020
0000
0000
0030
,
0011
0000
0000
0001
0000
1000
0010
0000
2002
0000
0000
0000
3003
0000
1000
0000
,
0010
0000
0100
0001
0000
0100
0010
0000
2000
0000
0000
0000
3100
0000
0010
0000
,
0001
0000
0010
0100
0000
0100
1000
0000
2002
0000
0000
0000
3003
0000
0001
0000
,
0100
0000
0100
0010
0000
0100
0000
0100
0001
0000
0010
0000
0002
0000
0000
0003
,
1100
0000
0000
1000
0000
0010
0100
0000
2002
0000
0000
0000
3003
0000
0001
0000
,
0100
0000
0100
0001
0000
0001
1000
0000
2000
0000
0000
0000
3100
0000
1000
0000
,
0010
0000
0100
0001
0000
1000
0001
0000
0202
0000
0000
0000
0303
0000
1000
0000
,
0010
0000
0010
1000
0000
0001
0000
0100
0010
0000
1000
0000
0002
0000
0000
0003
,
1100
0000
0000
1000
0000
0001
0100
0000
0220
0000
0000
0000
0330
0000
0001
0000
,
0100
0000
0100
0010
0000
0010
1000
0000
0002
0000
0000
0000
0103
0000
0100
0000
,
0001
0000
0001
0100
0000
0010
1000
0000
2020
0000
0000
0000
3030
0000
1000
0000
,
0100
0000
0010
0001
0000
1000
0000
0100
0010
0000
0001
0000
0020
0000
0000
0000
,
0031
0000
0000
0000
1000
0000
0000
1000
0001
0000
1001
0000
1100
0000
0000
0000
,
1000
0000
0010
0000
0000
0101
1001
0001
,
0100
0000
0000
0000
0010
0000
0000
0010
1000
0000
1010
0000
0000
0000
0101
0000
,
0100
0000
0000
0000
0010
0000
0000
0010
1000
0000
1010
0000
1001
0000
1100
0000
,
1000
0100
0010
0001
1000
0100
0010
0001
0010
0100
1000
0001
0010
0100
2000
0000
,
3001
0100
0010
1000
0001
0100
0010
1000
0010
1000
0001
0100
0010
1000
0002
0000
,
1003
0100
1000
0001
1000
0010
1000
0001
1000
0100
1000
0001
1000
0010
2000
0000
,
3001
0100
0001
1000
0001
0010
0001
1000
0001
0100
0001
1000
0001
0010
0002
0000
,
1003
0100
0010
0001
0010
0100
1000
0001
0100
0010
1000
0010
1000
0001
0200
0000
,
0301
1000
0010
0100
0010
1000
0001
0100
0010
0100
0010
1000
0001
0010
0200
0000
,
1300
0100
0010
0100
0010
0001
1000
0001
1000
0010
0100
0010
1000
0001
2000
0000
,
3001
0100
0010
1000
0001
0100
0010
0100
0001
1000
0100
0010
0100
1000
0001
0100
,
0010
0000
0010
1000
0000
0001
0100
0000
0010
1000
0000
0001
1000
0000
0001
0000
,
1000
0001
0100
0000
0000
0010
1000
0100
,
0010
0000
0001
0100
0000
0010
0100
0000
0001
1000
0000
0010
1000
0000
0100
0000
,
0010
0000
0001
0000
0100
0000
0000
0010
0000
0000
0010
0000
1000
0000
0100
0000
,
1000
0000
1000
0001
0000
0100
0010
0000
0010
1000
0000
0100
1000
0000
0001
0000
,
0100
0100
0000
0000
0000
0010
0010
0010
,
1000
0000
1000
0100
0000
0100
0010
0000
0010
0001
0000
0001
0100
0000
0010
0000
,
1000
0100
0000
1000
0010
0100
0001
0010
,
0100
0000
0010
0100
0000
1000
0001
0000
0100
0010
0000
1000
0100
0000
0010
0000
,
0001
0100
0010
0000
0000
0010
0010
0010
,
1000
0000
1000
0100
0000
0100
0010
0000
0010
1000
0000
1000
0010
0000
0100
0000
,
0100
1000
0010
0000
0000
0010
0010
0010
,
1000
0000
1000
0100
0000
0100
0001
0000
0001
0100
0000
0100
1000
0000
1000
0000
,
0010
0100
0000
0000
0000
0001
0100
0010
,
1000
0000
1000
0010
0000
0010
0100
0000
0100
1000
0000
1000
0100
0000
0100
0000
,
0010
0010
0000
1000
0010
1000
0100
0010
,
0001
0000
0000
0001
0000
0100
0001
0000
0022
0000
0000
0000
0033
0000
0001
0000
,
0100
0000
0100
1000
0000
1000
0100
0000
0020
0000
0000
0000
0130
0000
0100
0000
,
0001
0000
0001
0100
0000
0100
0010
0000
2001
0000
0000
0000
3000
0000
1000
0000
,
0001
0000
0010
0100
0000
0001
0000
0010
0100
0000
1000
0000
0220
0000
0000
0330
,
1001
0000
0000
0100
0000
0010
0100
0000
0202
0000
0000
0000
0303
0000
1000
0000
,
0100
0000
0100
0010
0000
0010
0001
0000
2000
0000
0000
0000
3010
0000
0010
0000
,
0100
0000
0100
0001
0000
0001
0010
0000
2200
0000
0000
0000
3300
0000
0100
0000
,
1000
0000
1000
0100
0000
0010
0000
0001
0010
0000
0100
0000
2020
0000
0000
3030
,
1001
0000
0000
0000
0101
0000
1100
0000
1000
0010
0100
0000
0010
1000
0100
0000
,
1000
0100
0010
0100
1000
0001
0100
0000
0010
1000
0001
0010
0100
0010
0001
0000
,
0100
0010
1000
0001
0100
0000
0010
0000
0010
1000
0000
1000
0100
0000
0010
0000
,
0001
0100
0000
0100
1000
0000
0100
0000
0001
0000
0010
0000
0001
1000
0001
0000
,
2MM2
00M0
0M00
00M0
,
3MM3
0000
0000
0000
;

//---------------dance-single - K. Ward----------------
#NOTES:
     dance-single:
     K. Ward:
     Beginner:
     1:
     0.088,0.000,0.065,0.000,0.000,60.000,7.000,0.000,0.000,0.000,0.000:

0000
0000
0000
0000
,
0000
0000
0000
0000
,
0000
0000
0000
0000
,
1000
0000
0001
0000
,
1001
0000
0000
0000
,
0000
0000
0000
0000
,
0000
0000
0000
0000
,
0000
0000
0000
0000
,
1000
0000
0000
0000
,
0000
0000
0000
0000
,
0100
0000
0000
0000
,
0000
0000
0000
0000
,
1000
0000
0001
0000
,
0010
0000
0000
0000
,
0001
0000
1000
0000
,
0100
0000
0000
0000
,
1001
0000
0000
0000
,
0000
0000
0000
0000
,
0110
0000
0000
0000
,
0000
0000
0000
0000
,
1000
0000
0000
0000
,
0001
0000
0000
0000
,
0010
0000
0001
0000
,
1000
0000
0000
0000
,
0001
0000
0001
0000
,
0000
0000
0000
0000
,
1000
0000
1000
0000
,
0000
0000
0000
0000
,
0010
0000
0000
0000
,
0100
0000
0000
0000
,
0001
0000
0000
0000
,
1000
0000
0000
0000
,
0001
0000
0010
0000
,
0001
0000
0000
0000
,
0100
0000
1000
0000
,
0100
0000
0000
0000
,
1001
0000
0000
0000
,
0000
0000
0000
0000
,
0110
0000
0000
0000
,
0000
0000
0000
0000
,
1001
0000
0000
0000
,
0000
0000
0000
0000
,
0110
0000
0000
0000
,
0000
0000
0000
0000
,
1000
0000
0000
0000
,
0000
0000
0000
0000
,
0001
0000
0000
0000
,
0000
0000
0000
0000
,
1000
0000
0001
0000
,
1000
0000
0001
0000
,
0100
0000
0010
0000
,
0100
0100
0000
0000
,
0001
0000
0000
0000
,
1000
0000
0000
0000
,
0010
0000
0000
0000
,
0100
0000
0000
0000
,
0001
0000
0000
0000
,
1000
0000
0000
0000
,
0100
0000
0000
0000
,
1000
0000
0000
0000
,
0001
0000
0000
0000
,
1000
0000
0000
0000
,
0010
0000
0000
0000
,
0100
0000
0001
0000
,
1000
0000
0000
0000
;

//---------------dance-double - M.Emirzian----------------
#NOTES:
     dance-double:
     M.Emirzian:
     Easy:
     3:
     0.187,0.000,0.018,0.018,0.000,138.000,2.000,2.000,0.000,0.000,0.000:
00000000
00000000
00000000
00000000
,
00000000
00000000
00000000
00000000
,
00000000
00000000
00000000
00000000
,
00000000
00000000
00000000
00010000
,
00022000
00000000
00000000
00000000
,
00000000
00000000
00000000
00000000
,
00000000
00000000
00000000
00000000
,
00000000
00000000
00000000
00033000
,
00001000
00000000
00000000
00000000
,
00000100
00000000
00000000
00000000
,
00100000
00000000
00000000
00000000
,
00001000
00000000
10000000
00000000
,
01000000
00000000
00010000
00000000
,
00001000
00000000
00010000
00000000
,
01000000
00000000
00010000
00000000
,
00001000
00000000
00010000
00001000
,
00000010
00000001
00001000
00000000
,
00000010
00000100
00000010
00000000
,
00010000
00001000
00010000
00000000
,
00100000
00010000
00001000
00000000
,
01000000
00100000
01000000
00000000
,
00010000
10000000
00010000
00000000
,
01000000
00010000
00001000
00000000
,
00010000
00010000
00001000
00001000
,
00000100
00000000
00000010
00000000
,
00001000
00000000
00000100
00000000
,
00000010
00000000
00001000
00000000
,
00010000
00000000
00001000
00000000
,
00010000
00001000
00000000
01000000
,
00010000
00010000
00000000
00100000
,
01000000
01000000
00000000
10000000
,
00010000
00010000
00000000
01000000
,
00001000
00001000
00000000
00010000
,
00000100
00000100
00000000
00001000
,
00000010
00000010
00000000
00000100
,
00000001
00001000
00000100
00000010
,
00000001
00000000
00000100
00000000
,
00001000
00000000
00010000
00000000
,
00100000
00000000
01000000
00000000
,
00010000
00000000
00100000
00000000
,
01000000
00000000
10000000
00000000
,
00100000
00000000
00010000
00000000
,
00001000
00000000
00000010
00000000
,
00000100
00000000
00001000
00000000
,
00000001
00000000
00000000
00000000
,
00000100
00000000
00000000
00000000
,
00100000
00000000
00000000
00000000
,
00001000
00000000
00000000
00000000
,
10000000
00000000
00000000
00000000
,
00001000
00000000
00000000
00000000
,
00000001
00000000
00001000
00000000
,
00000100
00001000
00000100
00001000
,
00000001
00000100
00000001
00000000
,
00001000
00000100
00001000
00000000
,
00000010
00010000
00000010
00000000
,
00010000
00001000
00010000
00000000
,
01000000
00100000
01000000
00000000
,
10000000
00010000
10000000
00000000
,
00100000
01000000
00100000
00000000
,
10000000
01000000
10000000
00010000
,
00100000
00000000
00001000
00000000
,
00010000
00000000
00000100
00000000
,
00000010
00000000
00001000
00000000
,
00010000
00000100
00001000
00000010
,
00001001
00000000
00000000
00000000
;

//---------------dance-double - M.Emirzian----------------
#NOTES:
     dance-double:
     M.Emirzian:
     Medium:
     6:
     0.369,0.000,0.138,0.120,0.000,252.000,15.000,13.000,0.000,0.000,0.000:
00000000
00000000
00000000
00000000
,
00000000
00000000
00000000
00000000
,
00000000
00000000
00000000
00000000
,
00000000
00000000
00000000
00000000
00000000
00000000
00010000
00001000
,
00022000
00000000
00000000
00000000
,
00000000
00000000
00000000
00000000
,
00000000
00000000
00000000
00000000
,
00000000
00000000
00000000
00033000
,
01000000
00000000
00000000
00000000
,
00001000
00000000
00000000
00000000
,
00000010
00000000
00000000
00000000
,
00000001
00000000
00000100
00000010
,
00001000
00000000
00000100
00000010
00000001
00000000
00000000
00000000
,
00000100
00000000
00000010
00000100
00001000
00000000
00000000
00000000
,
00010000
00000000
00001000
00010000
01000000
00000000
00000000
00000000
,
00100000
00000000
00010000
00000000
01000000
00100000
01000000
00010000
,
10000000
00000000
01000000
00010000
00001000
00000000
00010000
00000000
,
01000000
00000000
10000000
00100000
01000000
00000000
00001000
00000000
,
00010000
00000000
01000000
00010000
00001000
00000000
00010000
00000000
,
00001000
00000000
00000010
00000100
00000010
00000001
00000100
00000000
,
00001000
00000000
00000100
00000010
00001000
00000000
00000100
00000000
,
00000010
00000000
00000001
00000100
00001000
00000000
00010000
00000000
,
00001000
00000000
00000100
00001000
00010000
00000000
00001000
00000000
,
01000000
00000000
00100000
01000000
00100000
10000000
01000000
00000000
,
00120000
10000000
10000000
10030000
,
02010000
00100000
00100000
03100000
,
01002000
00010000
00010000
00013000
,
00020100
00001000
00001000
00031000
,
00010000
00001000
00010000
00000000
00000100
00000010
00000100
00000000
,
00001000
00000001
00000101
00001001
,
00000100
00001000
00000100
00000000
00000010
00000100
00000010
00000000
,
00000001
00000100
00001010
00010010
,
00001000
00010000
00001000
00000000
01000000
00100000
01000000
00000000
,
00010000
10000000
11000000
10010000
,
00100000
01000000
00100000
00000000
00010000
10000000
00010000
00000000
,
01000000
00100000
10000000
01000000
00100000
00010000
01000000
00000000
,
00100000
00000000
10000000
00000000
01000000
00100000
00010000
00000000
,
00100000
00000000
00001000
00000000
00010000
00001000
00000100
00000000
,
00001000
00000000
00010000
00000000
00010000
00001000
00000010
00000000
,
00000100
00000000
00001000
00000000
00000010
00000100
00001000
00000000
,
00010000
00000000
00001000
00000000
00000100
00000010
00001000
00000000
,
00000100
00000000
00000010
00000000
00000001
00000100
00001000
00000000
,
00010000
00000000
01000000
00000000
10000000
00010000
01000000
00000000
,
00100000
00000000
10000000
00000000
01000000
00100000
00010000
00000000
,
20000000
00000000
00000000
00100000
,
30200000
00000000
00000000
01000000
,
02300000
00000000
00000000
00001000
,
03002000
00000000
00000000
00010000
,
00023000
00000000
00000000
00000100
,
00030200
00000000
00000000
00000010
,
00000320
00000000
00000000
00000001
,
00000031
00000000
00000100
00000000
00000010
00001000
00000001
00000100
,
00000010
00000000
00001000
00000100
00010000
00000000
00001000
00000000
,
00010000
00000000
01000000
00010000
00001000
00000000
00010000
00000000
,
00100000
00000000
01000000
00100000
00010000
00000000
00001000
00000000
,
00010000
00000000
01000000
00100000
00010000
01000000
00100000
00000000
,
10000000
00000000
01000000
00100000
00010000
00000000
10000000
00000000
,
01000000
00000000
00010000
00001000
01000000
00000000
00001000
00000000
,
00010000
00000000
00001000
00000100
00000010
00000000
00001000
00000000
,
00000100
00000000
00000010
00000001
00001000
00000010
00000100
00000000
,
00000001
00000100
00000001
00000000
00001000
00000100
00001000
00000000
,
00000010
00010000
00011000
01001000
,
00010000
01000000
00010000
00000000
00100000
01000000
00100000
00000000
,
01000000
00000000
10000000
00000000
01010000
00000000
01000000
00001000
,
00011000
00000000
00000000
00000000
;

//---------------dance-double - M.Emirzian----------------
#NOTES:
     dance-double:
     M.Emirzian:
     Hard:
     9:
     0.636,0.000,0.157,0.111,0.571,454.000,17.000,12.000,0.000,6.000,0.000:
00000000
00000000
00000000
00000000
,
00000000
00000000
00000000
00000000
,
00000000
00000000
00000000
00000000
,
00000000
00000000
00000000
00000000
00000000
00000000
00100000
00001000
,
00022000
00000000
00000000
00000000
,
00000000
00000000
00000000
00000000
,
00000000
00000000
00000000
00000000
,
00000000
00000000
00000000
00033000
,
00100000
00000000
00000000
10000000
00000000
00000000
00010000
00000000
01000000
00000000
00000000
00000000
00011000
00000000
00000000
00000000
,
00001000
00000000
00000000
00010000
00000000
00000000
00000100
00000000
00001000
00000000
00000000
00000000
00001001
00000000
00001000
00000000
,
00000001
00000000
00000000
00000010
00000000
00000000
00000100
00000000
00001000
00000000
00000000
00000000
00000000
00000000
00000001
00000000
,
00000100
00000000
00000000
00000010
00000000
00001000
00000000
00000000
00000100
00000000
00010000
00000000
00000000
00000000
00001000
00000000
,
00010000
00000000
00000000
00001000
00000000
00000000
01000000
00000000
00010000
00000000
00100000
00000000
00000000
00000000
00100000
00000000
,
01000000
00000000
00000000
10000000
00000000
00000000
00100000
00000000
01000000
00000000
00010000
00000000
00000000
00000000
00100000
00000000
,
00001000
00000000
00000000
00010000
00000000
00000000
01000000
00000000
00100000
00000000
00010000
00000000
00000000
00000000
00010000
00000000
,
01000000
00000000
00100000
10000000
00000000
00010000
00000000
10000000
01000000
00000000
00100000
00000000
00000000
00100000
00010000
00000000
,
01000000
00000000
00000000
00001000
00000000
00010000
00000100
00000000
00010000
00000000
00010000
00000000
00000000
00001000
00010000
00000000
,
00000100
00000000
00001000
00000010
00000000
00000010
00000100
00000000
00000001
00000000
00001000
00000000
00000010
00000000
00000100
00000000
,
00000001
00000000
00000100
00001000
00000000
00001000
00010000
00000000
01000000
00000000
01000000
00000000
00000000
10000000
01000000
00000000
,
00010000
00000000
00001000
01000000
00000000
00010000
00000000
00100000
01000000
00000000
10000000
00000000
00000000
10000000
00010000
00000000
,
10000000
00000000
00000000
01000000
00000000
00100000
00010000
00000000
01000000
00000000
00000000
00000000
00000000
00100000
10000000
00000000
,
01000000
00000000
00010000
00001000
00000000
00001000
00000010
00000000
00000001
00000000
00000001
00000000
00010000
00000000
00001000
00000000
,
00000010
00000000
00000100
00001000
00000000
00001000
00000010
00000000
00000100
00000000
00000100
00000000
00000000
00000001
00000100
00000000
,
00000010
00000000
00001000
00000100
00000000
00001000
00000000
00000001
00000100
00000000
00000010
00000000
00000000
00000010
00001000
00000000
,
00000100
00000010
00000001
00000100
00000010
00000100
00001000
00010000
,
00100000
01000000
00010000
00100000
01000000
10000000
01000000
00100000
,
00010000
01000000
10000000
01000000
00100000
00010000
00001000
00000100
,
00000010
00001000
00000100
00000010
00000001
00001000
00000100
00000010
,
00000001
00001000
00000001
00000000
00000100
00000010
00000100
00000000
00000010
00001000
00000010
00000000
00010000
00001000
00010000
00000000
,
00001000
00010000
01000000
00000000
00010000
00001000
00010000
00000000
00100000
00010000
00001000
00000000
00011000
00000000
00010000
00000000
,
00001000
01000000
00010000
00000000
00100000
00010000
00100000
00000000
01000000
10000000
00100000
00000000
01000000
00010000
01000000
00000000
,
00010000
10000000
01000000
00000000
00010000
00001000
00010000
00000000
00001000
00100000
01000000
00000000
10010000
00000000
10000000
00000000
,
00100000
10000000
00100000
00000000
01000000
00010000
01000000
00000000
00001000
00010000
00100000
00000000
00010000
00001000
00010000
00000000
,
00000100
00001000
00000100
00000000
00010000
00000100
00010000
00000000
00000010
00001000
00000100
00000000
00001001
00000000
00000001
00000000
,
00000010
00000100
00001000
00000000
00000001
00000100
00000001
00000000
00000100
00000010
00001000
00000000
00000100
00010000
00000100
00000000
,
00010000
00001000
00100000
00000000
00001000
01000000
00001000
00000000
00100000
00010000
00100000
00000000
01000000
10000000
01000000
00000000
,
00100000
00000000
00000000
00001000
00000000
01000000
00000000
00100000
00000000
10000000
00000000
01000000
00000000
00010000
00001000
00000000
,
10000000
00000000
01000000
00000000
00000000
00100000
00000000
00010000
00000000
01000000
00001000
00000000
00010000
00000000
01000000
00000000
,
00010000
00000000
00001000
00010000
00000000
00010000
00000100
00000000
00000100
00001000
00000000
00001000
00000001
00000000
00000010
00000000
,
00000100
00001000
00000010
00000100
00001000
00010000
00000100
00001000
,
00000001
00000000
00000000
00000001
00000000
00000010
00000000
00000100
00000000
00010000
00000000
00001000
00000000
01000000
00010000
00000000
,
10000000
00000000
00100000
00000000
00000000
10000000
00000000
00100000
00000000
00010000
00001000
00000000
10000000
00000000
00100000
00000000
,
01000000
00000000
00010000
00100000
00000000
00100000
00001000
00000000
00001000
00010000
00000000
00010000
00000100
00000000
00010000
00000000
,
00001000
01000000
00000000
00100000
00010000
00001000
00010000
00000100
,
00012000
00100000
00010000
00003010
,
00002200
00000000
00000000
00000000
00000000
00000000
00000000
00000000
00000010
00000000
00000000
00000000
00010000
00003300
00000000
00000000
,
00021000
00000010
00001000
01030000
,
02002000
00000000
00000000
00000000
00000000
00000000
00000000
00000000
00010000
00000000
00000000
00000000
03100000
00003000
00000000
00000000
,
20010000
00001000
00100000
31000000
,
00220000
00000000
00001000
01330000
,
00102000
01000000
00010000
00003010
,
00001000
00000000
00010000
00000000
00000100
00000010
00000000
00001000
00010000
00000000
00000100
00000010
00000001
00000100
00000010
00001000
,
00000100
00000000
00000000
00001000
00000000
00000010
00000100
00000000
00000001
00000000
00000001
00000000
00000000
00000100
00000010
00000000
,
00000100
00000000
00001000
00010000
00000000
00010000
00100000
00000000
01000000
00000000
01000000
00000000
00001000
00000000
00010000
00000000
,
00001000
00000000
01000000
00010000
00000000
00010000
00100000
00000000
01000000
00000000
01000000
00000000
00000000
10000000
00100000
00000000
,
10000000
00000000
01000000
00010000
00000000
00001000
00000000
00100000
01000000
00000000
00010000
00000000
00000000
00001000
00010000
00000000
,
00000010
00000000
00000000
00000100
00000000
00001000
00010000
00000000
00000100
00000000
00000100
00000000
00000000
00000010
00000100
00000000
,
00001000
00000000
00000001
00000100
00000000
00000100
00000010
00000000
00001000
00000000
00001000
00000000
00000001
00000000
00000100
00000000
,
00001000
00000000
00010000
00100000
00000000
00100000
00010000
00000000
00001000
00000000
00001000
00000000
00000000
00010000
00001000
00000000
,
01000000
00000000
00100000
01000000
00000000
00001000
00000000
00100000
01000000
00000000
10000000
00000000
00000000
01000000
00100000
00000000
,
00010000
10000000
01000000
00000000
00010000
00000000
00010000
00000000
00001000
00000100
00001000
00000000
00010000
00000000
00010000
00000000
,
00100000
01000000
00001000
00100000
01000000
00010000
00001000
00000100
,
00000001
00001000
00000100
00000000
00000010
00000000
00000010
00000000
00000100
00010000
00001000
00000000
00000100
00000000
00000100
00000000
,
00001001
00000000
00000110
00000000
00011000
00000000
00100000
01000000
,
10010000
00000000
00000000
00000000
;

//---------------dance-double - J.Casarino----------------
#NOTES:
     dance-double:
     J.Casarino:
     Challenge:
     10:
     0.720,0.000,0.147,0.129,0.765,509.000,16.000,14.000,13.000,7.000,0.000:
00000000
00000000
00000000
00000000
,
00000000
00000000
00000000
00000000
,
00000000
00000000
00000000
00000000
,
00000000
00000000
00000000
00000000
00000000
00000000
00000010
00001000
,
00022000
00000000
00000000
00000000
,
00100000
00000000
00000000
00000000
,
00000010
00000000
00000000
00000000
,
01000100
00000000
00000000
00033000
,
00010000
00000000
00000000
00000100
00000000
00010000
00000100
00000000
00002000
00000000
00000000
00000000
00000000
00000000
00003010
00000000
,
00000100
00000000
00000000
00000010
00000000
00000100
00000010
00000000
00002000
00000000
00000000
00000000
00003001
00000000
00000100
00000000
,
00001000
00000000
00000000
00010000
00000000
00001000
00010000
00000000
00000020
00000000
00000000
00000000
00000000
00000000
00010030
00000000
,
00001000
00000000
00100000
00010000
00000000
00100000
00000000
00010000
00100000
00000000
01000000
00000000
10000000
00000000
01000000
00000000
,
00100000
00000000
00000000
00010000
00000000
00100000
00010000
00000000
00200000
00000000
00000000
00000000
00000000
00000000
00310000
00000000
,
01000000
00000000
00000000
00001000
00000000
01000000
00001000
00000000
00020000
00000000
00000000
00000000
00031000
00000000
00010000
00000000
,
00100000
00000000
00000000
00010000
00000000
00001000
00010000
00000000
00002000
00000000
00000000
00000000
00000000
00000000
00003010
00000000
,
00000001
00000000
00000000
00000100
00000000
00000001
00000000
00000100
00000001
00000000
00000010
00000000
00001000
00000000
00010000
00000000
,
01000000
00000000
00000000
01000000
00000000
10000000
00010000
00000000
01010000
00000000
00000000
00000000
0M0M0000
00000000
00001000
00000000
,
00010000
00000000
00100000
01000000
00000000
01000000
00100000
00000000
00010000
00000000
00000000
00000000
00001000
00000000
00001000
00000000
,
00000010
00000000
00000010
00000001
00000000
00000001
00000100
00000000
00000020
00000000
00000M00
00000000
00000030
00000000
00000100
00000000
,
00001000
00000000
00001000
00010000
00000000
00010000
00000000
00001000
01000000
00000000
00100000
00000000
00010000
00000000
00001000
00000000
,
00010000
00000000
00000000
00000100
00000000
00000100
00001000
00000000
00001100
00000000
00000000
00000000
0000MM00
00000000
00000001
00000000
,
00000100
00000000
00000010
00010000
00000000
00010000
00000010
00000000
00000100
00000000
00000000
00000000
00001000
00000000
00001000
00000000
,
00010000
00000000
00010000
00100000
00000000
00100000
10000000
00000000
20000000
00000000
00000000
00000000
30000000
00000000
00100000
00000000
,
01000000
00000000
01000000
00100000
00000000
00100000
00000000
00010000
00001000
00000000
00000100
00000000
00001000
00000000
00010000
00000000
,
01001000
00001000
00010000
01000000
00010000
00001000
00000000
00101000
,
00010000
00001000
00000100
00000010
00000001
00000010
00000000
00001001
,
00000100
00000010
00000100
00001000
00010000
01000000
00000000
01100000
,
10000000
00100000
00010000
00000010
00010000
00001000
00000000
00011000
,
00010000
00000100
00010000
00000100
00001000
00000100
00001000
00000100
00001000
00000001
00001000
00000001
00000010
00000001
00000010
00000001
,
00000100
00000001
00000100
00000001
00000100
00000010
00000100
00000010
00001000
00000010
00001000
00000010
00010000
00000010
00010000
00000010
,
00010000
00001000
00010000
00001000
01000000
00010000
01000000
00010000
10000000
00100000
10000000
00100000
01000000
00010000
01000000
00010000
,
00100000
00001000
00100000
00001000
00010000
00000010
00010000
00000010
00001000
00000001
00001000
00000001
00000100
00000010
00000100
00000010
,
00001000
00000010
00010000
00000010
00001000
00000010
00010000
00001000
00100000
00010000
00100000
01000000
00100000
00010000
00100000
01000000
,
10000000
00010000
01000000
00010000
10000000
00010000
01000000
00010000
00100000
01000000
10000000
01000000
00100000
00010000
01000000
00001000
,
00010000
00001000
00010000
00000100
00001000
00000100
00001000
00000010
00000100
00000001
00001000
00000100
00001000
00000001
00000100
00000010
,
00001000
00000010
00010000
00001000
00010000
00000100
00001000
00000100
00010000
00001000
01000000
00001000
00010000
00001000
00100000
00001000
,
00010000
00000000
00000100
00001000
00000000
00000100
00001000
00000000
00000001
00000010
00000000
00000001
00000010
00000000
00000100
00000000
,
00001000
00000010
00000100
00001000
00000100
00000010
00010000
00001000
,
01000000
00000000
00010000
00100000
00000000
00010000
00100000
00000000
01000000
10000000
00000000
01000000
10000000
00000000
00100000
00000000
,
01000000
10000000
01000000
00100000
00010000
00001000
00010000
00000100
,
00010000
00000000
00001000
00000100
00000000
00001000
00000100
00000000
00000010
00001000
00000000
00000010
00001000
00000000
00000001
00000000
,
00000010
00001000
00010000
01000000
00010000
00001000
00100000
00010000
,
01000000
00000000
00100000
00010000
00000000
00100000
00010000
00000000
00001000
01000000
00000000
00001000
01000000
00000000
00010000
00000000
,
00100000
10000000
00100000
01000000
10000000
01000000
00010000
00001000
,
00000010
00000000
00000010
00000001
00000000
00000001
00000100
00000000
00000100
00001000
00000000
00001000
00010000
00000000
00010000
00000000
,
00100000
10000000
00000000
00000000
11110000
00000000
00000000
00000000
,
01000000
00000000
01000000
10000000
00000000
10000000
00100000
00000000
00100000
00010000
00000000
00010000
00001000
00000000
00001000
00000000
,
01000000
00001000
00000000
00000000
00111010
00000000
00000000
00000000
,
00000010
00000000
00000010
00001000
00000000
00001000
00000001
00000000
00000001
00000100
00000000
00000100
00001000
00000000
00001000
00000000
,
00010000
00000010
00000000
00000000
00001111
00000000
00000000
00000000
,
00000100
00000000
00000100
00001000
00000000
00001000
00000010
00000000
00000010
00000001
00000000
00000001
00000010
00000000
00000010
00000000
,
00010000
00001000
00000000
00000000
01011100
00000000
00000000
00000000
,
00010000
00000000
00000000
00000010
00000000
00000100
00000001
00000000
00000011
00000000
00000000
00000000
000000MM
00000000
00000001
00000000
,
00000100
00000000
00001000
00010000
00000000
00010000
00001000
00000000
00200000
00000000
00000000
00000000
00301000
00000000
00000010
00000000
,
00001000
00000000
00010000
00100000
00000000
10000000
01000000
00000000
00100000
00000000
00000000
00000000
0MM00000
00000000
10000000
00000000
,
00100000
00000000
00010000
01000000
00000000
00100000
00000000
00010000
00001000
00000000
00000010
00000000
00000100
00001000
00000100
00000000
,
00010000
00000000
00001000
01000000
00000000
00010000
00100000
00000000
00101000
00000000
00000000
00000000
00M0M000
00000000
00010000
00000000
,
00000100
00000000
00001000
00000010
00000000
00000010
00000001
00000000
00000020
00000000
00000000
00000000
00010030
00000000
01000000
00000000
,
10000000
00000000
00100000
01000000
00000000
00100000
00010000
00000000
00001000
00000000
000MM000
00000000
00000000
00000000
00000010
00000000
,
00010000
00000000
00001000
00000100
00000000
00000001
00000000
00000010
00000100
00000000
00010000
00000000
00000010
00000000
00010000
00000000
,
00001000
01000000
00001000
00000000
00100000
00000000
00100000
00000000
00001000
00100000
00001000
00000000
00010000
00000000
00010000
00000000
,
00001000
00100000
00001000
00100000
00010000
01000000
00010000
00000000
10000000
00100000
10000000
00100000
01000000
00010000
01000000
00000000
,
00010000
00100000
00001000
00000000
00010000
00000000
00010000
00000000
00001000
00010000
00001000
00000000
00000010
00000000
00000010
00000000
,
00000001
00000100
00000000
00000100
00000001
00000000
00000010
00001000
00000000
00001000
00010000
00000000
00001000
01000000
00010000
00000000
,
02002000
03003000
00000000
00000000
;
