#TITLE:Out of the Dark;
#SUBTITLE:;
#ARTIST:Hybrid;
#TITLETRANSLIT:;
#SUBTITLETRANSLIT:;
#ARTISTTRANSLIT:;
#GENRE:Techno;
#CREDIT:;
#BANNER:Out Of The Dark-banner.png;
#BACKGROUND:Out Of The Dark-bg.png;
#LYRICSPATH:;
#CDTITLE:;
#MUSIC:Out Of The Dark.ogg;
#OFFSET:-0.072;
#SAMPLESTART:7.090;
#SAMPLELENGTH:11.860;
#SELECTABLE:YES;
#BPMS:0.000=136.000;
#STOPS:;
#BGCHANGES:0.000=Out of the Dark-bg.png=1.000=0=0=1=====,
16.000=In The Groove 2/453_JumpBack.mpg=1.000=0=0=1=====,
32.000=In The Groove 2/956_JumpBack.mpg=1.000=0=0=1===FadeLeft==,
48.000=In The Groove 2/594_JumpBack.mpg=1.000=0=0=1===FadeUp==,
64.000=-random-=1.000=0=0=1===FadeDown==,
80.000=-random-=1.000=0=0=1===FadeLeft==,
96.000=-random-=1.000=0=0=1===FadeRight==,
112.000=In The Groove 2/595_JumpBack.mpg=1.000=0=0=1=====,
128.000=In The Groove 2/862_JumpBack.mpg=1.000=1=0=1===CrossFade==,
140.000=In The Groove 2/595_JumpBack.mpg=1.000=0=0=1=SongBgWithMovieViz====,
144.000=-random-=1.000=0=0=1====1^1^0^1=,
160.000=-random-=1.000=0=0=1===FadeLeft==,
176.000=-random-=1.000=0=0=1===FadeRight==,
192.000=-random-=1.000=0=0=1===FadeDown==,
204.000=In The Groove 2/980_JumpBack.mpg=1.000=0=0=1=SongBgWithMovieViz====,
208.000=In The Groove 2/980_JumpBack.mpg=1.000=0=0=1=====,
224.000=-random-=1.000=0=0=1===FadeLeft==,
240.000=Out of the Dark-bg.png=1.000=0=0=1=====,
99999=-nosongbg-=1.000=0=0=0 // don't automatically add -songbackground-
;
#BGCHANGES2:16.000=flash=1.000=0=0=1====1^1^0^1=,
112.000=flash=1.000=0=0=1=====,
140.000=flash=1.000=0=0=1====1^1^0^1=,
144.000=flash=1.000=0=0=1=====,
204.000=flash=1.000=0=0=1====1^1^0^1=,
208.000=flash=1.000=0=0=1=====,
240.000=flash=1.000=0=0=1=====,
;
#KEYSOUNDS:;
// cache tags:
#FIRSTBEAT:16.000;
#LASTBEAT:243.000;
#SONGFILENAME:/Songs/In The Groove 2/Out Of The Dark/Out of the Dark.sm;
#HASMUSIC:1;
#HASBANNER:1;
#MUSICLENGTH:108.051;
// end cache tags

//---------------dance-single - ----------------
#NOTES:
     dance-single:
     :
     Easy:
     5:
     0.329,0.000,0.157,0.019,0.000,230.000,17.000,2.000,0.000,0.000,0.000:
0000
0000
0000
0000
,
0000
0000
0000
0000
,
0000
0000
0000
0000
,
0000
0000
0000
0000
,
0001
0000
1000
0000
0010
0000
0100
0001
,
0000
1000
0000
0001
0000
0010
0100
0000
,
1000
0010
1000
0000
0001
0000
0100
0010
,
0000
1000
0000
0100
0000
0010
0001
0010
,
0001
0000
0100
0000
1000
0000
0100
0001
,
0000
0010
0000
0100
0000
1000
0010
0000
,
1000
0001
1000
0000
0001
0000
0010
0100
,
0000
0100
0000
0010
0000
0001
0100
0001
,
1000
0001
0010
1000
,
0010
0001
0000
0000
0100
0000
0010
0000
,
1000
0100
0001
0100
,
0010
0001
0000
0000
1000
0000
0010
0000
,
0100
1000
0100
0001
,
0010
0100
0000
0000
1000
0000
0001
0000
,
0100
0010
0001
0010
,
1000
0001
1000
0000
0110
0000
0000
0000
,
0001
0100
1000
0100
,
0001
1000
0100
0010
,
0001
1000
0010
0001
,
0010
1000
0001
0010
,
0100
1000
0001
0100
,
0010
1000
0100
0001
,
0100
1000
0010
0001
,
0010
1000
0110
0000
,
0001
0000
0000
0001
0000
0000
0001
0000
,
0000
0001
0000
0000
0001
0000
0000
0000
,
1000
0000
0000
1000
0000
0000
1000
0000
,
0000
1000
0000
0000
1000
0000
0000
0000
,
0010
0000
0000
0010
0000
0000
0010
0000
,
0000
0010
0000
0000
0010
0000
0000
0000
,
0100
0000
0000
0100
0000
0000
0100
0000
,
1001
0110
0011
1100
,
0001
1000
0100
0010
,
0001
0100
0000
0100
0001
0000
1000
0000
,
0100
0010
1000
0010
,
0001
1000
0001
0000
0100
0000
0010
0000
,
1000
0100
0001
0100
,
1000
0010
0000
0100
0001
0000
0010
0000
,
0100
0011
0100
1100
,
1000
0010
1000
0000
0001
0000
0110
0000
,
0100
0000
0001
0000
1000
0000
0100
0010
,
0100
0010
0100
0000
0010
0000
0001
0000
,
1000
0010
0100
0001
,
0010
0001
0000
1000
0001
0000
1000
0000
,
0010
0100
1001
0000
,
0100
0010
1001
0000
,
0001
0000
0100
0010
0100
0000
0001
0000
,
1000
0100
0000
0010
0001
0000
1001
0000
,
1000
0100
0001
0100
,
1000
0010
0001
0010
,
1000
0001
0100
0010
,
1000
0000
0100
0000
0010
0100
0010
0000
,
0001
0100
1000
0100
,
0001
0010
1000
0010
,
0001
0010
0100
1000
,
1001
0110
0101
1010
,
2002
0000
0000
3003
;

//---------------dance-single - ----------------
#NOTES:
     dance-single:
     :
     Medium:
     7:
     0.475,0.000,0.083,0.019,0.167,348.000,9.000,2.000,0.000,0.000,0.000:
0000
0000
0000
0000
,
0000
0000
0000
0000
,
0000
0000
0000
0000
,
0000
0000
0000
0000
,
1000
0000
0001
0000
0100
0000
0000
0010
0000
0000
0010
0000
0000
0010
0000
0000
,
1000
0100
0010
0001
0100
0000
1010
0000
,
0001
0000
0010
0000
0100
0000
0000
1000
0000
0000
1000
0000
0000
1000
0000
0000
,
0010
0100
0001
0010
0100
0000
0101
0000
,
1000
0000
0100
0000
0010
0000
0000
0001
0000
0000
0001
0000
0000
0001
0000
0000
,
0100
0010
1000
0100
0010
0000
0011
0000
,
1000
0000
0001
0000
0010
0000
0000
0100
0000
0000
0100
0000
0000
0100
0000
0000
,
1000
0010
0100
0001
0010
0000
0101
0000
,
1000
0000
0001
0000
0100
0000
0010
0000
1000
0001
0000
0000
0000
0000
1010
0000
,
0000
0000
0010
0000
0100
0000
0001
0000
0010
0100
0000
0000
0000
0000
1000
0000
,
0001
0000
0100
0000
0010
0000
1000
0000
0001
0010
0000
0000
0000
0000
0101
0000
,
0000
0000
0010
0000
1000
0000
0100
0000
0010
0001
0000
0000
0000
0000
1000
0000
,
0010
0000
0100
0000
0001
0000
0010
0000
0001
0100
0000
0000
0000
0000
1010
0000
,
0000
0000
1000
0000
0100
0000
0010
0000
0001
1000
0000
0000
0000
0000
0010
0000
,
0100
0000
0001
0000
0010
0000
0100
0000
1000
0010
0000
0000
0000
0000
0101
0000
,
0000
0000
0010
0000
0100
0000
1000
0000
1000
0010
0000
0000
0000
0000
0100
0000
,
0001
0010
1000
0010
0001
1000
0001
0000
,
1000
0010
0100
0000
1000
0100
0010
0000
,
1000
0001
0010
0100
1000
0010
0100
0000
,
0001
0010
0100
0000
0001
0100
0010
0000
,
0001
0100
1000
0100
0001
1000
0001
0000
,
1000
0100
0010
0000
0001
0100
0010
0000
,
1000
0001
0010
0100
1000
0010
0100
0000
,
0001
1000
0100
0000
1000
0001
0100
0000
,
0010
0010
0010
0000
,
1000
1000
1000
0000
,
0100
0100
0100
0000
,
0010
0010
0010
0000
,
0001
0001
0001
0000
,
1000
0010
0100
0000
,
0001
0010
0100
0000
,
1000
0000
0001
0000
0000
0100
0000
0000
0010
0000
0000
1000
0000
0000
0100
0000
,
0010
0000
0001
0000
0100
0000
0010
0000
1000
0001
0000
0000
0000
0000
0010
0000
,
0100
0000
1000
0000
0010
0000
0100
0000
0001
0010
0000
0000
0000
0000
0100
0000
,
1000
0000
0001
0000
0100
0000
0010
0000
1000
0001
0000
0000
0000
0000
0010
0000
,
0100
1000
0001
0100
1000
0100
0001
0000
,
1000
0000
0100
0000
0010
0000
0001
0000
0100
0010
0000
0000
0000
0000
1000
0000
,
0001
0000
0010
0000
0100
0000
1000
0000
0010
0100
0000
0000
0000
0000
0001
0000
,
1000
0000
0100
0000
0010
0000
0001
0000
0100
0010
0000
0000
0000
0000
1000
0000
,
0001
0010
1000
0010
0001
0100
0010
0000
,
1000
0000
0000
1000
0000
0000
1000
0000
0001
0000
0010
0000
0100
0000
1000
0000
,
0010
0000
0000
0010
0000
0000
0010
0000
0100
0001
0000
0000
1000
0000
0100
0000
,
0010
0000
0000
0010
0000
0000
0010
0000
0001
0000
0100
0000
0010
0000
1000
0000
,
0001
0000
0000
0001
0000
0000
0001
0000
0010
0100
0000
0000
1000
0000
0001
0000
,
0100
0000
0000
0100
0000
0000
0100
0000
0010
0000
1000
0000
0100
0000
0010
0000
,
0001
0000
0000
0001
0000
0000
0001
0000
0100
0010
0000
0000
1000
0000
0001
0000
,
1000
0000
0000
1000
0000
0000
1000
0000
0100
0000
0010
0000
0001
0000
1000
0000
,
0100
0000
0000
0100
0000
0000
0100
0000
0010
0001
0000
0000
0100
0000
0010
0000
,
1000
0001
0010
0100
0010
1000
0010
0000
,
0001
0100
0010
0001
0010
1000
0010
0000
,
1000
0100
0010
0001
1000
0100
0010
0000
,
0001
0010
0100
1000
0001
0010
0100
0000
,
1000
0010
0100
0001
0010
0100
1000
0000
,
0001
0100
0001
1000
0100
1000
0010
0000
,
0100
0001
1000
0100
0010
0001
0010
0000
,
0001
1000
0010
0100
0001
0100
1000
0000
,
2002
0000
0000
3003
;

//---------------dance-single - ----------------
#NOTES:
     dance-single:
     :
     Hard:
     9:
     0.621,0.000,0.213,0.019,0.352,445.000,23.000,2.000,0.000,0.000,0.000:
0000
0000
0000
0000
,
0000
0000
0000
0000
,
0000
0000
0000
0000
,
0000
0000
0000
0000
,
0000
1000
0001
0000
0100
0010
0000
1000
0001
0000
1000
0000
0100
0010
0001
0000
,
0000
0100
0001
0000
1000
0010
0000
0100
0001
0000
0010
0000
0100
1000
0100
0000
,
0000
1000
0010
0000
0001
0010
0000
1000
0100
0000
0010
0000
0001
0100
0001
0000
,
0000
1000
0001
0000
1000
0100
0000
0010
0100
0000
1000
0000
0001
1000
0100
0000
,
0000
0010
0100
0000
1000
0001
0000
0100
0010
0000
1000
0000
0100
0010
0001
0000
,
0000
0100
0010
0000
1000
0100
0000
0010
0100
0000
1000
0000
0010
0100
0010
0000
,
0000
1000
0100
0000
0001
0100
0000
0010
0001
0000
0100
0000
0010
1000
0001
0000
,
0010
0000
0100
0000
1000
0000
0001
0000
0100
0010
0000
1000
0100
0010
0100
0010
,
0100
0000
1000
0000
0100
0000
0001
0000
0100
1000
0000
0000
0010
0000
0100
0000
,
0001
0000
0010
0000
1000
0000
0010
0000
0100
1000
0000
0000
0001
0000
0100
0000
,
0010
0000
0001
0000
0010
0000
1000
0000
0100
0010
0000
0000
0001
0000
1000
0000
,
0010
0000
0100
0000
1000
0000
0100
0000
0001
1000
0001
0000
0110
0000
0000
0000
,
1000
0000
0001
0000
0010
0000
1000
0000
0010
0001
0000
0000
0100
0000
0010
0000
,
1000
0000
0100
0000
0001
0000
0100
0000
0010
0001
0000
0000
1000
0000
0010
0000
,
0100
0000
1000
0000
0100
0000
0001
0000
0010
0100
0000
0000
1000
0000
0001
0000
,
0100
0000
0010
0000
0001
0000
0010
0000
1000
0001
1000
0000
0110
0000
0000
0000
,
0100
0010
0100
1000
0010
0001
0010
1000
,
0100
0010
0001
0100
1000
0100
0001
0010
,
0100
1000
0010
0100
0001
0010
0100
1000
,
0001
0100
0010
1000
0001
0010
0110
0000
,
1000
0100
0010
0001
0100
0010
1000
0100
,
1000
0001
0100
1000
0100
0001
1000
0100
,
0010
0001
1000
0010
0100
0001
0010
1000
,
0010
0001
0100
1000
0100
0001
0110
0000
,
1000
0000
0000
1000
0000
0000
1000
0000
,
0001
0000
0000
0001
0000
0000
0001
0000
,
0100
0000
0000
0100
0000
0000
0100
0000
,
0010
0000
0000
0010
0000
0000
0010
0000
,
1000
0000
0000
0100
0000
0000
0010
0000
0000
0001
0000
0000
0100
0000
0000
0000
,
0010
0000
0000
1000
0000
0000
0001
0000
0000
0010
0000
0000
0100
0000
0100
0000
,
1000
0000
0000
0010
0000
0000
0100
0000
0000
0001
0000
0000
0010
0000
0000
0000
,
1100
0000
1001
0000
0000
0101
0000
0000
1010
0000
0000
0011
0000
0000
0110
0000
,
1000
0000
0010
0000
0100
0000
0001
0000
1000
0100
0000
0100
1000
0000
0010
0000
,
0100
0000
1000
0000
0100
0000
0001
0000
1000
0100
1000
0000
0100
0000
0010
0000
,
0001
0000
0100
0000
1000
0000
0100
0000
0010
1000
0000
1000
0010
0000
1000
0000
,
0001
0000
0010
0000
0100
0000
1000
0000
0001
0100
0001
0000
0100
0000
0010
0000
,
1000
0000
0001
0000
0010
0000
0100
0000
1000
0010
0000
0010
1000
0000
0001
0000
,
0010
0000
0100
0000
0001
0000
0100
0000
1000
0001
1000
0000
0010
0000
0100
0000
,
0001
0000
0010
0000
1000
0000
0010
0000
0001
0100
0000
0010
1000
0000
0100
0000
,
0010
0000
0010
0000
0010
0000
0010
0000
0001
0100
0001
0000
1000
0000
0010
0000
,
0100
0000
0001
0000
1000
0000
0100
0010
0100
0010
0100
0000
0010
0000
0001
0000
,
1000
0000
0010
0000
0100
0000
0001
0000
0010
0001
0000
1000
0001
0000
1000
0000
,
0010
0100
1001
0000
0100
0010
1001
0000
,
0001
0000
0100
0000
0010
0000
0100
0000
0001
1000
0000
1000
0001
0000
1000
0000
,
0010
0000
1000
0000
0001
0000
0010
0100
0010
0100
0010
0000
0100
0000
1000
0000
,
0001
0000
0100
0000
0010
0000
1000
0000
0100
1000
0000
0001
1000
0000
0001
0000
,
0100
0010
1001
0000
0010
0100
1001
0000
,
1000
0000
0010
0000
0100
0000
0010
0000
1000
0100
0000
0100
0010
0000
1001
0000
,
0001
0010
0100
1000
0010
0001
0010
1000
,
0001
0000
0010
0000
0100
0000
1000
0000
0010
0000
0100
0000
0010
0100
0010
0000
,
1000
0001
0100
1000
0100
0001
0010
1000
,
0010
0001
1000
0010
0100
0010
1001
0000
,
0001
0010
0100
1000
0001
0100
1000
0100
,
0001
0000
1000
0000
0010
0000
0100
0000
0001
0000
0010
0000
0100
0010
0100
0000
,
1000
0100
0010
0001
1000
0100
0010
0001
,
0110
0000
1100
0000
0000
1001
0000
0000
1010
0000
0000
0101
0000
0000
0110
0000
,
2002
0000
0000
3003
;

//---------------dance-single - M.Emirzian----------------
#NOTES:
     dance-single:
     M.Emirzian:
     Challenge:
     10:
     0.771,0.000,0.176,0.037,0.884,560.000,19.000,4.000,8.000,0.000,0.000:
0000
0000
0000
0000
,
0000
0000
0000
0000
,
0000
0000
0000
0000
,
0000
0000
0000
0000
,
0000
1000
0001
0000
0001
0100
0000
0100
0010
0000
1000
0000
0100
0010
0001
1000
,
0000
1000
0100
0000
0100
0001
0000
0001
0100
0000
1000
0010
0100
0001
0010
0100
,
0000
0100
0010
0000
0001
0010
0000
1000
0100
0000
0010
0000
0100
0001
0010
0100
,
0000
1000
0010
0000
0001
0100
0000
1000
0010
0000
1000
0100
0010
0001
0100
0010
,
0000
0100
0001
0000
0010
0100
0000
1000
0010
0000
0100
0000
0001
0010
1000
0010
,
0000
0001
1000
0000
1000
0100
0000
0100
0010
0000
0010
0001
0100
0010
1000
0100
,
0000
0100
0010
0000
0010
1000
0000
1000
0010
0000
0001
0000
0100
0010
1000
0100
,
0010
0000
0011
0000
1001
0000
M00M
0000
0010
1000
0001
0100
0010
1000
0100
0010
,
0001
0000
1000
0000
0010
0000
0100
0001
0010
0001
0100
0000
0010
0000
0100
0001
,
1000
0000
0010
0000
0100
0000
1000
0100
0001
0100
1000
0000
0010
0000
0100
0001
,
1000
0000
0010
0000
0100
0000
0001
0010
1000
0010
0001
0000
0100
0000
0010
1000
,
0100
0000
0010
0000
0001
0000
1000
0010
0001
0010
1000
0000
0100
0000
0010
0001
,
1000
0000
0010
0000
0100
0000
0010
1000
0100
1000
0010
0000
1000
0000
0100
0010
,
0001
0000
1000
0000
0010
0000
0100
0001
0010
0001
0100
0000
0010
0000
1000
0001
,
0010
0000
0100
0000
0010
0000
0001
1000
0100
0001
0100
0000
1000
0000
0001
0000
,
0010
0100
1000
0000
0000
0010
0100
0101
0000
1001
0000
0010
1010
0000
1000
0001
,
0100
0010
1000
1001
1000
0100
0011
1000
,
0010
0000
0101
0000
1000
0000
0110
0000
1001
0000
0000
0000
0010
0000
1000
0100
,
0010
0000
0000
0000
0001
0000
0000
0000
0010
0000
0000
0000
0001
0010
0001
0000
0010
0000
0100
0000
1000
0000
0000
0000
0001
0000
0000
0000
0100
0000
0010
0000
,
1000
0100
0010
0001
1000
0000
0010
0000
0100
0001
1000
0000
0010
0000
1000
0001
,
0100
0010
1000
0100
0010
0011
1000
0100
,
1001
0010
1000
1001
0101
0M0M
0010
1000
,
0001
1000
0100
0000
0010
0000
0001
0000
1000
0010
0001
0000
0100
0000
0010
0000
,
1000
0001
0100
0000
0010
0000
1000
0000
0100
0010
0001
0100
0010
0000
0000
0000
,
1000
0000
0000
0000
0001
0000
0000
0000
1000
0100
0000
0100
0010
0000
0000
0000
,
0000
0000
0000
0000
0001
1000
0100
0000
0000
0010
0000
0010
0001
0000
0000
0000
,
0000
0000
0000
1000
0010
0000
0000
0100
0000
0010
0000
0100
0001
0000
0000
0000
,
0010
0000
0000
0000
1000
0001
1000
0000
0000
0100
0000
0010
0001
0000
1000
0100
,
2000
0000
0000
0000
,
0000
0000
0000
0000
,
3002
0000
0000
0000
,
1003
0000
0001
0000
0100
0000
0000
0000
0010
1000
0010
0100
0001
1000
0100
0010
,
0001
0000
1000
0000
0100
0000
0010
0001
0100
0001
0010
0000
0100
0000
1000
0001
,
0100
0000
0010
0000
1000
0000
0001
0100
0010
1000
0100
0000
0010
0000
0001
1000
,
0100
0000
1000
0000
0001
0000
0100
0010
1000
0100
0010
0000
0001
0000
1000
0010
,
0100
0000
0001
0000
1000
0000
0010
0100
0001
0010
0100
1000
0010
0100
0001
0000
,
1000
0000
0100
0000
0010
0000
0001
1000
0100
1000
0010
0000
0100
0000
0001
1000
,
0010
0000
0100
0000
0001
0000
0010
1000
0010
0001
0100
0000
0010
0000
1000
0100
,
0010
0000
0001
0000
0010
0000
0100
1000
0100
0010
0001
0000
0010
0000
1000
0010
,
0100
0000
0001
0000
1000
0100
0000
0100
0001
0000
0001
0100
0000
0100
1000
0000
,
0010
0000
0100
0000
0001
0000
1000
0001
1000
0010
0100
0000
0001
0000
1000
0100
,
0010
0000
0001
0000
0100
0000
0010
1000
0100
1000
0010
0000
0100
0000
0001
1000
,
0100
0000
0010
0000
0001
0000
0010
0100
1000
0001
0100
0000
0010
0000
0100
0001
,
0010
0000
0100
0000
1000
0000
0001
0100
0010
1000
0100
0010
0001
0010
1000
0000
,
0010
0000
0001
0000
0010
0000
0100
1000
0010
0100
0001
0000
0010
0000
0100
1000
,
0001
0000
0100
0000
0010
0000
0100
0001
0010
0100
1000
0000
0010
0000
0100
0001
,
1000
0000
0010
0000
0100
0000
0001
0010
0100
1000
0001
0000
0100
0000
0010
1000
,
0100
1000
0010
0100
0001
0000
0010
0000
0100
0000
1100
0000
1001
0000
M00M
0000
,
0000
0010
1000
0000
1000
0100
0000
0100
0010
0000
0001
0000
1000
0010
1000
0100
,
0000
0100
0001
0000
0001
0100
0000
0100
1000
0000
0010
0100
0001
0010
0100
1000
,
0000
0100
1000
0000
1000
0010
0000
0010
1000
0000
0100
0000
0010
0001
0100
1000
,
0000
1000
0100
0000
0100
0001
0000
0001
0010
0000
0100
1000
0001
0100
1000
0100
,
0000
1000
0100
0000
0100
0001
0000
0001
0010
0000
0001
0000
1000
0001
1000
0100
,
0000
0100
0010
0000
0010
0001
0000
0001
0100
0000
0010
1000
0100
1000
0010
0100
,
0000
0010
0100
0000
0100
0001
0000
0001
0010
0000
0100
0000
1000
0001
0100
0010
,
1000
0000
0101
0000
1001
0000
M00M
0000
0001
0100
0010
1000
0100
0001
0010
0100
,
2002
0000
0000
3003
;

//---------------dance-double - M.Emirzian----------------
#NOTES:
     dance-double:
     M.Emirzian:
     Challenge:
     10:
     0.752,0.000,0.065,0.037,0.888,558.000,7.000,4.000,0.000,0.000,0.000:
00000000
00000000
00000000
00000000
,
00000000
00000000
00000000
00000000
,
00000000
00000000
00000000
00000000
,
00000000
00000000
00000000
00000000
,
00000000
00000001
00001000
00000000
00001000
00000100
00000000
00000100
00010000
00000000
00001000
00000000
00010000
00001000
01000000
00100000
,
00000000
01000000
00010000
00000000
00010000
00100000
00000000
00100000
01000000
00000000
10000000
00010000
01000000
00100000
10000000
01000000
,
00000000
00100000
00010000
00000000
00010000
01000000
00000000
01000000
00001000
00000000
00010000
00000000
00000100
00001000
00000010
00000100
,
00000000
00000001
00001000
00000000
00001000
00000100
00000000
00000100
00000010
00000000
00000001
00000100
00000010
00001000
00000100
00010000
,
00000000
00001000
01000000
00000000
01000000
00100000
00000000
00100000
10000000
00000000
01000000
00000000
00100000
00010000
01000000
00001000
,
00000000
00010000
00001000
00000000
00001000
00000010
00000000
00000010
00000001
00000000
00001000
00000010
00000100
00000001
00000010
00000100
,
00000000
00001000
00000001
00000000
00000001
00000100
00000000
00000100
00001000
00000000
00010000
00000000
00100000
10000000
01000000
00100000
,
00010000
00000000
10010000
00000000
11000000
00000000
00000000
00000000
00100000
10000000
01000000
00100000
00010000
00100000
00001000
00010000
,
00000100
00000000
00001000
00000000
00000010
00000000
00000100
00000001
00000100
00000010
00001000
00000000
00000100
00000000
00000010
00000100
,
00001000
00000000
00000010
00000000
00010000
00000000
00000100
00010000
00000100
00001000
00000100
00000000
00010000
00000000
00001000
01000000
,
00010000
00000000
00100000
00000000
00010000
00000000
01000000
00100000
10000000
01000000
00100000
00000000
00010000
00000000
10000000
01000000
,
00010000
00000000
00001000
00000000
00000100
00000000
00000001
00001000
00000100
00001000
00000001
00000000
00000010
00000000
00000100
00001000
,
00000100
00000000
00010000
00000000
00001000
00000000
00010000
00001000
01000000
00010000
01000000
00000000
00100000
00000000
01000000
00010000
,
10000000
00000000
01000000
00000000
00100000
00000000
00010000
10000000
01000000
00100000
00010000
00000000
01000000
00000000
00001000
00010000
,
00000100
00000000
00001000
00000000
00000010
00000000
00000100
00000001
00000100
00000010
00001000
00000000
00000100
00000000
00000010
00000000
,
00000100
00001000
00000001
00000000
00000000
00000010
00001000
00000100
00000000
00010000
00000000
00001000
01000000
00000000
00010000
10000000
,
01000000
00100000
01000000
00010000
00000010
00000100
00001000
00100000
,
00001000
00000000
00000010
00000000
00001000
00000000
00010000
00000000
00100000
00000000
00000000
00000000
00010000
00000000
00001000
00010000
,
00001000
00000000
00000000
00000000
00000100
00000000
00000000
00000000
00000001
00000000
00000000
00000000
00001000
00000001
00001000
00000000
00000010
00000000
00000100
00000000
00000001
00000000
00000000
00000000
00000010
00000000
00000000
00000000
00000100
00000000
00001000
00000000
,
00000100
00001000
00000100
00001000
00000010
00000000
00000100
00000000
00000001
00001000
00000100
00000000
00001000
00000000
00000010
00010000
,
00001000
00000100
00000010
00100000
01000000
00010000
00000010
00000100
,
00001000
00100000
01000000
00010000
00000010
00000000
00010000
01000000
,
10000000
00010000
10000000
00000000
01000000
00000000
00100000
00000000
00010000
01000000
00010000
00000000
00100000
00000000
01000000
00000000
,
10000000
00010000
10000000
00000000
01000000
00000000
00010000
00000000
00001000
00010000
00000100
00001000
00000010
00000000
00000000
00000000
,
00000100
00000000
00000000
00000000
00000001
00000000
00000000
00000000
00000010
00000100
00000000
00000100
00001000
00000000
00000000
00000000
,
00000000
00000000
00000000
00000000
00000000
00000001
00000000
00000000
00000000
00000100
00000000
00000100
00001000
00000000
00000000
00000000
,
00000000
00000000
00000000
00010000
00001000
00000000
00000000
00010000
00000000
01000000
00000000
10000000
00010000
00000000
00000000
00000000
,
01000000
00000000
00000000
00000000
00000000
00100000
10000000
00100000
00000000
01000000
00000000
00010000
00100000
00000000
01000000
10000000
,
02000000
00000000
00000000
00000000
,
00000000
00000000
00000000
00000000
,
03200000
00000000
00000000
00000000
,
00310000
00000000
10000000
00000000
00100000
00000000
00000000
00000000
10000000
00100000
01000000
00001000
00010000
00000100
00001000
00000001
,
00000010
00000000
00000100
00000000
00001000
00000000
00000001
00000100
00000010
00001000
00000010
00000000
00010000
00000000
00000100
00001000
,
00000100
00000000
00010000
00000000
00001000
00000000
01000000
00010000
10000000
01000000
00100000
00000000
00010000
00000000
01000000
00001000
,
00010000
00000000
00100000
00000000
00010000
00000000
00001000
01000000
00010000
01000000
00100000
00000000
10000000
00000000
01000000
00100000
,
00010000
00000000
01000000
00000000
00001000
00000000
00010000
00000100
00001000
00000010
00000100
00000001
00000010
00000100
00001000
00000000
,
00000010
00000000
00010000
00000000
00001000
00000000
01000000
00010000
10000000
01000000
00100000
00000000
00010000
00000000
01000000
00001000
,
00010000
00000000
00000100
00000000
00001000
00000000
00000010
00000100
00000010
00001000
00000010
00000000
00001000
00000000
00000100
00000010
,
00000001
00000000
00001000
00000000
00000010
00000000
00001000
00000100
00010000
00001000
00010000
00000000
00100000
00000000
01000000
00010000
,
10000000
00000000
01000000
00000000
00100000
00010000
00000000
00010000
01000000
00000000
01000000
00100000
00000000
00100000
00010000
00000000
,
00001000
00000000
01000000
00000000
00001000
00000000
00010000
00000100
00001000
00000010
00001000
00000000
00000100
00000000
00000010
00000001
,
00001000
00000000
00000010
00000000
00000100
00000000
00000001
00001000
00000100
00000010
00000100
00000000
00010000
00000000
00001000
01000000
,
00010000
00000000
00100000
00000000
01000000
00000000
10000000
00010000
01000000
10000000
01000000
00000000
00010000
00000000
10000000
01000000
,
00100000
00000000
00010000
00000000
01000000
00000000
00001000
00010000
00001000
00010000
00000010
00001000
00000010
00000100
00000001
00000000
,
00000010
00000000
00000100
00000000
00001000
00000000
00000001
00000100
00000010
00001000
00000100
00000000
00010000
00000000
00001000
01000000
,
00010000
00000000
00100000
00000000
01000000
00000000
10000000
00010000
01000000
00100000
10000000
00000000
00010000
00000000
00100000
01000000
,
10000000
00000000
00010000
00000000
01000000
00000000
00001000
00010000
00000100
00001000
00000100
00000000
00000010
00000000
00000001
00001000
,
00000010
00000100
00000001
00001000
00000100
00000000
00000010
00000000
00000001
00000000
00001001
00000000
00001100
00000000
00000000
00000000
,
00000000
00000010
00001000
00000000
00001000
00000100
00000000
00000100
00010000
00000000
00001000
00000000
01000000
00010000
00100000
00001000
,
00000000
00010000
01000000
00000000
01000000
10000000
00000000
10000000
00100000
00000000
01000000
00010000
00100000
01000000
10000000
00010000
,
00000000
00010000
01000000
00000000
01000000
00100000
00000000
00100000
00010000
00000000
00001000
00000000
00000010
00000100
00001000
00000001
,
00000000
00001000
00000010
00000000
00000010
00000100
00000000
00000100
00000001
00000000
00000010
00000100
00001000
00000010
00000100
00000001
,
00000000
00000001
00000100
00000000
00000100
00001000
00000000
00001000
00010000
00000000
00100000
00000000
10000000
00010000
10000000
01000000
,
00000000
10000000
01000000
00000000
01000000
00010000
00000000
00010000
00001000
00000000
00000100
00000001
00001000
00000100
00000010
00000001
,
00000000
00000001
00000100
00000000
00000100
00000010
00000000
00000010
00001000
00000000
00000100
00000000
00010000
00001000
01000000
00100000
,
01000000
00000000
10010000
00000000
00110000
00000000
00000000
00000000
01000000
10000000
00100000
01000000
00010000
10000000
01000000
00100000
,
20020000
00000000
00000000
30030000
;

//---------------dance-double - M.Emirzian----------------
#NOTES:
     dance-double:
     M.Emirzian:
     Hard:
     9:
     0.604,0.000,0.056,0.037,0.426,447.000,6.000,4.000,0.000,0.000,0.000:
00000000
00000000
00000000
00000000
,
00000000
00000000
00000000
00000000
,
00000000
00000000
00000000
00000000
,
00000000
00000000
00000000
00000000
,
00000000
10000000
00010000
00000000
00010000
01000000
00000000
01000000
00001000
00000000
00010000
00000000
00000100
00000000
00001000
00000000
,
00000000
00000010
00000100
00000000
00000100
00000001
00000000
00000001
00001000
00000000
00000100
00000000
00010000
00000000
00001000
00000000
,
00000000
01000000
00010000
00000000
00010000
00100000
00000000
00100000
01000000
00000000
10000000
00000000
00010000
00000000
01000000
00000000
,
00000000
00100000
10000000
00000000
10000000
01000000
00000000
01000000
00100000
00000000
00001000
00000000
00010000
00000000
00000100
00000000
,
00000000
00001000
00000010
00000000
00000010
00000100
00000000
00000100
00000001
00000000
00000010
00000000
00000100
00000000
00001000
00000000
,
00000000
00000001
00000010
00000000
00000010
00001000
00000000
00001000
00010000
00000000
00100000
00000000
10000000
00000000
01000000
00000000
,
00000000
00100000
00010000
00000000
00010000
01000000
00000000
01000000
00100000
00000000
10000000
00000000
01000000
00000000
00100000
00010000
,
01000000
00000000
00001000
00000000
00010000
00000000
00000000
00000000
00000100
00010000
00001000
00000000
00000010
00000000
00000001
00001000
,
00000100
00000010
00000100
00001000
00000001
00000000
00000100
00000010
,
00000100
00001000
00010000
01000000
00100000
00000000
00010000
01000000
,
00100000
00010000
00000100
00100000
01000000
00000000
00010000
00001000
,
01000000
00100000
00010000
00000010
00001000
00000000
00000100
00010000
,
00001000
01000000
00100000
10000000
01000000
00000000
00100000
01000000
,
00010000
00000100
01000000
00100000
00010000
00000000
00001000
00000010
,
00000100
00010000
00100000
00010000
00001000
00000000
00000010
00000100
,
00001000
00000010
00000100
00000000
00000000
00000001
00001000
00000010
00000000
00000100
00000000
00000001
00001000
00000000
00000100
00000010
,
00000100
00001000
00000001
00000100
00000010
00000100
00001000
00100000
,
01000000
00010000
00001000
00010000
00100000
00000000
10000000
00010000
,
01000000
00000000
00100000
00000000
10000000
00000000
01000000
00100000
01000000
00000000
00010000
00000000
00001000
00000000
01000000
00010000
,
01000000
00000000
00100000
00000000
00010000
00000000
00001000
00000000
00000010
00000100
00000010
00000000
00001001
00000000
00000000
00000000
,
00001000
00000100
00000010
00001000
00000010
00000001
00000100
00001000
,
01000000
00100000
00010000
00001000
00100000
00000000
01000000
10000000
,
01000000
00100000
01000000
00000000
10000000
00000000
00100000
00000000
00010000
00000000
00001000
00000000
00100000
00000000
01000000
00000000
,
00010000
00000000
00000100
00000000
00001000
00000000
00000010
00000000
00000100
00000001
00000100
00000000
00001001
00000000
00000000
00000000
,
00000001
00000100
00001000
00010000
,
00000000
00001000
00000000
00010000
,
00100000
00000000
00000000
00000000
10000000
00000000
00000000
00000000
00000000
00010000
00000000
00000000
01000000
00000000
00000000
00000000
,
10000000
00000000
00000000
01000000
00000000
00000000
00010000
00000000
,
20000000
00000000
00000000
00000000
,
00000000
00000000
00000000
00000000
,
30020000
00000000
00000000
00000000
,
10030000
00000000
00010000
00000000
01000000
00000000
00000000
00000000
00100000
10000000
00100000
00000000
01000000
00000000
00010000
00000000
,
10000000
00000000
01000000
00000000
00100000
00000000
00001000
00010000
00001000
00000000
00000100
00000000
00000001
00000000
00001000
00000100
,
00001000
00000000
00000010
00000000
00000100
00000000
00000001
00000100
00000001
00000000
00000010
00000000
00001000
00000000
00010000
00001000
,
00010000
00000000
00100000
00000000
10000000
00000000
01000000
00100000
01000000
00000000
00100000
00000000
00010000
00000000
01000000
10000000
,
01000000
00000000
00001000
00000000
00010000
00000000
00000100
00001000
00000100
00000000
00000010
00000000
00000001
00000000
00001000
00000010
,
00001000
00000000
00000100
00000000
00000010
00000000
00000001
00000100
00000001
00000000
00000010
00000000
00001000
00000000
00010000
00001000
,
00010000
00000000
00100000
00000000
10000000
00000000
00010000
01000000
00010000
00000000
00100000
00000000
01000000
00000000
10000000
00010000
,
10000000
00000000
00100000
00000000
10000000
00000000
00010000
00100000
00010000
00000000
00100000
00000000
00001000
00000000
00010000
00000100
,
00010000
00000000
00001000
00000000
00000010
00000001
00000000
00000001
00000100
00000000
00000100
00000010
00000000
00000010
00001000
00000000
,
00000100
00000000
00000010
00000000
00001000
00000000
00010000
00001000
00010000
00000000
01000000
00000000
10000000
00000000
00100000
01000000
,
00100000
00000000
10000000
00000000
01000000
00000000
00100000
00010000
00100000
00000000
00001000
00000000
01000000
00000000
00100000
10000000
,
00100000
00000000
00010000
00000000
00001000
00000000
00010000
00001000
00010000
00000000
00000010
00000000
00000100
00000000
00000001
00001000
,
00000001
00000000
00000010
00000000
00000100
00000000
00001000
00000010
00001000
00000000
00000100
00000000
00000010
00000000
00000001
00001000
,
00000001
00000000
00000100
00000000
00001000
00000000
00010000
00001000
00010000
00000000
01000000
00000000
10000000
00000000
00100000
10000000
,
00100000
00000000
01000000
00000000
00010000
00000000
00100000
01000000
00100000
00000000
01000000
00000000
10000000
00000000
00010000
01000000
,
00010000
00100000
00001000
00000000
00011000
00000000
00000101
00000000
,
00001000
00000010
00000100
00000001
00000010
00000100
00001001
00000000
,
00000000
00000001
00000100
00000000
00000100
00001000
00000000
00001000
00010000
00000000
01000000
00000000
10000000
00000000
00010000
00000000
,
00000000
10000000
01000000
00000000
01000000
00100000
00000000
00100000
00010000
00000000
01000000
00000000
00100000
00000000
10000000
00000000
,
00000000
00010000
01000000
00000000
01000000
00001000
00000000
00001000
00010000
00000000
00000100
00000000
00001000
00000000
00000010
00000000
,
00000000
00000100
00000001
00000000
00000001
00000010
00000000
00000010
00000100
00000000
00001000
00000000
00000001
00000000
00000100
00000000
,
00000000
00001000
00010000
00000000
00010000
00100000
00000000
00100000
10000000
00000000
01000000
00000000
00100000
00000000
00010000
00000000
,
00000000
00100000
01000000
00000000
01000000
10000000
00000000
10000000
00100000
00000000
00010000
00000000
00001000
00000000
00000010
00000000
,
00000000
00000100
00001000
00000000
00001000
00000010
00000000
00000010
00000100
00000000
00000001
00000000
00000010
00000000
00000100
00000000
,
00001000
00000000
00000010
00000000
00010000
00001000
00000000
00001000
01000000
00000000
01000000
00100000
00000000
00100000
10000000
00000000
,
20020000
00000000
00000000
30030000
;

//---------------dance-double - M.Emirzian----------------
#NOTES:
     dance-double:
     M.Emirzian:
     Easy:
     3:
     0.208,0.000,0.157,0.037,0.000,136.000,17.000,4.000,0.000,0.000,0.000:
00000000
00000000
00000000
00000000
,
00000000
00000000
00000000
00000000
,
00000000
00000000
00000000
00000000
,
00000000
00000000
00000000
00000000
,
00000000
10000000
00010000
01000000
,
00000000
00010000
10000000
01000000
,
00000000
00100000
00010000
01000000
,
00000000
00001000
00010000
00000100
,
00000000
00001000
00000001
00000100
,
00000000
00000010
00001000
00000001
,
00000000
00000010
00000100
00001000
,
00001001
00000000
00000010
00001000
,
00001001
00000000
00000010
00000000
,
00010000
00001000
00011000
00000000
,
01000000
00000000
00010000
00000000
,
10000000
00100000
10100000
00000000
,
00010000
00000000
00100000
00000000
,
00010000
01000000
01010000
00000000
,
00001000
00010000
00011000
00000000
,
00000100
00000000
00001000
00000000
,
00000010
00001000
00001010
00000000
,
00000001
00000000
00000010
00000000
,
00000100
00001000
00001100
00000000
,
00000010
00000000
00010000
00000000
,
00001000
01000000
00010000
01000000
,
00100000
10000000
00100000
00000000
,
01000000
00000000
00010000
00000000
,
10000000
01000000
00100000
00010000
,
20020000
00000000
00000000
00000000
,
00000000
00000000
00000000
00000000
,
00000000
00000000
00000000
00000000
,
30030000
00000000
00000000
00000000
,
00000100
00000000
00000000
00000000
,
00000000
00000000
00000000
00000000
,
00010000
00000000
00000000
00000000
,
00001000
00010000
00000100
00010000
,
00001000
00000000
01000000
00010000
,
01010000
00000000
00100000
00000000
,
10000000
00000000
01000000
00100000
,
01100000
00000000
00010000
00000000
,
01000000
00000000
00001000
00010000
,
00011000
00000000
00000100
00000000
,
00001000
00000000
00000010
00000100
,
00000110
00000000
00000001
00000000
,
00001000
00000000
00000100
00001000
,
00001100
00000000
00000010
00000000
,
00010000
00000000
00001000
01000000
,
01010000
00000000
00100000
00000000
,
01000000
00000000
00010000
10000000
,
10010000
00000000
01000000
00000000
,
00100000
00000000
00000000
00000000
,
00010000
01000000
00010000
10000000
,
01000000
00000000
00100000
00000000
,
00010000
01000000
00100000
00000000
,
01000000
00000000
00010000
00000000
,
00100000
01000000
10000000
00000000
,
00010000
00000000
01000000
00000000
,
00001000
00010000
00000100
00000000
,
00001000
00000000
00000010
00000000
,
00000100
00000001
00001000
00000100
,
00002002
00000000
00000000
00003003
;

//---------------dance-double - M.Emirzian----------------
#NOTES:
     dance-double:
     M.Emirzian:
     Medium:
     6:
     0.369,0.000,0.111,0.056,0.000,261.000,12.000,6.000,0.000,0.000,0.000:

00000000
00000000
00000000
00000000
,
00000000
00000000
00000000
00000000
,
00000000
00000000
00000000
00000000
,
00000000
00000000
00000000
00000000
,
00000000
00010000
10000000
01000000
00100000
00000000
00110000
00000000
,
00000000
00001000
01000000
00001000
00010000
00000000
00010100
00000000
,
00000000
00001000
00010000
00001000
00000100
00000000
00000110
00000000
,
00000000
00000001
00001000
00000100
00000010
00000000
00001001
00000000
,
00000000
00000010
00001000
00000100
00001000
00000000
00010100
00000000
,
00000000
00010000
00001000
01000000
00001000
00000000
01010000
00000000
,
00000000
10000000
00010000
01000000
00100000
00000000
10100000
00000000
,
10000000
01000000
00100000
00000000
00010000
10000000
01000000
00010000
,
00001000
00000000
00010000
00000100
00010000
00000000
00000000
00001000
,
00000000
00010000
00000100
00010000
00001000
00000000
00000000
00000010
,
00000001
00000100
00000010
00001000
00000100
00000000
00000000
00000000
,
00000000
00000010
00001000
00000100
00001000
00000000
00000000
00000001
,
00000000
00000100
00001000
00010000
00001000
00000000
00000000
00010000
,
00000000
00001000
00010000
00100000
10000000
00000000
00000000
01000000
,
00100000
00010000
10000000
01000000
00100000
00000000
00000000
00000000
,
00000000
00010000
00001000
00000100
00000001
00000000
00000000
00000010
,
00000000
00000100
00001000
00000001
00000100
00000000
00000000
00000010
,
00000000
00010000
00001000
01000000
00010000
00000000
00000000
00100000
,
01000000
10000000
00010000
00100000
01000000
00000000
00000000
00000000
,
00000000
10000000
00100000
00010000
00001000
00000000
00000000
00010000
,
00000000
00010000
00001000
00000010
00000001
00000000
00000000
00000100
,
00000000
00000010
00001000
00000100
00001000
00000000
00000000
00000001
,
00000100
00000010
00001000
00000001
00000100
00000000
00000010
00000000
,
00010010
00000000
00011000
00000000
00010000
00001000
00010000
00001000
,
00022000
00000000
00000000
00000000
,
00000000
00000000
00000000
00000000
,
00000000
00000000
00000000
00000000
,
00033000
00000000
00000000
00000000
,
00010000
00000000
00000000
00000000
,
00000000
00000000
00000000
00000000
,
01000000
00000000
00000000
00000000
,
10000000
00010000
01000000
00000000
00100000
10000000
01000000
10000000
,
00010000
00000000
00100000
00000000
01000000
10000000
01000000
00000000
,
00100000
00010000
10000000
00100000
01000000
00000000
00010000
00000000
,
01000000
00000000
00001000
00000000
00010000
00000100
00001000
00000000
,
00000010
00001000
00000100
00000010
00000001
00000000
00001000
00000000
,
00000010
00000000
00000100
00000000
00000001
00001000
00000100
00000000
,
00000010
00000100
00001000
00000100
00010000
00000000
00001000
00000000
,
00000100
00000000
00001000
00000000
00010000
00001000
01000000
00000000
,
00010000
01000000
00100000
10000000
00100000
00000000
01000000
00000000
,
00010000
00000000
10000000
00000000
01000000
00100000
00010000
00000000
,
00100000
01000000
10000000
01000000
00010000
00000000
00001000
00000000
,
00010000
00000000
00001000
00000000
00010000
00000100
00001000
00000000
,
00000010
00000100
00000001
00001000
00000100
00000000
00000010
00000000
,
00000001
00000000
00000100
00000000
00000010
00001000
00000100
00000000
,
00010000
00001000
00010000
00001000
01000000
00000000
00100000
00000000
,
20020000
00000000
00000000
30030000
,
10000000
01000000
00100000
00010000
10000000
01000000
00100000
00000000
,
01000000
00000000
10000000
00010000
00000000
10000000
01000000
00000000
,
00100000
00000000
00010000
00001000
00000000
00100000
00001000
00000000
,
00010000
00000000
00000100
00010000
00000000
00001000
00010000
00000000
,
00001000
00000000
00000100
00000001
00000000
00001000
00000010
00000000
,
00000100
00000000
00000001
00001000
00000000
00000100
00000010
00000000
,
00000100
00000000
00001000
00000001
00000000
00000100
00001000
00000000
,
00010000
00000000
00001000
01000000
00000000
00010000
01000000
00000000
,
00100000
00000000
10000000
00000000
01000000
00100000
00010000
10000000
,
20020000
00000000
00000000
30030000
;

//---------------dance-single - K. Ward----------------
#NOTES:
     dance-single:
     K. Ward:
     Beginner:
     1:
     0.086,0.000,0.065,0.000,0.000,58.000,7.000,0.000,0.000,0.000,0.000:

0000
0000
0000
0000
,
0000
0000
0000
0000
,
0000
0000
0000
0000
,
0000
0000
0000
0000
,
1000
0000
0000
0000
,
1000
0000
0000
0000
,
0001
0000
0000
0000
,
0001
0000
0000
0000
,
0010
0000
0010
0000
,
0000
0000
0000
0000
,
0100
0000
0100
0000
,
0000
0000
0000
0000
,
0110
0000
0000
0000
,
0000
0000
0000
0000
,
1001
0000
0000
0000
,
0000
0000
0000
0000
,
0010
0000
0000
0000
,
0001
0000
0000
0000
,
1000
0000
0000
0000
,
0001
0000
0000
0000
,
1001
0000
0000
0000
,
1001
0000
0000
0000
,
1001
0000
0000
0000
,
0001
0000
0000
0000
,
1000
0000
1000
0000
,
0000
0000
0000
0000
,
0001
0000
0001
0000
,
0000
0000
0000
0000
,
0100
0000
0000
0000
,
0000
0000
0000
0000
,
0010
0000
0000
0000
,
0000
0000
0000
0000
,
1000
0000
0000
0000
,
0000
0000
0000
0000
,
0001
0000
0000
0000
,
0000
0000
0000
0000
,
1000
0000
0001
0000
,
1000
0000
0000
0000
,
0001
0000
0001
0000
,
1000
0000
0000
0000
,
0100
0000
1000
0000
,
0100
0000
0000
0000
,
0010
0000
0100
0000
,
0010
0000
0000
0000
,
1001
0000
0000
0000
,
0000
0000
0000
0000
,
0010
0000
0000
0000
,
0000
0000
0000
0000
,
0100
0000
0000
0000
,
0100
0000
0000
0000
,
0001
0000
1000
0000
,
0001
0000
0000
0000
,
1000
0000
1000
0000
,
1000
0000
0000
0000
,
0001
0000
0001
0000
,
0001
0000
0000
0000
,
0100
0000
0100
0000
,
0100
0000
0000
0000
,
0010
0000
0010
0000
,
0010
0000
0000
0000
,
1001
0000
0000
0000
;
