#TITLE:Dawn;
#SUBTITLE:;
#ARTIST:KaW;
#TITLETRANSLIT:;
#SUBTITLETRANSLIT:;
#ARTISTTRANSLIT:;
#GENRE:;
#CREDIT:;
#BANNER:dawn-banner.png;
#BACKGROUND:Dawn-bg.png;
#LYRICSPATH:;
#CDTITLE:;
#MUSIC:KaW - Dawn (Moonlight Mix).ogg;
#OFFSET:-0.019;
#SAMPLESTART:31.280;
#SAMPLELENGTH:13.810;
#SELECTABLE:YES;
#BPMS:0.000=138.000;
#STOPS:;
#BGCHANGES:0.000=Dawn-bg.png=1.000=0=0=1=====,
20.000=vol3-23-ntsc.mpg=1.000=0=0=1=====,
32.000=vis_jb_047.mpg=1.000=0=0=1=====,
36.000=VOL1-48-NTSC.mpg=1.000=0=0=1=====,
52.000=vol4-11-ntsc.mpg=1.000=0=0=1=====,
68.000=vis_jb_047.mpg=1.000=0=0=1=====,
72.000=vol3-10-ntsc.mpg=1.000=0=0=1=====,
88.000=jb_052.mpg=1.000=0=0=1=====,
104.000=VOL1-24-NTSC.mpg=1.000=0=0=1=====,
120.000=vol4-20-ntsc.mpg=1.000=0=0=1=====,
136.000=vis_jb_047.mpg=1.000=0=0=1=====,
140.000=vol4-15-ntsc.mpg=1.000=0=0=1=====,
156.000=vol3-06-ntsc.mpg=1.000=0=0=1=====,
172.000=vis_jb_047.mpg=1.000=0=0=1=====,
180.000=675_JumpBack.mpg=1.000=0=0=1=====,
188.000=736_JumpBack.mpg=1.000=0=0=1=====,
196.000=vis_jb_047.mpg=1.000=0=0=1=====,
200.000=VOL1-48-NTSC.mpg=1.000=0=0=1=====,
216.000=vol3-10-ntsc.mpg=1.000=0=0=1=====,
232.000=vol4-11-ntsc.mpg=1.000=0=0=1=====,
248.000=vol4-07-ntsc.mpg=1.000=0=0=1=====,
264.000=Dawn-bg.png=1.000=0=0=1=====,
267.500=Dawn-bg.png=1.000=0=0=1=====,
99999=-nosongbg-=1.000=0=0=0 // don't automatically add -songbackground-
;
#KEYSOUNDS:;
// cache tags:
#FIRSTBEAT:20.000;
#LASTBEAT:267.500;
#SONGFILENAME:/Songs/In The Groove/Dawn/Dawn.sm;
#HASMUSIC:1;
#HASBANNER:1;
#MUSICLENGTH:119.954;
// end cache tags

//---------------dance-single - K. Ward----------------
#NOTES:
     dance-single:
     K. Ward:
     Hard:
     8:
     0.482,0.000,0.100,0.108,0.258,380.000,12.000,13.000,0.000,0.000,0.000:


0000
0000
0000
0000
,
0000
0000
0000
0000
,
0000
0000
0000
0000
,
0000
0000
0000
0000
,
0000
0000
0000
0000
,
1000
0000
1000
0000
1000
0000
1000
0010
,
0100
0000
0100
0000
0100
0000
0100
0001
,
1000
0000
1000
0000
1000
0010
1000
0010
,
0110
1001
0000
0000
,
1000
0010
0100
0010
2000
0000
3010
0000
,
0100
0001
0010
0001
0200
0000
0310
0000
,
1000
0100
1000
0010
0200
0000
0301
0000
,
0100
0001
0011
0000
0100
0010
0110
0000
,
1000
0010
1000
0010
0200
0000
0301
0000
,
0010
0001
0010
0001
0200
0000
0310
0000
,
1000
0100
1000
0100
2000
0000
3010
0000
,
1000
0010
0100
0001
1000
0100
1000
0001
,
1001
0000
0000
0000
,
1000
0000
0010
0000
0100
0000
0001
0010
,
0010
0000
0001
0000
0100
0000
0010
1000
,
1000
0000
0010
0000
0100
0000
0001
0010
,
0001
0000
0000
0001
0100
0000
0000
0100
0010
0000
0000
0010
1000
0000
0100
0000
,
1000
0000
0010
0000
0100
0000
0001
0010
,
0010
0000
0001
0000
0100
0000
0010
1000
,
1000
0000
0010
0000
0100
0000
0001
0010
,
0001
0100
0010
0000
1000
0100
1000
0000
,
0010
0000
0100
0000
0010
0000
1000
0100
0000
0100
1000
0000
0010
0000
0100
0000
,
0001
0000
0010
0000
0001
0000
0100
0010
0000
0010
1000
0000
0100
0000
1000
0000
,
0010
0000
0100
0000
0001
0000
0010
0001
0000
0001
0100
0000
0010
0000
1000
0000
,
0010
0000
0100
0000
0010
0000
1000
0010
0000
0010
0100
0000
0002
0000
0000
0000
,
0103
0000
0010
0000
1000
0000
0100
1000
0000
1000
0010
0000
0100
0000
0001
0000
,
0100
0000
0010
0000
1000
0000
0001
0100
0000
0100
0010
0000
1000
0000
0001
0000
,
1000
0000
0100
0000
0010
0000
0001
0010
0000
0010
0001
0000
1000
0000
0010
0000
,
0100
0000
0010
0000
1000
0000
0010
1000
0000
1000
0010
0000
0100
0000
0001
0000
,
1001
0000
0000
0000
,
1000
0000
0000
0000
0010
0000
0000
0100
0000
0000
0001
0000
0000
0100
0000
0000
,
0010
0000
0000
0000
0100
0000
0000
0010
0000
0010
1000
0000
0001
0000
0010
0000
,
0001
0000
0000
0000
0100
0000
0000
0010
0000
0000
1000
0000
0000
0100
0000
0000
,
1000
0000
0000
0000
0100
0000
0000
1000
0000
1000
0010
0000
0200
0000
0001
0000
,
0301
0000
0000
0000
0100
0000
0000
0010
0000
0000
1000
0000
0000
0100
0000
0000
,
1000
0000
0000
0000
0001
0000
0000
0100
0000
0100
0010
0000
0100
0000
0001
0000
,
1000
0000
0000
0000
0100
0000
0000
1000
0000
0000
0010
0000
0000
0100
0000
0000
,
0001
0000
0000
0000
0010
0000
0000
0001
0000
0001
0100
0000
0010
0000
0100
0000
,
0002
0000
0000
0000
,
0020
0000
0000
0033
,
1100
0000
0000
0000
0001
0000
0000
1000
0000
0000
0010
0000
0000
0000
0100
0000
,
0011
0000
0000
0000
0001
0000
0000
1000
0000
1000
0010
0000
1000
0000
0000
0000
,
1100
0000
0000
0000
0010
0000
0000
0100
0000
0000
0001
0000
0000
0000
0010
0000
,
0011
0000
0000
0000
0001
0000
0000
0100
0000
0100
0010
0000
1000
0000
0010
0000
,
1100
0000
0000
0000
0000
0000
0000
0000
0001
0010
0001
0010
0001
0000
0000
0000
,
0001
0000
0100
0000
0010
0000
1000
0001
,
0001
0000
0100
0000
0010
0000
1000
0010
,
0010
0000
0100
0000
0001
0000
0010
0001
,
1000
0000
0000
1000
0010
0000
0000
0010
0100
0000
0000
0100
0001
0000
0010
0000
,
0001
0000
0100
0000
0010
0000
1000
0100
,
0100
0000
1000
0000
0010
0000
0100
0001
,
0001
0000
0010
0000
0001
0000
0100
0010
,
1000
0001
0200
0000
0310
0100
0002
0000
,
1003
0000
0100
0000
1000
0000
0001
0010
0000
0010
0001
0000
0100
0000
0010
0000
,
1000
0000
0001
0000
0100
0000
0010
1000
0000
1000
0010
0000
0100
0000
0010
0000
,
1000
0000
0100
0000
1000
0000
0010
0100
0000
0100
0001
0000
0100
0000
0010
0000
,
1000
0000
0010
0000
0100
0000
0001
0010
0000
0010
0001
0000
0200
0000
0000
0000
,
0301
0000
0100
0000
0010
0000
1000
0010
0000
0010
1000
0000
0100
0000
1000
0000
,
0010
0000
0100
0000
0001
0000
0010
0001
0000
0001
0100
0000
0010
0000
1000
0000
,
0010
0000
0100
0000
0010
0000
1000
0010
0000
0010
0100
0000
0001
0000
0010
0000
,
0001
0000
0100
0000
0010
0000
1000
0100
0000
0100
1000
0000
0010
0000
1000
0000
,
1001
0000
0000
0000
;

//---------------dance-single - K. Ward----------------
#NOTES:
     dance-single:
     K. Ward:
     Easy:
     3:
     0.180,0.000,0.092,0.050,0.000,134.000,11.000,6.000,0.000,0.000,0.000:


0000
0000
0000
0000
,
0000
0000
0000
0000
,
0000
0000
0000
0000
,
0000
0000
0000
0000
,
0000
0000
0000
0000
,
1000
1000
0000
0000
,
0010
0010
0000
0000
,
1000
1000
0000
0000
,
1001
1001
0000
0000
,
0001
0000
0000
0000
,
1000
0000
0000
0000
,
0001
0000
0000
0000
,
0100
0000
0010
0000
,
1000
0000
0000
0001
,
0001
0000
0000
1000
,
1000
0000
0000
0010
,
0010
0000
1000
0000
,
1001
0000
0000
0000
,
1000
0001
1000
0000
,
0001
0100
0001
0000
,
1000
0010
1000
0000
,
0010
0000
0100
0000
,
0001
1000
0001
0000
,
1000
0010
1000
0000
,
0001
0100
0001
0000
,
0100
0000
0010
0000
,
1000
0000
0100
0000
,
1000
0000
0001
0000
,
1000
1000
0010
0010
,
1000
0000
1000
0000
,
0001
0000
0010
0000
,
0001
0000
1000
0000
,
0001
0001
0100
0100
,
0010
0000
1000
0000
,
1001
0000
0000
0000
,
2000
0000
3010
0000
,
0020
0000
1030
0000
,
2000
0000
3001
0000
,
0002
0000
1003
0000
,
1000
0000
0001
0000
,
0100
0000
0010
0010
,
1000
0000
0010
0000
,
1000
0001
0001
0001
,
2002
0000
0000
0000
,
3003
0000
0000
0000
,
1001
0000
0000
0000
,
1001
0000
0000
0000
,
1001
0000
0000
0000
,
0110
0000
0000
0000
,
1001
0000
0000
0000
,
0001
1000
0001
0000
,
1000
0010
1000
0000
,
0001
0100
0001
0000
,
0100
0000
0010
0000
,
1000
0001
1000
0000
,
0001
0100
0001
0000
,
1000
0010
1000
0000
,
0010
0000
0100
0100
,
0001
0000
1000
0000
,
0010
0000
1000
0000
,
0001
0000
0100
0000
,
0010
0000
0010
0010
,
1000
0000
0100
0000
,
1000
0000
0001
0000
,
1000
1000
0010
0010
,
1000
0000
0001
1000
,
1001
0000
0000
0000
;

//---------------dance-single - K. Ward----------------
#NOTES:
     dance-single:
     K. Ward:
     Medium:
     5:
     0.299,0.000,0.067,0.042,0.000,238.000,8.000,5.000,0.000,0.000,0.000:


0000
0000
0000
0000
,
0000
0000
0000
0000
,
0000
0000
0000
0000
,
0000
0000
0000
0000
,
0000
0000
0000
0000
,
1000
0010
0100
0010
,
1000
0010
0100
0001
,
1000
0100
1000
0001
,
1001
1001
0000
0000
,
1000
0100
1000
0000
0010
0000
0100
0000
,
0001
0010
0001
0000
0100
0000
0010
0000
,
1000
0100
1000
0000
0010
0000
0100
0000
,
0002
0000
0103
0010
,
1000
0010
1000
0000
0010
0000
0100
0000
,
0001
0100
0001
0000
1000
0000
0010
0000
,
1000
0010
1000
0000
0001
0000
0100
0000
,
0001
0100
0000
0100
0010
0000
1000
0000
,
1001
0000
0000
0000
,
0001
0000
0100
0000
0001
0000
0100
0010
,
1000
0000
0010
0000
1000
0000
0010
0100
,
0001
0100
0010
1000
,
0001
0100
0001
0001
,
1000
0000
0010
0000
1000
0000
0010
0100
,
0001
0000
0100
0000
0001
0000
0100
0010
,
1000
0010
0100
0001
,
1100
0000
0011
0000
,
1000
0010
0100
0001
,
1000
0001
0100
0010
,
1000
0100
0010
0001
,
0001
0000
0010
0000
0100
0000
1000
0100
,
1000
0010
0100
0001
,
1000
0001
0100
0010
,
1000
0100
0010
0001
,
0001
0000
0010
0000
0001
0000
1000
0010
,
1000
0000
0000
0000
,
0001
0100
0001
1000
,
0010
1000
0020
0000
,
1030
0010
0100
0001
,
1000
0001
0002
0000
,
1003
0100
1000
0010
,
0100
0000
0001
0000
0010
0001
0010
0000
,
0001
0100
0010
1000
,
1000
0000
0100
0000
1000
0010
0100
0000
,
0002
0000
0003
0000
,
2000
0000
3000
0000
,
0010
0010
0000
0010
,
0100
0100
0100
0001
,
1000
1000
0000
0001
,
0100
0000
0100
0000
0010
1000
0001
0000
,
1001
0000
0000
0000
,
1000
0010
0100
0001
,
1000
0001
0100
0010
,
1000
0100
0010
0001
,
0001
0000
0010
0000
0001
0000
1000
0100
,
1000
0010
0100
0001
,
1000
0001
0100
0010
,
1000
0100
0010
0001
,
0011
0000
1100
0000
,
0001
0100
0010
1000
,
0001
1000
0010
0100
,
0001
0010
0100
1000
,
1000
0000
0100
0000
0010
0000
0001
0010
,
0001
0100
0010
1000
,
0001
1000
0010
0100
,
0001
0010
0001
1000
,
1000
0000
0100
0000
1000
0000
0010
0100
,
0001
0000
0000
0000
;

//---------------dance-couple - Easy----------------
#NOTES:
     dance-couple:
     Easy:
     Easy:
     3:
     0.430,0.000,1.000,0.083,0.000,178.000,145.000,10.000,0.000,21.000,0.000:


00000000
00000000
00000000
00000000
,
00000000
00000000
00000000
00000000
,
00000000
00000000
00000000
00000000
,
00000000
00000000
00000000
00000000
,
00000000
00000000
00000000
00000000
,
00100010
00000010
00000000
10000001
,
00100010
00100000
00000000
00001000
,
10000000
00000000
00100100
00000000
,
10010000
00001001
00000000
00000000
,
00011000
10000001
01101000
00000100
,
10000001
00011000
01100010
00000100
,
10000001
01000010
01100100
00001000
,
10000001
01000010
10001000
10000001
,
00011000
10000001
00100110
00010000
,
10000001
00011000
00100110
10000000
,
00011000
10000001
00100110
00010000
,
10000001
00011000
10000100
00100001
,
10011001
00000000
00000000
00000000
,
10000001
00011000
10000001
00011000
,
01000010
00011000
01000010
00011000
,
10000001
00011000
10000001
00011000
,
01000010
10000001
01000010
00011000
,
10000001
00011000
10000001
00011000
,
01000010
00011000
01000010
00011000
,
10000001
00011000
10000001
00011000
,
01000010
10000001
01000010
00011000
,
00100100
00000000
00100000
00000000
,
00000010
00010000
00000001
00000000
,
00100010
00000000
01000100
00000000
,
00010001
10001000
10001000
00010001
,
00100100
00000000
00100000
00000000
,
00000010
00010000
00000001
00000000
,
00100010
00000000
01000100
00000000
,
00010001
10001000
10001000
00010001
,
10011001
00000000
00000000
00000000
,
00000002
00000000
00000003
00000000
,
02000000
00000000
03000000
00000000
,
00000001
00000000
00100000
00000000
,
01101001
00000000
10010110
00000000
,
00001000
00000000
00100000
00000000
,
00000020
00000000
20000031
00000000
,
30012000
00000000
02003010
00000000
,
03011000
00000000
00100010
00100010
,
20022002
00000000
00000000
00000000
,
00000000
00000000
00000000
30033003
,
10011001
00000000
00000000
10010000
,
00001001
00000000
01100110
00000000
,
10011001
00000000
00000000
10010000
,
00001001
00000000
01100110
00000000
,
10011001
00000000
00000000
00000000
,
10000001
00011000
10000001
00011000
,
01000010
00011000
01000010
00011000
,
10000001
00011000
10000001
00011000
,
01000010
10000001
01000010
00011000
,
10000001
00011000
10000001
00011000
,
01000010
00011000
01000010
00011000
,
10000001
00011000
10000001
00011000
,
01000010
10000001
01000010
00011000
,
00100100
00000000
00100000
00000000
,
00000010
00010000
00000001
00000000
,
00100010
00000000
01000100
00000000
,
00010001
10001000
10001000
00010001
,
00100100
00000000
00100000
00000000
,
00000010
00010000
00000001
00000000
,
00100010
00000000
01000100
00000000
,
00010001
10001000
10001000
00010001
,
10011001
00000000
00000000
00000000
,
;

//---------------dance-couple - Medium----------------
#NOTES:
     dance-couple:
     Medium:
     Medium:
     6:
     0.375,0.000,0.825,0.033,0.000,206.000,99.000,4.000,0.000,3.000,0.000:


00000000
00000000
00000000
00000000
,
00000000
00000000
00000000
00000000
,
00000000
00000000
00000000
00000000
,
00000000
00000000
00000000
00000000
,
00000000
00000000
00000000
00000000
,
10000000
00000000
00100000
00000000
01000000
00000000
00000000
00010000
,
00001000
00000000
00000010
00000000
00000100
00000000
00000000
00000010
,
10000000
00000000
00010000
00000000
10000000
00000000
00010000
01000000
,
00100000
00000010
00000000
00000000
,
00010001
01000000
00010100
01000000
10000001
00000000
01001000
00000000
,
10000001
00100000
10000100
00100000
10000001
00000000
00101000
00000000
,
00010001
00000100
10000001
00000100
00100001
00000000
10000100
00000000
,
00010010
00001000
10000010
00000000
00101000
00000010
10001000
00000010
,
00011000
01000000
00010001
01000000
10000100
00000000
01000001
00000000
,
10001000
00100000
10000001
00100000
10000100
00000000
00100001
00000000
,
10000001
00000100
00100001
00000100
10000001
00000000
00010100
00000000
,
10000010
00001000
00100010
00000000
10001000
00000010
00011000
00000010
,
10011001
00000000
00000000
00000000
,
00011000
00000000
01000010
00000000
00011000
00000000
01000010
00011000
,
10000001
00000000
00100100
00000000
01000010
00000000
00011000
10000001
,
00100100
00000000
01000010
00000000
00011000
00000000
10000001
00100100
,
00000010
00100000
01000010
01000010
,
01000010
00100100
00011000
00000000
01000010
00000000
00011000
10000001
,
00100100
00000000
01000010
00000000
00011000
00000000
01000010
00011000
,
01000010
00000000
00011000
00000000
01000010
00000000
00011000
10000001
,
00000100
00100000
00011000
10000001
,
00011000
10000000
00000010
01000000
00001000
10000000
00000010
00100000
,
00011000
10000000
00000000
00010000
00000010
01000000
00000000
00010000
,
10000010
00000100
00100000
00000010
10000100
00000010
00100000
00000100
,
10001000
00000101
00101000
00000101
,
00101000
10000000
00000010
10000000
00001000
10000000
00100010
00000000
,
00011000
10000000
00000000
00010000
00000010
01000000
00100000
00000000
,
10000100
00000010
00100000
00000100
10000010
00000100
00100000
00000010
,
10001000
00000101
00101000
00000101
,
10011001
00000000
00000000
00000000
,
00010000
00100000
10000000
00000000
00000001
00000010
00001000
00000000
,
00100000
01000000
00010000
00000000
00000100
00001000
00000100
00000000
,
00010000
00100000
10000000
00000000
00000001
00000010
00001000
00000000
,
00100010
00000000
00011000
00000000
01000100
10000001
01000100
00100001
,
00010000
00100000
10000000
00000000
00000001
00000010
00001000
00000000
,
00100000
01000000
00010000
00000000
00000100
00001000
00000100
00000000
,
00010000
00100000
10000000
00000000
00000001
00000010
00001000
00000000
,
00100010
00000000
00011000
00000000
01000100
10000001
01000100
00100001
,
20022002
00000000
00000000
30033003
;

//---------------dance-single - K. Ward----------------
#NOTES:
     dance-single:
     K. Ward:
     Challenge:
     9:
     0.598,0.000,0.200,0.250,0.475,448.000,24.000,30.000,4.000,36.000,0.000:


0000
0000
0000
0000
,
0000
0000
0000
0000
,
0000
0000
0000
0000
,
0000
0000
0000
0000
,
0000
0000
0000
0000
,
1000
0000
0001
0100
0010
0000
0100
0010
1000
0000
0010
0100
0001
0000
1000
0001
,
0100
0000
0010
0100
0001
0000
0010
0001
1000
0000
0010
0000
0010
0000
00M0
0000
,
1000
0000
0010
0100
0001
0000
0100
0001
0100
0000
0010
1000
0001
0000
1000
0001
,
0100
0011
0000
0000
,
1000
0000
0001
0000
0100
0000
0010
0100
0000
0010
0100
0000
0001
0000
0001
0000
,
0010
0000
0100
0000
1000
0000
0100
1000
0000
0100
1000
0000
0010
0000
0010
0000
,
0100
0000
0001
0000
0100
0000
0001
0100
0000
0001
0100
0000
0001
0000
0001
0000
,
1000
0000
0001
0000
0100
0000
0010
1000
0000
0010
1000
0000
1100
0000
0000
0000
,
0002
0000
0000
0000
0103
0000
0000
0010
0100
0000
0001
0000
1000
0010
0000
0000
,
2000
0000
0000
0000
3010
0000
0000
0100
0010
0000
1000
0000
0010
0000
1000
0000
,
0002
0000
0000
0000
0103
0000
0000
0010
0100
0000
0001
0000
1000
0000
0010
0000
,
2000
0000
0000
0000
3001
0000
0000
1000
0010
0000
0100
0000
0001
0000
0100
0000
,
0110
0000
0000
0000
,
0220
0001
1000
0331
,
2200
0001
0010
3301
,
0022
1000
0100
1033
,
1000
0001
1000
0001
1000
0000
0000
0000
0001
1000
0001
1000
0001
0000
0000
0000
,
0220
0001
1000
0331
,
2200
0001
0010
3301
,
0022
1000
0100
1033
,
1000
0001
1000
0001
1000
0000
0000
0000
0001
1000
0001
1000
0001
0000
0000
0000
,
1000
0000
0010
0000
1000
0000
0001
0100
0000
0001
1000
0000
0010
0000
0010
0000
,
0100
0000
0001
0000
0100
0000
0010
1000
0000
0010
0100
0000
0001
0000
0001
0000
,
1000
0000
0010
0000
0100
0000
0001
0100
0000
0100
0001
0000
0100
0000
0010
0000
,
1000
0000
0001
0000
0100
0000
0100
0010
0000
1000
0010
0000
1000
0000
0001
0000
,
1000
0000
0010
0000
1000
0000
0001
0100
0000
0001
1000
0000
0010
0000
0010
0000
,
0100
0000
0001
0000
0100
0000
0010
1000
0000
0010
0100
0000
0001
0000
0001
0000
,
1000
0000
0010
0100
0010
0000
1000
0100
0000
1000
0001
0000
0100
0000
0010
0000
,
0100
0000
0001
0100
0001
0000
0100
0010
0000
1000
0010
0000
1000
0000
0001
0000
,
1000
0000
0000
0000
,
0001
0000
0000
0001
0010
0000
0000
0001
0000
0000
0100
0000
0000
0010
0000
0000
,
1000
0000
0000
0010
1000
0000
0000
0001
0100
0010
0100
0000
0010
1000
0100
0000
,
1000
0000
0000
1000
0010
0000
0000
1000
0000
0000
0001
0000
0000
0100
0000
0000
,
0010
0000
0000
0010
1000
0000
0000
1000
0010
0100
0010
0000
1000
0010
0100
0001
,
1000
0000
0000
1000
0100
0000
0000
1000
0000
0000
0010
0000
0000
0100
0000
0000
,
0001
0000
0000
0100
0001
0000
0000
1000
0010
0100
0010
0000
0100
0010
1000
0000
,
0010
0000
0000
0100
0001
0000
0000
1000
0000
0000
0010
0000
0000
0100
0000
0000
,
0010
0000
0000
1000
0010
0000
0000
0100
0001
0100
0010
0000
1000
0010
1000
0000
,
0002
0000
0000
0000
0000
0000
0103
000M
,
0200
0000
0000
0000
0000
0000
0310
0M00
,
1100
0000
0100
0000
1000
0000
0010
1000
0000
1000
0010
0000
1100
0000
0001
0000
,
0110
0000
0001
0000
0100
0000
0010
0100
0000
0100
0001
0000
0110
0000
0001
0000
,
1100
0000
0010
0000
0100
0000
0001
0100
0000
0100
0001
0000
1100
0000
1000
0000
,
0110
0000
0100
0000
0001
0000
0010
0001
0000
0100
0001
0000
1100
0000
1000
0000
,
1001
0000
0000
0000
0000
0000
0000
0000
0010
0100
0010
0M00
0010
0100
0010
0000
,
0220
0001
1000
0331
,
2200
0001
0010
3301
,
0022
1000
0100
1033
,
1000
0001
1000
0001
1000
0000
0000
0000
0001
1000
0001
1000
0001
0000
0000
0000
,
0220
0001
1000
0331
,
2200
0001
0010
3301
,
0022
1000
0100
1033
,
1000
0001
1000
0001
1000
0000
0000
0000
0001
1000
0001
1000
0001
0000
0000
0000
,
1000
0000
0010
0000
1000
0000
0001
0100
0000
0001
1000
0000
0010
0000
0010
0000
,
0100
0000
0001
0000
0100
0000
0010
1000
0000
0010
0100
0000
0001
0000
0001
0000
,
1000
0000
0010
0000
1000
0000
0010
0100
0000
0001
0100
0000
0100
0000
0010
0000
,
0100
0000
0001
0000
1000
0000
0010
0100
0000
0010
1000
0000
1000
0000
0001
0000
,
1000
0000
0010
0000
1000
0000
0001
0100
0000
0001
1000
0000
0010
0000
0010
0000
,
0100
0000
0001
0000
0100
0000
0010
1000
0000
0010
0100
0000
0001
0000
0001
0000
,
1000
0000
0010
0100
0001
0000
0100
0001
0000
0001
0100
0000
0010
0000
1000
0000
,
0010
0000
0100
0000
0100
0000
0010
1000
0000
1000
0010
0000
1000
0000
0001
0000
,
1000
0000
0000
0000
;

//---------------dance-double - M. Emirzian----------------
#NOTES:
     dance-double:
     M. Emirzian:
     Easy:
     4:
     0.230,0.000,0.192,0.033,0.000,166.000,23.000,4.000,0.000,0.000,0.000:


00000000
00000000
00000000
00000000
,
00000000
00000000
00000000
00000000
,
00000000
00000000
00000000
00000000
,
00000000
00000000
00000000
00000000
,
00000000
00000000
00000000
00000000
,
00000100
00000000
00001000
00000000
,
00000010
00000100
00000001
00000000
,
00000010
00000000
00000100
00000000
,
00010100
00011000
00000000
00100000
,
10000000
00000000
10010000
00000000
,
01000000
00100000
00000000
00001000
,
00010000
00000000
00010100
00000000
,
00001000
00000010
00000000
00000100
,
00000001
00000000
00001010
00000000
,
00000100
00010000
00000000
00001000
,
01000000
00000000
01010000
00000000
,
00100000
01000000
10000000
00100000
,
00200000
00000000
00000000
00000000
,
01300000
00000000
00010000
00100000
,
00001000
00000000
00010000
00000010
,
00000100
00000000
00000001
00000100
,
00001000
00000000
00010100
00000000
,
00011000
00000000
00100000
01000000
,
00010000
00000000
10000000
00100000
,
01000000
00000000
00010000
10000000
,
00100000
00000000
00110000
00000000
,
00001000
00000000
00010100
00000000
,
00000010
00000001
00000100
00000000
,
00000010
00000000
00010010
00000000
,
00001000
00010000
00100000
00000000
,
10000000
00000000
01010000
00000000
,
00100000
01000000
10000000
00000000
,
00100000
00000000
01001000
00000000
,
00010000
00000010
00000100
00000002
,
00000000
00000000
00000003
00000010
,
00000100
00010000
00001000
00000000
,
00010000
00001000
01010000
00000000
,
00010000
00100000
01000000
00000000
,
10000000
00100000
00010000
00001000
,
00010000
00000000
00010010
00000000
,
00000100
00001000
00000010
00000000
,
00000100
00000000
00001001
00000000
,
00000010
00000100
00001000
00010000
,
00020000
00000000
00000000
00000000
,
00130000
00000000
10000000
00000000
,
01000000
00100000
00010000
01000000
,
00100000
01000000
00001000
00011000
,
00010000
00000100
00001000
00000010
,
00000100
00000001
00001000
00000100
,
00000200
00000000
00000000
00000300
,
00010000
00001000
01000000
00000000
,
00010000
00100000
01000000
00000000
,
10000000
01000000
00010000
00000000
,
01000000
00100000
00001000
00010000
,
00000100
00000000
00001001
00000000
,
00000100
00000010
00000000
00010000
,
00001000
00000000
01001000
00000000
,
00010000
01000000
00100000
10000000
,
01000000
00000000
01100000
00000000
,
00001000
00010000
00000000
00000100
,
00000010
00000000
00001100
00000000
,
00000001
00000100
00000000
00000010
,
00010000
00000000
00101000
00000000
,
00010000
01000000
00000000
00100000
,
10000000
00000000
01000000
00000000
,
00010000
00001000
00000010
00000001
,
00000101
00000000
00000000
00000000
;

//---------------dance-double - M. Emirzian----------------
#NOTES:
     dance-double:
     M. Emirzian:
     Medium:
     6:
     0.363,0.000,0.200,0.033,0.000,277.000,24.000,4.000,0.000,0.000,0.000:


00000000
00000000
00000000
00000000
,
00000000
00000000
00000000
00000000
,
00000000
00000000
00000000
00000000
,
00000000
00000000
00000000
00000000
,
00000000
00000000
00000000
00000000
,
00001000
00100000
00010000
00000000
01000000
00000000
00010000
00100000
,
00001000
00000000
00010000
00000000
01000000
00000000
10000000
00100000
,
01000000
00000000
00010000
00000000
01000000
00100000
10000000
00000000
,
01000000
00100000
00001000
00000000
00010000
00000000
00010100
00000000
,
00000010
00000000
00000001
00000000
00000100
00001000
00000100
00000000
,
00000001
00000100
00000001
00000010
,
00001000
00000000
00000010
00000000
00000100
00010000
00001000
00000000
,
00010000
00001000
01000000
00000000
00010000
00000000
00101000
00000000
,
01000000
00000000
00100000
00000000
10000000
01000000
00010000
00000000
,
01000000
00000000
00100000
00000000
00010000
01000000
00100000
00000000
,
00010000
00000000
00001000
00000000
00000010
00001000
00010000
00000000
,
00001000
00000010
00000100
00000000
00001100
00000000
00001001
00000000
,
00000020
00000000
00000000
00000030
,
00000100
00000000
00010000
00000000
00001000
00010000
00100000
00000000
,
10000000
00000000
01000000
00000000
00100000
00010000
01000000
00000000
,
00100000
10000000
01000000
00010000
,
00001000
00010000
00000100
00000000
00001010
00000000
00000110
00000000
,
00001000
00000000
00000100
00000000
00000010
00000001
00000100
00000000
,
00000010
00000000
00010000
00000000
00001000
00010000
00100000
00000000
,
00010000
00100000
10000000
01000000
,
00100000
00001000
00010000
00000000
01000000
00100000
00010000
00000000
,
10010000
00100000
01001000
00110000
,
00100000
00000000
00001000
00000000
00010000
00000100
00001000
00000000
,
00001010
00000000
00000001
00000000
00000010
00000001
00000100
00000000
,
00000010
00010000
00001000
00000000
00000100
00000010
00001000
00000000
,
00000100
00010000
00001000
01000000
,
00010000
00100000
01000000
00000000
10000000
00100000
01000000
00000000
,
00010000
00000000
00101000
00000000
00011000
00000000
00000100
00000010
,
00001000
00000000
00000100
00000010
00000001
00000000
00000101
00000000
,
00000200
00000000
00000000
00000300
,
00001000
00000000
00011000
01000000
,
00100000
00000000
10010000
01000000
,
00100000
00000000
01001000
00010000
,
00100000
00000000
00010100
00001000
,
00000010
00000100
00001000
00000001
,
00000100
00000010
00000100
00001000
,
00010000
00000100
00010000
00001000
,
01000000
00000000
00010000
00000000
10000000
00100000
01000000
00000000
,
02000000
00100000
00100000
03000000
,
10000000
00010000
10000000
00100000
,
01010000
00000000
01001000
00000000
00010000
00000100
00000010
00000000
,
00000001
00000100
00000010
00000000
00010000
00001000
00000100
00000000
,
00011000
00000000
00010010
00000000
00001000
00000100
00010000
00000000
,
00001000
00100000
00010000
01000000
00010000
00100000
01000000
20000000
,
00000000
00000000
00000000
30100000
,
01000000
00000000
00001000
00000000
00010000
00000000
00001000
01000000
,
00001000
00010000
00000010
00001001
,
00000010
00000000
00000100
00000000
00000001
00000000
00000100
00000010
,
00010000
00000100
00010000
00001000
,
01000000
00000000
10010000
00000000
00100000
00000000
00010000
01000000
,
00001000
00000000
00010100
00000000
00001000
00000000
00000010
00000100
,
00000001
00000000
00000100
00000000
00001000
00010000
00000100
00010000
,
00001000
00000000
01000000
00100000
,
10000000
01000000
00100000
00001000
,
00010000
00000100
00000010
00000100
,
00001000
00000010
00000100
00000001
,
00000010
00000100
00010000
00000000
00001000
00000000
00001000
00000000
,
00001000
00000000
00010000
00000000
00100000
01000000
00010000
00000000
,
10000000
01000000
00100000
00001000
,
00010000
01000000
00100000
00000000
00001000
00000000
00010000
00000100
,
00001000
00000000
00000010
00000000
00000100
00000000
00000001
00000100
,
00000001
00000000
00000000
00000000
;

//---------------dance-double - M. Emirzian----------------
#NOTES:
     dance-double:
     M. Emirzian:
     Hard:
     8:
     0.478,0.000,0.333,0.083,0.146,351.000,40.000,10.000,3.000,0.000,0.000:


00000000
00000000
00000000
00000000
,
00000000
00000000
00000000
00000000
,
00000000
00000000
00000000
00000000
,
00000000
00000000
00000000
00000000
,
00000000
00000000
00000000
00000000
,
10000000
01000000
00010000
01000000
10000000
00100000
00010000
00001000
,
00010000
01000000
00010000
00001000
00000010
00000100
00001000
00000010
,
00000001
00000010
00001000
00000100
00010000
00001000
00100000
00000000
,
01100000
00000000
10010000
00000000
00100000
00000000
10000000
01000000
,
00010000
00000000
00001000
00000000
00000100
00000000
00000000
00001000
00000000
00000000
00010000
00000000
00000010
00000000
00010000
00000000
,
00001000
00000000
00100000
00000000
01000000
00000000
00000000
00100000
00000000
00000000
01000000
00000000
10000000
00000000
01000000
00000000
,
00010000
00000000
00001000
00000000
00000100
00000000
00000000
00000001
00000000
00000000
00000010
00000000
00000100
00000000
00001000
00000000
,
00000010
00000000
00000100
00000000
00000001
00000000
00000000
00000100
00000000
00000000
00000010
00000000
00010000
00000000
00000000
00000000
,
00101000
00000000
00000000
00000000
00010000
00000000
00000000
00010000
01000000
00000000
00100000
00000000
10000000
00000000
00010000
00000000
,
01010000
00000000
00000000
00000000
10000000
00000000
00000000
10000000
00100000
00000000
01000000
00000000
00001000
00000000
00010000
00000000
,
00010100
00000000
00000000
00000000
00000010
00000000
00000000
00000010
00000100
00000000
00000001
00000000
00000010
00000000
00000100
00000000
,
00001000
00000000
00000001
00000000
00000100
00000000
00000000
00001000
00000000
00000000
00010000
00000000
00100000
00000000
00010000
00000000
,
00022000
00000000
00000000
00033000
,
00010000
00000000
00100000
00000000
00010000
00001000
00100000
00001000
,
00010000
00000000
01000000
00000000
10000000
01000000
00010000
01000000
,
10000000
00000000
00100000
00000000
01000000
00000000
00001000
01000000
,
01010000
00000000
00001000
00000000
00010000
00001000
00010100
00000000
,
00000100
00000000
00010000
00000000
00001000
00010000
00000100
00010000
,
00001000
00000000
00000010
00000000
00000001
00000010
00001000
00000010
,
00000001
00000000
00000100
00000000
00000010
00000000
00010000
00000010
,
00001010
00000000
00010000
00000000
00001000
00010000
00101000
00000000
,
00001000
00000000
00000000
01000000
00000000
00000000
00010000
00000000
00000000
00000000
01100000
00000000
00000000
00000000
00100000
00000000
,
10000000
00000000
00000000
01000000
00000000
00000000
00010000
00000000
00001000
00000000
01000000
00000000
00000000
00000000
00001000
00000000
,
00010000
00000000
00000000
00000010
00000000
00000000
00000100
00000000
00000000
00000000
00001001
00000000
00000000
00000000
00000010
00000000
,
00010000
00000000
00000000
00001000
00000000
00000000
00100000
00000000
00001000
00000000
00010000
00000000
00000000
00000000
00100000
00000000
,
10000000
00000000
00000000
01000000
00000000
00000000
00100000
00000000
00000000
00000000
00011000
00000000
00000000
00000000
00010000
00000000
,
01000000
00000000
00000000
00010000
00000000
00000000
00001000
00000000
00010000
00000000
00000100
00000000
00000000
00000000
00001000
00000000
,
00000001
00000000
00000000
00000100
00000000
00000000
00000010
00000000
00000000
00000000
00001001
00000000
00000000
00000000
00000100
00000000
,
00000010
00010000
00001000
00000100
00001000
00010000
00100000
00010000
,
00022000
00000000
00000000
00033000
,
01000000
00000000
00000000
00000000
10000000
00000000
00000000
10100000
00000000
00000000
01010000
00000000
00000000
00110000
00000000
00000000
,
01000000
00000000
00000000
00000000
10000000
00000000
00000000
01000000
00000000
00000000
00100000
00000000
00101000
00000000
00000000
00000000
,
00001000
00000000
00000000
00000000
00010000
00000000
00000000
00010100
00000000
00000000
00001010
00000000
00000000
00001100
00000000
00000000
,
00000010
00000000
00000000
00000000
00000001
00000000
00000000
00001000
00000000
00000000
00000010
00000000
00010010
00000000
00000000
00000000
,
00010000
00000000
00000000
00000000
00001000
00000000
00000000
00110000
00000000
00000000
11000000
00000000
00000000
10100000
00000000
00000000
,
01000000
00000000
00000000
00000000
00010000
00000000
00000000
00100000
00000000
00000000
00001000
00000000
00011000
00000000
00000000
00000000
,
00000010
00000000
00000000
00000000
00000001
00000000
00000000
00000101
00000000
00000000
00001010
00000000
00000000
00001100
00000000
00000000
,
00000001
00000000
00000000
00000000
00000100
00000000
00000000
00001000
00000000
00000000
00010000
00000000
00011000
00000000
00000000
00000000
,
00200000
10000000
01300000
00M02000
,
00010000
00003010
0000M002
00000100
,
00000013
00001000
00010000
00100000
10000000
00100000
00010000
00001000
,
01000000
00001000
00010000
01000000
00010000
00001000
00000010
00000001
,
00000100
00000010
00001000
00000001
00000010
00000100
00010000
00001000
,
01000000
00000000
00100000
00000000
00010000
00000000
00100000
00000000
10000000
00000000
01000000
00000000
00100000
00000000
00001000
00010000
,
00002000
00000000
00000000
00000000
00010000
00010000
00010000
00000000
,
00013000
00000000
0010M000
00000000
00010000
00001000
00100000
00001000
,
00010000
00000000
01000000
00000000
10000000
00100000
00010000
00100000
,
10000000
00000000
01000000
00000000
00100000
00000000
00001000
01000000
,
01010000
00000000
00001000
00010000
00010010
00000000
00010000
00000000
,
00001000
00000000
00000100
00000000
00001000
00010000
00000100
00010000
,
00001000
00000000
00000010
00000000
00000001
00000100
00001000
00000100
,
00000001
00000000
00000010
00000000
00000100
00000000
00010000
00000010
,
00001010
00000000
00010000
00001000
01001000
00000000
00010000
00000000
,
00100000
00000000
00000000
10000000
00000000
00000000
01000000
00000000
00000000
00000000
00110000
00000000
00000000
00000000
01000000
00000000
,
00001000
00000000
00000000
00100000
00000000
00000000
00001000
00000000
00010000
00000000
00001000
00000000
00000000
00000000
00000100
00000000
,
00000001
00000000
00000000
00000010
00000000
00000000
00000100
00000000
00000000
00000000
00010100
00000000
00000000
00000000
00000100
00000000
,
00000010
00000000
00000000
00000001
00000000
00000000
00000010
00000000
00000100
00000000
00010000
00000000
00000000
00000000
00001000
00000000
,
00100000
00000000
00000000
00001000
00000000
00000000
00010000
00000000
00000000
00000000
01100000
00000000
00000000
00000000
00100000
00000000
,
10000000
00000000
00000000
01000000
00000000
00000000
00100000
00000000
00001000
00000000
00010000
00000000
00000000
00000000
00000100
00000000
,
00010000
00000000
00000000
00001000
00000000
00000000
00000010
00000000
00000000
00000000
00001001
00000000
00000000
00000000
00000100
00000000
,
00001000
00010000
00100000
00010000
00001000
01000000
00010000
00100000
,
22000000
00000000
00000000
33000000
;

//---------------dance-double - M. Emirzian----------------
#NOTES:
     dance-double:
     M. Emirzian:
     Challenge:
     9:
     0.604,0.000,0.559,0.083,0.279,430.000,67.000,10.000,9.000,0.000,0.000:


00000000
00000000
00000000
00000000
,
00000000
00000000
00000000
00000000
,
00000000
00000000
00000000
00000000
,
00000000
00000000
00000000
00000000
,
00000000
00000000
00000000
00000000
,
10000000
01000000
10000000
00100000
00010000
00100000
01000000
00001000
,
00010000
00000010
00010000
00001000
00000010
00001000
00000001
00000100
,
00001000
00000010
00010000
00001000
00100000
00001000
00010000
01000000
,
11000000
00000000
00110000
00000000
01000000
00000000
00100000
10000000
,
01000000
00000000
00010000
00000000
01000000
00000000
00100000
00001000
00000000
00001000
00010000
00000000
01000000
00000000
00010000
00000000
,
00001000
00000000
00000010
00000000
00000100
00000000
00001000
00000001
00000000
00000001
00000100
00000000
00000010
00000000
00000100
00000000
,
00001000
00000000
00010000
00000000
00100000
00000000
10000000
00010000
00000000
00010000
01000000
00000000
00100000
00000000
00010000
00000000
,
00001000
00000000
00000010
00000000
00000100
00000000
00001000
00000001
00000000
00000001
00000010
00000000
00001000
00000000
00010000
00000000
,
00011000
00000000
00000000
00100000
10000000
00000000
00000000
00010000
01000000
00000000
00100000
00000000
10000000
01000000
00000000
00000000
,
00110000
00000000
00000000
00001000
00010000
00000000
00000000
00000010
00001000
00000000
00000100
00000000
00000010
00000000
00000001
00000000
,
00001001
00000000
00000000
00000100
00000010
00000000
00000000
00001000
00000100
00000000
00010000
00000000
00000010
00000000
00000100
00000000
,
00000001
00000000
00000010
00000000
00001000
00000000
00010000
00100000
00000000
00100000
10000000
00000000
00010000
00000000
01000000
00000000
,
20020000
00000000
00000000
00000000
00000000
00000000
30030000
M00M0000
,
00100000
00010000
00001000
00000000
00010000
01000000
00010000
00001000
,
00000010
00000000
00000001
00000100
00000010
00000100
00000001
00000010
,
00000100
00000000
00010000
00001000
00000010
00000000
00001000
00010000
,
00100000
01000000
10010000
00000000
00100000
00010000
00011000
00001100
,
00000100
00001000
00010000
00000000
00001000
00000010
00001000
00010000
,
01000000
00000000
10000000
00100000
01000000
00100000
10000000
01000000
,
00100000
00000000
00001000
00010000
01000000
00000000
00010000
00001000
,
00000100
00000010
00001001
00000000
00000010
00001000
00011000
00110000
,
00100000
00000000
10000000
00000000
01000000
00000000
00010000
01000000
00000000
01000000
00100000
00000000
00001000
00000000
00010000
00000000
,
00100000
00000000
00010000
00000000
00001000
00000000
00000010
00000100
00000000
00000100
00001000
00000000
00000001
00000000
00000100
00000000
,
00001000
00000000
00010000
00000000
00000010
00000000
00010000
00001000
00000000
00001000
01000000
00000000
00100000
00000000
10000000
00000000
,
01000000
00000000
00010000
00000000
00001000
00000000
00010000
01000000
00000000
01000000
10000000
00000000
01000000
00000000
00010000
00000000
,
00001000
00000000
00000100
00000000
00000001
00000000
00000010
00000100
00000000
00000100
00010000
00000000
00001000
00000000
00000100
00000000
,
00000001
00000000
00000010
00000000
00001000
00000000
00000010
00000100
00000000
00000100
00010000
00000000
00100000
00000000
00010000
00000000
,
00001000
00000000
00010000
00000000
01000000
00000000
10000000
01000000
00000000
01000000
00100000
00000000
00001000
00000000
00010000
00000000
,
00000010
00000000
00000100
00000000
00001000
00000000
00010000
01000000
00000000
01000000
10000000
00000000
00010000
00000000
01000000
00000000
,
20020000
00000000
00000000
00000000
00000000
00000000
30030000
M00M0000
,
00110000
00000000
00000000
00000000
01010000
00000000
00000000
01001000
00000000
00000000
00011000
00000000
00000000
00010010
00000000
00000000
,
00001010
00000000
00000000
00000000
00001100
00000000
00000000
00000011
00000000
00000100
00001000
00000000
00001010
00000000
00000100
00000000
,
00001001
00000000
00000000
00000000
00001100
00000000
00000000
00010100
00000000
00000000
00011000
00000000
00000000
00101000
00000000
00000000
,
00110000
00000000
00000000
00000000
01010000
00000000
00000000
10100000
00000000
01000000
00010000
00000000
00110000
00000000
01000000
00000000
,
10010000
00000000
00000000
00000000
01010000
00000000
00000000
01001000
00000000
00000000
00011000
00000000
00000000
00010010
00000000
00000000
,
00001010
00000000
00000000
00000000
00001100
00000000
00000000
00000011
00000000
00000100
00001000
00000000
00001010
00000000
00000100
00000000
,
00001001
00000000
00000000
00001000
00000010
00000000
00000000
00010000
00001000
00000000
00100000
00000000
01000000
00000000
10000000
00000000
,
00100000
00010000
00100000
10000000
01000000
00010000
00001000
00000010
,
00000200
00000000
00000001
00000000
00001300
00000M00
00200000
00000000
,
01000000
00000000
00310000
00M00000
00002000
00000000
00000010
00000000
,
00013000
00000000
0010M000
00000000
10000000
00000000
00010000
01000000
00000000
10000000
01000000
00000000
00010000
01000000
00010000
00000000
,
00100000
00000000
01000000
00000000
00010000
00000000
00001000
00010000
00000000
00001000
00000100
00000000
00000001
00001000
00000001
00000000
,
00000010
00000000
00000100
00000000
00001000
00000000
00000001
00000100
00000000
00001000
00000100
00000000
00001000
00010000
00001000
00000000
,
00000100
00000000
00001000
00000000
00010000
00000000
00100000
10000000
00000000
00100000
00010000
00000000
00001000
00000000
00010000
00001000
,
00020000
00000000
00000000
00000000
00001000
00001000
00001000
00001000
,
01030000
00010000
00001000
00000000
00010000
00100000
00010000
00001000
,
00000100
00000000
00000001
00000010
00000100
00010000
00000010
00001000
,
00000001
00000000
00000010
00001000
00010000
00000000
00100000
10000000
,
01000000
00100000
10010000
00000000
00100000
00010000
00011000
00001010
,
00000010
00001000
00010000
00000000
00001000
00000100
00001000
00010000
,
00100000
00000000
10000000
00100000
01000000
00001000
00100000
00010000
,
10000000
00000000
01000000
00010000
00001000
00000000
00000100
00000001
,
00000010
00000100
00001001
00000000
00000100
00001000
00011000
01010000
,
01000000
00000000
00000000
11000000
00000000
00000000
10010000
00000000
00000000
00000000
00110000
00000000
00000000
00000000
10000000
00000000
,
11000000
00000000
00000000
00100000
00000000
00000000
00001000
00000000
00010000
00000000
00000010
00000000
00000000
00000000
00010000
00000000
,
00011000
00000000
00000000
00010010
00000000
00000000
00001010
00000000
00000000
00000000
00001100
00000000
00000000
00000000
00000010
00000000
,
00000101
00000000
00000000
00000100
00000000
00000000
00000010
00000000
00010000
00000000
00001000
00000000
00000000
00000000
01000000
00000000
,
01010000
00000000
00000000
01001000
00000000
00000000
00110000
00000000
00000000
00000000
10010000
00000000
00000000
00000000
01000000
00000000
,
10100000
00000000
00000000
01000000
00000000
00000000
00100000
00000000
00001000
00000000
00010000
00000000
00000000
00000000
00000010
00000000
,
00001100
00000000
00000000
00010100
00000000
00000000
00001010
00000000
00000000
00000000
00001001
00000000
00000000
00000000
00000010
00000000
,
00000110
00000000
00000000
00001000
00000000
00000000
00010000
00000000
01000000
00000000
10000000
00000000
00000000
00000000
00100000
00000000
,
02002000
00000000
00000000
00000000
00000000
00000000
03003000
0M00M000
;

//---------------lights-cabinet - ----------------
#NOTES:
     lights-cabinet:
     :
     Easy:
     1:
     0.944,0.413,1.000,0.058,0.008,276.000,248.000,7.000,0.000,229.000,0.000:


00000000
00000000
00000000
00000000
,
11000011
00010011
11000011
01100011
,
10010011
01100011
11000011
00110011
,
11000011
00110011
01010011
10010011
,
01100011
00000000
10010011
00000000
11000011
00000000
10010011
00000011
,
10010011
01100011
11000011
00110011
,
11000011
00110011
11000011
00110011
,
10000011
00000000
01010011
00000000
10000011
00000000
10010011
00000011
,
11110011
11110011
00000000
00000000
,
10000011
01000000
10000011
00000000
00100011
00000000
01000011
00000000
,
00010011
00100000
00010011
00000000
01000011
00000000
00100011
00000000
,
10000011
01000000
10000011
00000000
00100011
00000000
01000011
00000000
,
00020011
00000000
00000011
00000000
01030011
00000000
00100011
00000011
,
10000011
00100000
10000011
00000000
00100011
00000000
01000011
00000000
,
00010011
01000000
00010011
00000000
10000011
00000000
00100011
00000000
,
10000011
00100000
10000011
00000000
00010011
00000000
01000011
00000000
,
00010011
01000000
00000000
01000000
00100000
00000000
10000000
00000000
,
10010011
00000000
00000000
00000000
,
00010011
00000000
01000011
00000000
00010011
00000000
01000011
00100000
,
10000011
00000000
00100011
00000000
10000011
00000000
00100011
01000000
,
00010011
01000011
00100011
10000011
,
00010011
00000000
01000011
00000000
00010011
00000000
00010011
00000011
,
10000011
00000000
00100011
00000000
10000011
00000000
00100011
01000000
,
00010011
00000000
01000011
00000000
00010011
00000000
01000011
00100000
,
10000011
00100011
01000011
00010011
,
11000011
00000000
00110000
00000000
,
10000011
00100011
01000011
00010011
,
10000011
00010011
01000011
00100011
,
10000011
01000011
00100011
00010011
,
00010011
00000000
00100011
00000000
01000011
00000000
10000001
01000010
,
10000011
00100011
01000011
00010011
,
10000011
00010011
01000011
00100011
,
10000011
01000011
00100011
00010011
,
00010011
00000000
00100011
00000000
00010011
00000000
10000011
00100011
,
10000011
00000000
00000000
00000000
,
00010011
01000011
00010011
10000011
,
00100011
10000011
00200011
00000011
,
10300011
00100011
01000011
00010011
,
10000011
00000000
00010011
00000000
00020011
00000000
00000011
00000011
,
10030011
01000011
10000011
00100011
,
01000011
00000000
00010011
00000000
00100011
00010000
00100011
00000000
,
00010011
01000011
00100011
10000011
,
10000011
00000000
01000011
00000000
10000011
00100000
01000011
00000011
,
00020011
00000000
00030000
00000000
,
20000000
00000000
30000000
00000000
,
00100011
00000000
00000000
00000000
11010000
00000000
00000011
00000000
00000000
00000000
00000011
00000000
00100000
00000011
00000000
00000000
,
01000011
00000000
01000000
00000011
01000000
00000011
00010011
00000000
,
10000011
00000000
00000000
00000000
10000000
00000000
00000011
00000000
00000000
00000000
00000011
00000000
00010000
00000011
00000000
00000000
,
01000011
00000000
01000000
00000011
00100000
10000011
00010011
00000000
,
20020000
00000000
00000000
30030000
00000010
00000001
00000010
00000001
,
10000011
00100011
01000011
00010011
,
10000011
00010011
01000011
00100011
,
10000011
01000011
00100011
00010011
,
00010011
00000000
00100011
00000000
00010011
00000000
10000011
01000011
,
10000011
00100011
01000011
00010011
,
10000011
00010011
01000011
00100011
,
10000011
01000011
00100011
00010011
,
00110011
00000000
11000000
00000000
,
00010011
01000011
00100011
10000011
,
00010011
10000011
00100011
01000011
,
00010011
00100011
01000011
10000011
,
10000011
00000000
01000011
00000000
00100011
00000000
00010011
00100011
,
00010011
01000011
00100011
10000011
,
00010011
10000011
00100011
01000011
,
00010011
00100011
00010011
10000011
,
10000011
00000000
01000011
00000000
10000011
00000000
00100011
01000011
,
11110011
00000000
00000000
00000000
;

//---------------dance-single - M. Puls----------------
#NOTES:
     dance-single:
     M. Puls:
     Beginner:
     1:
     0.091,0.000,0.058,0.050,0.000,63.000,7.000,6.000,0.000,0.000,0.000:


0000
0000
0000
0000
,
0000
0000
0000
0000
,
0000
0000
0000
0000
,
0000
0000
0000
0000
,
0000
0000
0000
0000
,
1000
0000
0000
0000
,
0001
0000
0000
0000
,
1000
0000
0000
0000
,
1001
0000
0000
0000
,
0001
0000
0000
0000
,
1000
0000
0000
0000
,
0001
0000
0000
0000
,
0100
0000
0000
0000
,
0100
0000
0000
0000
,
0010
0000
0000
0000
,
0010
0000
0000
0000
,
0100
0000
0000
0000
,
1001
0000
0000
0000
,
1000
0000
0000
0000
,
0001
0000
0000
0000
,
1000
0000
0000
0000
,
0010
0000
0000
0000
,
1000
0000
0000
0000
,
0001
0000
0000
0000
,
0010
0000
0000
0000
,
0001
0000
0000
0000
,
1000
0000
0000
0000
,
1000
0000
0000
0000
,
0001
0000
0000
0000
,
0001
0000
0000
0000
,
1000
0000
0000
0000
,
1000
0000
0000
0000
,
0001
0000
0000
0000
,
0001
0000
0000
0000
,
1001
0000
0000
0000
,
2000
0000
3000
0000
,
0002
0000
0003
0000
,
2000
0000
3000
0000
,
0002
0000
0003
0000
,
1000
0000
0000
0000
,
0001
0000
0000
0000
,
1000
0000
0000
0000
,
0001
0000
0000
0000
,
2002
0000
0000
0000
,
3003
0000
0000
0000
,
0100
0000
0000
0000
,
0000
0000
0000
0000
,
1001
0000
0000
0000
,
0000
0000
0000
0000
,
1001
0000
0000
0000
,
0001
0000
0001
0000
,
1000
0000
1000
0000
,
0001
0000
0001
0000
,
0000
0000
0000
0000
,
1000
0000
1000
0000
,
0001
0000
0001
0000
,
1000
0000
1000
0000
,
0000
0000
0000
0000
,
0001
0000
0000
0000
,
0001
0000
0000
0000
,
1000
0000
0000
0000
,
0001
0000
0000
0000
,
1000
0000
0000
0000
,
0010
0000
0000
0000
,
0100
0000
0000
0000
,
0001
0000
0000
0000
,
1001
0000
0000
0000
;
