#TITLE:Cryosleep;
#SUBTITLE:;
#ARTIST:Machinae Supremacy;
#TITLETRANSLIT:;
#SUBTITLETRANSLIT:;
#ARTISTTRANSLIT:;
#GENRE:Metal;
#CREDIT:;
#BANNER:Cryosleep-banner.png;
#BACKGROUND:Cryosleep-bg.png;
#LYRICSPATH:;
#CDTITLE:;
#MUSIC:Cryosleep.ogg;
#OFFSET:-1.744;
#SAMPLESTART:7.000;
#SAMPLELENGTH:17.360;
#SELECTABLE:YES;
#BPMS:0.000=137.000,76.000=68.500,92.000=137.000,156.000=68.500,164.000=137.000;
#STOPS:164.000=1.315
;
#BGCHANGES:0.000=Cryosleep-bg.png=1.000=0=0=1=====,
12.000=In The Groove 2/964_JumpBack.mpg=1.000=0=0=1=====,
28.000=In The Groove 2/750_JumpBack.mpg=1.000=0=0=1=====,
44.000=-random-=1.000=0=0=1=====,
60.000=-random-=1.000=0=0=1=====,
76.000=In The Groove 2/651_JumpBack.mpg=1.000=0=0=1=SongBgWithMovieViz====,
84.000=In The Groove 2/461_JumpBack.mpg=1.000=1=0=1=SongBgWithMovieViz==CrossFade==,
92.000=In The Groove 2/464_JumpBack.mpg=1.000=0=0=1=====,
108.000=-random-=1.000=0=0=1=====,
124.000=-random-=1.000=0=0=1=====,
140.000=-random-=1.000=0=0=1=====,
156.000=In The Groove 2/909_JumpBack.mpg=1.000=1=0=1===CrossFade==,
164.000=Cryosleep-bg.png=1.000=1=0=1===CrossFade==,
165.000=In The Groove 2/747_JumpBack.mpg=1.000=0=0=1=====,
181.000=-random-=1.000=0=0=1=====,
197.000=-random-=1.000=0=0=1=====,
205.000=Cryosleep-bg.png=1.000=1=0=1===CrossFade==,
99999=-nosongbg-=1.000=0=0=0 // don't automatically add -songbackground-
;
#KEYSOUNDS:;
// cache tags:
#FIRSTBEAT:12.000;
#LASTBEAT:205.000;
#SONGFILENAME:/Songs/In The Groove 2/Cryosleep/Cryosleep.sm;
#HASMUSIC:1;
#HASBANNER:1;
#MUSICLENGTH:105.109;
// end cache tags

//---------------dance-single - K.W----------------
#NOTES:
     dance-single:
     K.W:
     Hard:
     8:
     0.462,0.000,0.285,0.124,0.024,297.000,30.000,13.000,0.000,0.000,0.000:
0000
0000
0000
0000
,
0000
0000
0000
0000
,
0000
0000
0000
0000
,
0001
0100
1000
0000
1000
0100
0001
0000
,
1000
0100
0010
0100
0010
0001
1001
0000
,
0010
0001
0100
0000
1000
0010
0100
0000
,
0001
0000
0010
0000
0100
0000
0010
0000
0001
0000
1000
0100
1000
0000
0000
0000
,
0001
0011
1000
1100
,
0010
0000
1001
0000
0100
0010
0110
0000
,
0001
0100
1000
0000
1000
0100
0001
0000
,
0010
0100
0010
0100
2000
0001
3001
0000
,
0010
0000
0001
0000
0100
1000
0100
0000
,
0010
0000
1000
0000
0100
0010
0100
0000
,
1000
1010
0001
0101
,
1000
0010
0001
0010
1000
0010
1001
0000
,
0010
0100
0010
0001
0010
0100
0010
0001
,
0010
1000
0100
0010
0100
1000
0100
0010
,
0001
0001
1000
1000
,
0001
0100
1000
0100
0002
0000
0013
0000
,
1000
0100
1100
0000
0010
0100
0110
0000
,
0001
0000
0010
0000
0011
0000
0000
0000
1000
0000
0010
0000
0100
0001
0010
0001
,
0010
0100
0110
0000
0100
1000
1100
0000
,
1000
0001
0011
0000
0001
1000
1100
0000
,
0010
0100
0000
0100
0010
0000
1001
0000
,
0010
0100
0000
0100
0010
0000
1001
0000
,
1000
0100
0000
0100
0010
0000
1100
0000
,
0010
0100
0000
0100
0001
1000
1100
0000
,
0001
0010
0100
0010
0100
1000
0010
0001
,
0010
0100
0010
1000
0001
0000
0011
0000
,
1000
0100
0010
0100
0010
0001
0100
1000
,
0100
0010
0100
0001
0011
0000
1100
0000
,
0020
0100
0001
0230
,
0302
1000
0013
0200
,
0010
1000
0310
0001
,
0020
0100
0031
1001
,
0100
0010
0100
0010
0001
0010
0100
0001
,
0010
0100
1000
0100
0010
0000
1100
0000
,
0001
0100
1000
0100
0001
0100
1000
0100
,
0001
0010
0100
0010
0001
0000
0110
0000
,
2000
3100
0020
0130
,
2000
3001
2000
0200
,
3300
0000
0010
1000
0100
1000
0010
0001
,
0010
1000
0001
0010
1000
0010
0001
1000
,
0001
0100
1000
0100
0001
0010
0001
0100
,
1000
0100
0001
0010
0001
0100
1000
0100
,
0001
1000
1100
0001
,
0011
0000
1000
0100
0010
0100
1000
0010
,
0110
0000
0001
0010
0001
0100
1000
0100
,
0001
0010
0001
0100
1000
0100
0001
0000
,
2001
0000
3100
0010
0001
0010
0001
1000
,
0100
0010
0100
1000
0010
0001
0010
0100
,
0001
0010
0000
0011
0000
0000
0000
0000
0000
0000
0000
0000
0000
0000
0000
0000
;

//---------------dance-single - K.W----------------
#NOTES:
     dance-single:
     K.W:
     Easy:
     4:
     0.234,0.000,0.105,0.038,0.000,157.000,11.000,4.000,0.000,0.000,0.000:
0000
0000
0000
0000
,
0000
0000
0000
0000
,
0000
0000
0000
0000
,
1000
0100
0010
0100
,
1000
0010
0001
0010
,
1000
0001
0010
0001
,
1000
0001
1001
0000
,
0000
0110
0000
1100
,
0000
0011
0000
1100
,
0000
0100
0110
0000
,
0000
0010
0110
0000
,
1000
0001
0010
0000
,
0001
0010
0100
0000
,
0010
0100
1000
0000
,
0010
0100
0001
0000
,
0002
0000
1003
0000
,
2000
0000
3001
0000
,
1000
1000
1000
0000
,
0001
0001
1001
0000
,
0010
0010
0001
0001
,
0100
0100
1000
1001
,
0100
0100
1000
1000
,
0010
0000
0010
0000
0001
1000
0001
0000
,
1000
0010
0100
0000
,
0001
0100
0001
0000
,
1000
0100
1000
0000
,
0001
0010
0002
0003
,
1000
1000
0100
0100
,
0010
0010
0100
0100
,
1000
0000
0001
0000
,
1000
0001
0001
0000
,
0010
0001
1000
0100
,
0010
0001
1000
0100
,
0010
0010
0100
0100
,
1000
1000
1000
0000
,
0010
0100
0001
0001
,
0010
0001
1000
1000
,
0001
0000
1000
0000
,
0001
0000
1001
0000
,
0100
1000
0010
0001
,
0100
1000
0010
0002
,
0003
1000
0100
1000
,
0100
0010
0001
0010
,
0001
1000
0100
1000
,
0100
0010
0001
1000
,
0000
0001
0001
0001
,
0000
1000
1000
1000
,
0000
0001
0010
0001
,
0000
1000
0100
1000
,
0000
0010
0100
0010
,
1000
0100
0010
0001
,
0000
1100
0000
0000
;

//---------------dance-single - K. Ward----------------
#NOTES:
     dance-single:
     K. Ward:
     Medium:
     5:
     0.323,0.000,0.238,0.067,0.000,206.000,25.000,7.000,0.000,0.000,0.000:
0000
0000
0000
0000
,
0000
0000
0000
0000
,
0000
0000
0000
0000
,
0001
0001
0001
0000
0100
0100
0100
0000
,
0010
0010
0010
0000
0100
0000
1001
0000
,
0010
0010
0010
0000
0100
0100
0100
0000
,
1000
0000
0001
0000
0100
0010
0100
0000
,
0001
0011
1000
1100
,
0010
0100
0001
0010
0001
0000
0000
0000
,
0100
0100
0010
0010
,
1000
0100
1000
0000
0110
0000
0000
0000
,
0000
0011
0000
1100
,
0000
0110
0110
1001
,
0000
0110
0000
0011
,
0000
1100
0110
1001
,
0020
0000
0030
0200
,
2000
0000
3300
0002
,
0020
0000
0000
0033
,
1000
1100
0001
0011
,
0000
1000
0100
0000
0000
0100
0010
0000
,
0000
0010
0001
0000
0000
0001
1000
1000
,
0000
0100
1000
0000
0000
0010
0100
0000
,
0000
0001
0010
0000
0000
0100
2000
0000
,
3001
0010
0100
1000
,
0001
0000
0010
0000
0100
1000
0100
0000
,
0010
0001
0100
0010
,
1000
0001
1000
1001
,
0010
0100
0010
0000
0001
0000
0001
0000
,
1000
0100
1000
0000
0001
0000
0001
0000
,
1000
0010
0100
0000
0010
0100
0001
0000
,
1000
0001
1000
0001
1000
0000
0000
0000
,
0000
0100
1000
0000
0010
0000
0110
0000
,
0000
0001
0010
0000
0001
0000
1001
0000
,
0000
0100
0010
0000
0100
0000
0110
0000
,
0000
0001
0010
0000
0100
0010
0001
0000
,
1000
1000
1000
1001
,
0001
0001
0001
1001
,
0100
0100
0100
0000
0010
0010
0010
0000
,
1100
0000
0011
0000
0000
0100
0010
0000
,
1000
0001
0010
0001
,
1000
0100
0010
0000
0001
0100
0010
0000
,
0000
0000
1000
0100
0010
0000
0010
0100
,
1000
0000
0010
0100
0001
0000
0001
0010
,
0001
0000
1000
0100
0010
0000
0010
0100
,
0010
0000
0001
1000
0001
0000
0100
0010
,
1000
0001
0100
1000
,
0100
0001
0100
2000
,
0000
3100
0100
0100
,
0100
0100
0100
0100
,
0000
0010
0001
0100
,
1000
0000
0010
0000
0001
0000
0100
0010
,
0100
1001
0000
0000
;

//---------------dance-single - K. Ward----------------
#NOTES:
     dance-single:
     K. Ward:
     Beginner:
     1:
     0.090,0.000,0.067,0.000,0.000,59.000,7.000,0.000,0.000,0.000,0.000:

0000
0000
0000
0000
,
0000
0000
0000
0000
,
0000
0000
0000
0000
,
1001
0000
0000
0000
,
0100
0000
0000
0000
,
1001
0000
0000
0000
,
0010
0000
0000
0000
,
1000
0000
1000
0000
,
1000
0000
0000
0000
,
0001
0000
0001
0000
,
0001
0000
0000
0000
,
0100
0000
0000
0000
,
0010
0000
0000
0000
,
1000
0000
0000
0000
,
0001
0000
0000
0000
,
0100
0000
0000
0000
,
0010
0000
0000
0000
,
1000
0000
0000
0000
,
1001
0000
0000
0000
,
0010
0000
0000
0000
,
0001
0000
0000
0000
,
0100
0000
0000
0000
,
1000
0000
0000
0000
,
0001
0000
0000
0000
,
1000
0000
0000
0000
,
0010
0000
0000
0000
,
0100
0000
0000
0000
,
0001
0000
0001
0000
,
1000
0000
0000
0000
,
0010
0000
0010
0000
,
0100
0000
0000
0000
,
0001
0000
0000
0000
,
1000
0000
0000
0000
,
0010
0000
0000
0000
,
0010
0000
0000
0000
,
1000
0000
1000
0000
,
0001
0000
0001
0000
,
1001
0000
0000
0000
,
1001
0000
0000
0000
,
0100
0000
1000
0000
,
0010
0000
1001
0000
,
0000
1000
0000
0000
,
0000
0001
0000
0000
,
0000
0100
0000
0000
,
0000
0010
0000
0000
,
0000
1000
0000
0000
,
0000
0001
0000
0000
,
0000
0010
0000
0010
,
0000
0010
0000
0000
,
0000
0010
0000
0010
,
0000
0010
0000
0000
,
0000
1001
0000
0000
;

//---------------dance-single - C. Foy----------------
#NOTES:
     dance-single:
     C. Foy:
     Challenge:
     10:
     0.697,0.000,0.561,0.552,0.452,396.000,59.000,58.000,0.000,0.000,0.000:
0000
0000
0000
0000
,
0000
0000
0000
0000
,
0000
0000
0000
0000
,
0110
0000
0000
0000
1001
0000
0000
0000
0200
0000
0000
0300
1001
0000
0001
0100
,
0010
0000
1000
0000
1001
0000
1000
0000
0100
0000
0010
0000
2002
0000
0000
3003
,
0001
0000
0100
0000
1001
0000
0010
0000
0200
0000
0000
0300
2002
0000
0000
3003
,
0001
0000
0000
0000
0010
0000
0000
0000
1001
0000
0000
0000
0100
0000
0000
0000
1000
0000
0000
0000
0001
0000
1000
0001
1000
0000
0000
0000
0001
0000
0000
0000
,
0100
0000
0010
0000
0110
0000
0100
0000
0002
0000
0000
0003
0220
0000
0000
0330
,
0100
0000
1000
0000
0110
0000
0001
0000
1000
0000
0100
0000
0220
0000
0000
0330
,
0010
0000
0001
0000
0011
0000
0010
0000
0200
0000
0000
0300
0022
0000
0000
0033
,
0100
0000
0000
0000
1000
0000
0000
0000
0011
0000
0000
0000
0001
0000
0000
0000
1000
0000
0000
0000
0001
0000
0010
0001
0010
0000
0000
0000
0001
0000
0000
0000
,
1000
0000
0000
0000
1100
0000
0000
0000
0200
0000
0000
0300
1100
0000
1000
0001
,
0010
0000
0100
0000
1100
0000
1000
0000
0100
0000
0001
0000
2200
0000
0000
3300
,
1000
0000
0010
0000
1100
0000
1000
0000
0020
0000
0000
0030
2200
0000
0000
3300
,
1000
0000
0000
0000
0010
0000
0000
0000
1100
0000
0000
0000
1000
0000
0000
0000
0001
0000
0000
0000
0100
0000
0010
0100
0010
0000
0000
0000
0100
0000
0000
0000
,
0010
0000
1000
0000
0101
0000
0010
0000
2000
0000
0000
3000
0202
0000
0000
0303
,
0001
0000
0010
0000
0101
0000
0001
0000
0100
0000
1000
0000
0202
0000
0000
0303
,
0100
0000
0010
0000
1010
0000
1000
0000
0200
0000
0000
0300
2020
0000
0000
3030
,
1000
0000
0000
0000
0001
0000
0000
0000
1010
0000
0000
0000
1000
0000
0000
0000
0100
0000
0000
0000
0010
0000
0001
0010
0001
0000
0010
0000
0000
0000
0000
0000
,
0000
0000
0000
0000
0000
0000
0000
0000
0000
0000
0000
0000
0000
0000
0000
0000
0000
0000
0000
0000
0000
0000
0000
0000
0000
0000
0000
0000
0000
0000
0000
0000
0000
0000
0000
0000
0000
0000
0000
0000
0000
0000
0001
0000
0000
0000
0000
0000
0100
0000
0000
0000
0000
0000
0000
0000
0000
0000
0000
0000
0000
0000
0000
0000
0010
0000
0000
0000
0000
0000
0000
0000
0000
0000
0000
0000
0000
0000
0000
0000
1000
0000
0000
0000
0000
0000
0000
0000
0000
0000
0000
0000
0000
0000
0000
0000
0100
0000
0000
0000
0000
0000
0000
0000
0000
0000
0000
0000
0000
0000
0000
0000
0000
0000
0000
0000
0000
0000
0000
0000
0001
0000
0000
0000
0000
0000
0000
0000
0000
0000
0000
0000
0000
0000
0000
0000
0000
0000
0000
0000
0000
0000
0000
0000
0000
0000
0000
0000
0000
0000
0000
0000
0000
0000
0000
0000
0000
0000
0000
0000
0000
0000
0000
0000
0000
0000
0000
0000
0000
0000
0000
0000
0000
0000
0000
0000
0000
0000
0000
0000
0000
0000
0000
0000
0000
0000
0000
0000
0000
0000
0000
0000
,
0000
0000
0000
0000
0000
0000
0000
0000
0000
0000
0000
0000
0000
0000
0000
0000
0000
0000
0000
0000
0000
0000
0000
0000
0000
0000
0000
0000
0000
0000
0000
0000
0000
0000
0000
0000
0000
0000
0000
0000
0000
0000
0100
0000
0000
0000
0000
0000
0010
0000
0000
0000
0000
0000
0000
0000
0000
0000
0000
0000
0000
0000
0000
0000
0001
0000
0000
0000
0000
0000
0000
0000
0000
0000
0000
0000
0000
0000
0000
0000
0100
0000
0000
0000
0000
0000
0000
0000
0000
0000
0000
0000
0000
0000
0000
0000
0010
0000
0000
0000
0000
0000
0000
0000
0000
0000
0000
0000
0000
0000
0000
0000
0000
0000
0000
0000
0000
0000
0000
0000
0001
0000
0000
0000
0000
0000
0000
0000
0000
0000
0000
0000
0000
0000
0000
0000
0000
0000
0000
0000
0000
0000
0000
0000
0000
0000
0000
0000
0000
0000
0000
0000
0000
0000
0000
0000
0010
0000
0000
0000
0000
0000
0000
0000
0000
0000
0000
0000
0000
0000
0000
0000
0000
0000
0000
0000
0000
0000
0000
0000
0000
0000
0000
0000
0000
0000
0000
0000
0000
0000
0000
0000
,
0000
0000
0000
0000
0000
0000
0000
0000
0000
0000
0000
0000
0000
0000
0000
0000
0000
0000
0000
0000
0000
0000
0000
0000
0000
0000
0000
0000
0000
0000
0000
0000
0000
0000
0000
0000
0000
0000
0000
0000
0000
0000
1000
0000
0000
0000
0000
0000
0100
0000
0000
0000
0000
0000
0000
0000
0000
0000
0000
0000
0000
0000
0000
0000
0010
0000
0000
0000
0000
0000
0000
0000
0000
0000
0000
0000
0000
0000
0000
0000
1000
0000
0000
0000
0000
0000
0000
0000
0000
0000
0000
0000
0000
0000
0000
0000
0010
0000
0000
0000
0000
0000
0000
0000
0000
0000
0000
0000
0000
0000
0000
0000
0000
0000
0000
0000
0000
0000
0000
0000
0001
0000
0000
0000
0000
0000
0000
0000
0000
0000
0000
0000
0100
0000
0000
0000
0000
0000
0000
0000
0000
0000
0000
0000
0000
0000
0000
0000
0000
0000
0000
0000
0000
0000
0000
0000
0000
0000
0000
0000
0000
0000
0000
0000
0000
0000
0000
0000
0000
0000
0000
0000
0000
0000
0000
0000
0000
0000
0000
0000
0000
0000
0000
0000
0000
0000
0000
0000
0000
0000
0000
0000
,
0000
0000
0000
0000
0000
0000
0000
0000
0000
0000
0000
0000
0000
0000
0000
0000
0000
0000
0000
0000
0000
0000
0000
0000
0000
0000
0000
0000
0000
0000
0000
0000
0000
0000
0000
0000
0000
0000
0000
0000
0000
0000
0100
0000
0000
0000
0000
0000
0010
0000
0000
0000
0000
0000
0000
0000
0000
0000
0000
0000
0000
0000
0000
0000
0001
0000
0000
0000
0000
0000
0000
0000
0000
0000
0000
0000
0000
0000
0000
0000
0010
0000
0000
0000
0000
0000
0000
0000
0000
0000
0000
0000
0000
0000
0000
0000
1000
0000
0000
0000
0000
0000
0000
0000
0000
0000
0000
0000
0000
0000
0000
0000
0100
0000
0000
0000
0000
0000
0000
0000
0000
0000
0000
0000
0000
0000
0000
0000
0000
0000
0000
0000
0100
0000
0000
0000
0000
0000
0000
0000
0000
0000
0000
0000
0000
0000
0000
0000
0000
0000
0000
0000
0000
0000
0000
0000
0010
0000
0000
0000
0000
0000
0000
0000
0000
0000
0000
0000
0000
0000
0000
0000
0000
0000
0000
0000
0000
0000
0000
0000
0000
0000
0000
0000
0000
0000
0000
0000
0000
0000
0000
0000
,
1100
0000
0000
0000
0101
0000
0000
0000
0020
0000
0000
0030
0011
0000
0001
1000
,
0010
0000
0100
0000
0110
0000
0010
0000
1000
0000
0100
0000
2200
0000
0000
3300
,
0010
0000
0001
0000
0011
0000
0001
0000
0200
0000
0000
0300
0220
0000
0000
0330
,
0010
0000
0000
0000
0100
0000
0000
0000
0101
0000
0000
0000
0001
0000
0000
0000
1000
0000
0000
0000
0010
0000
0100
0010
0100
0000
0000
0000
0010
0000
0000
0000
,
1000
0000
0100
0000
1100
0000
0010
0000
0200
0000
0000
0300
0022
0000
0000
0033
,
0001
0000
0100
0000
0110
0000
0010
0000
0001
0000
0010
0000
2020
0000
0000
3030
,
1000
0000
0100
0000
0110
0000
0010
0000
2000
0000
0000
3000
2020
0000
0000
3030
,
0010
0000
0000
0000
0001
0000
0000
0000
0011
0000
0000
0000
0100
0000
0000
0000
0010
0000
0000
0000
1000
0000
0100
1000
0100
0000
0000
0000
0010
0000
0000
0000
,
0001
0000
0000
0000
1001
0000
0000
0000
0020
0000
0000
0030
1001
0000
0100
0001
,
0010
0000
0100
0000
0110
0000
0010
0000
0001
0000
0100
0000
0202
0000
0000
0303
,
0001
0000
0010
0000
0011
0000
0001
0000
2000
0000
0000
3000
0220
0000
0000
0330
,
0010
0000
0000
0000
1000
0000
0000
0000
1100
0000
0000
0000
0010
0000
0000
0000
0001
0000
0000
0000
1000
0000
0001
0100
0001
0000
0000
0000
1000
0000
0000
0000
,
0010
0000
1000
0000
0101
0000
0001
0000
0020
0000
0000
0030
0220
0000
0000
0330
,
1000
0000
0001
0000
0101
0000
0001
0000
0100
0000
1000
0000
0220
0000
0000
0330
,
0001
0000
0010
0000
0011
0000
1000
0000
0002
0000
0000
0003
2200
0000
0000
3300
,
1000
0000
0000
0000
0010
0000
0000
0000
1010
0000
0000
0000
0100
0000
0000
0000
0001
0000
0000
0000
0010
0000
0100
1000
0100
0000
0000
0000
0010
0000
0000
0000
,
0000
0000
0000
0000
0000
0000
0000
0000
0000
0000
0000
0000
0001
0000
0000
0000
0100
0000
0000
0000
1000
0000
0000
0000
0100
0000
0000
0000
0000
0000
0010
0000
0000
1000
0000
0000
0200
0000
0000
0000
0000
0000
0000
0000
0000
0000
0000
0000
,
0000
0000
0000
0000
0000
0000
0300
0000
0000
0000
0000
0000
0001
0000
0000
0000
0100
0000
0000
0000
1000
0000
0000
0000
0010
0000
0000
0000
0000
0000
0100
0000
0000
0001
0000
0000
0010
0000
0000
0200
0000
0000
0000
0000
0000
0000
0000
0000
,
0000
0300
0000
0000
0000
0000
0000
0000
0000
0000
0000
0000
0000
0000
0000
0000
1001
0000
0000
0000
0000
0000
0000
0000
0000
0000
0000
0000
0000
0000
0000
0000
1000
0000
0000
0000
0100
0000
0000
0000
0010
0000
0000
0000
0001
0000
0000
0000
0100
0000
0000
0000
0000
0000
0000
0000
0000
0000
0000
0000
0000
0000
0000
0000
,
0010
1000
0100
0000
0010
0001
0100
0001
0010
0100
0010
0001
1000
0000
0000
0000
,
0010
0100
0001
0000
1000
0010
1000
0000
0000
0000
0100
0000
0010
0000
0100
1000
,
0100
0010
0001
0000
0010
0001
0100
0001
0100
0010
0000
0100
0010
0000
1000
0001
,
0100
0000
0010
0000
1000
0001
0100
0000
0010
1000
0100
0010
0100
0000
1000
0010
,
0100
0001
0100
0000
0010
0100
0001
0010
0100
1000
0000
0001
0100
0000
0010
1000
,
0001
0100
0010
0000
0100
0001
0010
0000
0100
1000
0100
0010
0100
1000
0000
0010
,
0100
0001
0010
0000
0001
0100
0010
1000
0100
0010
0001
0010
0100
1000
0000
0000
,
0001
0100
0010
0000
0100
0001
0010
0000
0100
1000
0001
0100
0010
0000
0100
0001
,
1000
0000
0100
0000
0010
0000
0000
0000
0100
0000
1000
0000
0010
0000
0100
0000
0001
0000
0000
0000
0100
0000
0001
0000
0010
0000
0000
0000
0001
0000
0000
1000
,
0001
0000
0000
0010
0000
0000
0010
0000
0000
0000
0000
0000
0000
0000
0000
0000
0000
0000
0000
0000
0000
0000
0000
0000
0000
0000
0000
0000
0000
0000
0000
0000
;

//---------------dance-double - M.Emirzian----------------
#NOTES:
     dance-double:
     M.Emirzian:
     Easy:
     2:
     0.156,0.000,0.000,0.000,0.000,115.000,0.000,0.000,0.000,0.000,0.000:
00000000
00000000
00000000
00000000
,
00000000
00000000
00000000
00000000
,
00000000
00000000
00000000
00000000
,
00100000
00000000
10000000
00000000
,
01000000
00000000
00100000
00100000
,
00010000
00000000
01000000
00000000
,
00001000
00000000
00010000
00010000
,
00001000
00000000
00010000
00000000
,
00000010
00000000
00001000
00001000
,
00000100
00000000
00000010
00000000
,
00000001
00000000
00001000
00001000
,
00000010
00000000
00000100
00000000
,
00000001
00000000
00001000
00001000
,
00000100
00000000
00010000
00000000
,
00001000
00000000
01000000
01000000
,
00010000
00000000
10000000
00000000
,
01000000
00000000
00100000
00100000
,
00010000
00000000
01000000
00000000
,
00100000
00000000
10000000
00010000
,
00000000
00000000
00000000
00000000
,
00000000
00100000
00100000
00000000
,
00000000
00000100
00000100
00000000
,
00000000
00000001
00000001
00000000
,
00001000
00000000
00000010
00000000
,
00000100
00000000
00000001
00000001
,
00001000
00000000
00000100
00000000
,
00010000
00000000
00001000
00001000
,
01000000
00000000
00010000
00000000
,
00100000
00000000
00010000
00010000
,
01000000
00000000
00100000
00000000
,
10000000
00000000
01000000
01000000
,
10000000
00000000
00100000
00000000
,
01000000
00000000
00010000
00010000
,
00100000
00000000
00001000
00000000
,
00010000
00000000
00000100
00000100
,
00001000
00000000
00000010
00000000
,
00001000
00000000
00000100
00000100
,
00000010
00000000
00000001
00000000
,
00001000
00000000
00000010
00000010
,
00000000
00000100
00000100
00000000
,
00000000
01000000
01000000
00000000
,
00000000
00010000
00000000
10000000
,
00000000
01000000
00000000
00100000
,
00100000
00010000
00000000
01000000
,
00000000
00001000
00000000
00010000
,
00010000
00000100
00000000
00001000
,
00000000
00000010
00000000
00000100
,
00000100
00000001
00000000
00000010
,
00000000
00000100
00000000
00001000
,
00001000
00000001
00000000
00000100
,
00000000
00001000
00000000
00010000
,
00010000
00000000
00000000
00000000
;

//---------------dance-double - M.Emirzian----------------
#NOTES:
     dance-double:
     M.Emirzian:
     Medium:
     5:
     0.277,0.000,0.200,0.000,0.000,183.000,21.000,0.000,0.000,0.000,0.000:
00000000
00000000
00000000
00000000
,
00000000
00000000
00000000
00000000
,
00000000
00000000
00000000
00000000
,
10000000
00000000
00000000
01000000
00100000
00000000
00010000
00000000
,
01010000
00000000
00000000
00100000
00001000
00000000
00010000
00000000
,
00000100
00000000
00000000
00001000
00000010
00000000
00000100
00000000
,
00001001
00000000
00000000
00000100
00000010
00000000
00000001
00000000
,
00001000
00000000
00000000
00000010
00000100
00000000
00000001
00000000
,
00001100
00000000
00000000
00000010
00001000
00000000
00000100
00000000
,
00001000
00000000
00000000
00000010
00010000
00000000
00001000
00000000
,
00011000
00000000
00000000
01000000
00010000
00000000
10000000
00000000
,
01000000
00000000
00000000
00100000
00010000
00000000
10000000
00000000
,
00110000
00000000
00000000
01000000
00100000
00000000
10000000
00000000
,
01000000
00000000
00000000
00100000
00010000
00000000
10000000
00000000
,
11000000
00000000
00000000
00100000
00010000
00000000
01000000
00000000
,
00001000
00000000
00000000
00010000
00000010
00000000
00001000
00000000
,
00001100
00000000
00000000
00000001
00000100
00000000
00000010
00000000
,
00001000
00000000
00000000
00000100
00001000
00000000
00000010
00000000
,
00001010
00000000
00000000
00000100
00010000
00000000
00001000
00000000
,
01000000
00010000
00010000
00000000
,
00000000
10000000
10000000
00000000
,
00000000
00001000
00001000
00000000
,
00000000
00000001
00000001
00000000
,
00010000
00000000
00000000
00001000
01000000
00000000
00010000
00000000
,
10010000
00000000
00000000
01000000
00100000
00000000
00010000
00000000
,
10000000
00000000
00000000
00100000
01000000
00000000
00010000
00000000
,
11000000
00000000
00000000
00100000
00010000
00000000
01000000
00000000
,
00001000
00000000
00000000
00010000
00000100
00000000
00001000
00000000
,
00001010
00000000
00000000
00000100
00000010
00000000
00000001
00000000
,
00001000
00000000
00000000
00000010
00000100
00000000
00000001
00000000
,
00001100
00000000
00000000
00000001
00000100
00000000
00000010
00000000
,
00001000
00000000
00000000
00000100
00010000
00000000
00001000
00000000
,
00011000
00000000
00000000
00100000
00010000
00000000
01000000
00000000
,
00100000
00000000
00000000
10000000
01000000
00000000
00100000
00000000
,
00110000
00000000
00000000
10000000
01000000
00000000
00100000
00000000
,
00001000
00000000
00000000
01000000
00010000
00000000
00100000
00000000
,
00101000
00000000
00000000
00001000
00010000
00000000
00000100
00000000
,
00001000
00000000
00000000
00000010
00000100
00000000
00000001
00000000
,
00001001
00000000
00000000
00000100
00001000
00000000
00000010
00000000
,
00000100
00000001
00000001
00000000
,
00000000
10000000
10000000
00000000
,
00000000
00000000
00010000
00000000
00000000
10000000
01000000
00000000
,
00100000
00000000
00110000
00000000
00000000
01000000
00100000
00000000
,
10000000
00000000
01000000
00000000
00000000
00100000
00010000
00000000
,
00100000
00000000
10010000
00000000
00000000
00010000
01000000
00000000
,
00001000
00000000
00010000
00000000
00000000
00000100
00001000
00000000
,
00000010
00000000
00001010
00000000
00000000
00000001
00000010
00000000
,
00000100
00000000
00001000
00000000
00000000
00000001
00000100
00000000
,
00000010
00000000
00001010
00000000
00000000
00000100
00001000
00000000
,
00000010
00000000
00010000
00000000
00000000
00001000
01000000
00000000
,
00010000
00000000
01010000
00000000
00000000
00100000
10000000
00000000
,
00010000
01000000
00000000
00000000
00000000
00000000
00000000
00000000
;

//---------------dance-double - M.Emirzian----------------
#NOTES:
     dance-double:
     M.Emirzian:
     Hard:
     8:
     0.504,0.000,0.076,0.238,0.228,338.000,8.000,25.000,0.000,0.000,0.000:
00000000
00000000
00000000
00000000
,
00000000
00000000
00000000
00000000
,
00000000
00000000
00000000
00000000
,
00100000
10000000
00000000
10000000
10000000
00000000
01000000
00100000
,
00010000
20000000
00000000
00010000
30010000
00000000
01000000
00001000
,
00010000
00000200
00000000
00001000
00001300
00000000
00000010
00000100
,
00000001
00002000
00000000
00000100
00003100
00000000
00000010
00000001
,
00000100
00000020
00000000
00001000
00001030
00000000
00000100
00010000
,
00001000
02000000
00000000
00010000
03010000
00000000
00100000
01000000
,
10000000
00200000
00000000
01000000
01300000
00000000
00010000
10000000
,
01000000
00020000
00000000
00001000
00031000
00000000
00010000
00100000
,
01000000
00020000
00000000
10000000
10030000
00000000
01000000
00100000
,
00001000
00020000
00000000
00000100
00030100
00000000
00001000
00000010
,
00000100
00000002
00000000
00001000
00001003
00000000
00000100
00000010
,
00000001
00000200
00000000
00000010
00000310
00000000
00001000
00000100
,
00010000
00002000
00000000
01000000
01003000
00000000
00010000
00100000
,
10000000
00200000
00000000
00010000
00310000
00000000
01000000
10000000
,
01000000
00020000
00000000
10000000
10030000
00000000
01000000
00010000
,
00001000
00000200
00000000
00000001
00000301
00000000
00001001
00000000
,
00000100
00000010
00000001
00000000
00000100
00000010
00001010
00000000
,
00000100
00000000
00010000
00000000
00001000
00000000
00000000
00000000
01000000
00000000
00010000
00000000
01001000
00010000
00000000
01000000
,
00010000
10000000
01000000
00000000
00100000
00010000
01010000
00000000
,
00100000
00000000
10000000
00000000
01000000
00000000
00000000
00000000
00100000
00000000
00010000
00000000
01000000
00100000
00000000
10000000
,
01000000
00200000
00000000
00010000
00310000
00000000
01000000
00100000
,
10000000
02000000
00000000
00100000
03100000
00000000
00010000
01000000
,
00001000
00000000
00010000
00000100
00000000
00000000
00001000
00000100
00000000
00000000
00010000
00001000
00000000
00010000
00000010
00000000
,
00001000
00000000
00000100
00000010
00000000
00000000
00000001
00001000
00000000
00000000
00000010
00000100
00000000
00000001
00001000
00000000
,
00000100
00000020
00000000
00000001
00000031
00000000
00000100
00000010
,
00010000
00002000
00000000
01000000
01003000
00000000
00010000
10000000
,
01000000
00000000
00100000
00010000
00000000
00000000
10000000
00100000
00000000
00000000
01000000
00010000
00000000
10000000
01000000
00000000
,
00100000
00000000
00010000
10000000
00000000
00000000
00100000
01000000
00000000
00000000
00001000
00010000
00000000
00000100
00001000
00000000
,
00000010
00000200
00000000
00000001
00000301
00000000
00001000
00000100
,
00000010
00000002
00000000
00000100
00000103
00000000
00000010
00001000
,
00000001
00000000
00000010
00000100
00000000
00000000
00010000
00001000
00000000
00000000
00000100
00000010
00000000
00001000
00000100
00000000
,
00010000
00000000
00001000
00000100
00000000
00000000
00001000
00010000
00000000
00000000
00100000
00010000
00000000
00100000
10000000
00000000
,
01000000
00200000
00000000
00010000
00310000
00000000
01000000
00100000
,
10000000
02000000
00000000
00100000
03100000
00000000
00010000
10000000
,
00100000
00000000
01000000
00010000
00000000
00000000
10000000
01000000
00000000
00000000
00010000
01000000
00000000
00100000
00010000
00000000
,
01000000
00000000
00001000
00010000
00000000
00000000
00000010
00001000
00000000
00000000
00000100
00010000
00000000
00000100
00001000
00000000
,
00000010
00000100
00000001
00000000
00001000
00000100
00000110
00000000
,
00000001
00000000
00000100
00000000
00001000
00000000
00000000
00000000
00010000
00000000
00001000
00000000
00011000
01000000
00000000
20020000
,
00000000
00000000
30030000
00000000
00100000
10000000
00100000
00000000
00000000
00000000
01000000
00000000
00010000
00000000
00100000
00000000
,
01000000
00000000
10000000
00000000
01000000
00000000
00010000
00000000
00001000
00000000
00100000
00000000
00010000
00000000
01000000
00010000
,
01000000
00000000
00000000
00000000
00100000
10000000
00100000
00000000
00000000
00000000
01000000
00000000
00010000
00000000
10000000
00000000
,
01000000
00000000
00100000
00000000
00010000
00000000
01000000
00000000
00001000
00000000
00010000
00000000
00000100
00000000
00001000
00000001
,
00001000
00000000
00000000
00000000
00000100
00000010
00000100
00000000
00000000
00000000
00001000
00000000
00000001
00000000
00000100
00000000
,
00000010
00000000
00001000
00000000
00000100
00000000
00000010
00000000
00001000
00000000
00010000
00000000
00000100
00000000
00010000
00001000
,
00010000
00000000
00000000
00000000
00100000
01000000
00100000
00000000
00000000
00000000
01000000
00000000
00010000
00000000
10000000
00000000
,
00100000
00000000
00010000
00000000
00100000
00000000
10000000
00000000
01000000
00000000
00100000
00000000
00010000
00000000
01000000
00010000
,
01000000
00000000
00000000
00000000
00100000
10000000
00100000
00000000
00000000
00000000
01000000
00000000
00010000
00000000
10000000
00000000
,
01000000
00000000
00100000
00000000
00001000
00000000
00010000
00000000
00000100
00000000
00001000
00000000
00000010
00000000
00000100
00000001
,
00000100
00001001
00000000
00000000
00000000
00000000
00000000
00000000
;

//---------------dance-double - M.Emirzian----------------
#NOTES:
     dance-double:
     M.Emirzian:
     Challenge:
     10:
     0.575,0.000,0.419,0.019,0.409,377.000,44.000,2.000,0.000,0.000,0.000:
00000000
00000000
00000000
00000000
,
00000000
00000000
00000000
00000000
,
00000000
00000000
00000000
00000000
,
10000000
01000000
00000000
00100000
00001100
00000000
00000010
00000100
,
00001000
00000001
00000000
00000100
01010000
00000000
00100000
01000000
,
10000000
00100000
00000000
01000000
00001100
00000000
00001000
00000001
,
00000010
00000100
00000000
00000010
01010000
00000000
00100000
10000000
,
01000000
00010000
00000000
01000000
00001100
00000000
00000010
00000001
,
00000100
00000010
00000000
00010000
01000100
00000000
00001000
01000000
,
00100000
01000000
00000000
00010000
00000110
00000000
00001000
00000100
,
00000010
00001000
00000000
00000010
00110000
00000000
10000000
00100000
,
10000000
01000000
00000000
00100000
00001100
00000000
00000010
00000100
,
00000001
00000010
00000000
00000100
01010000
00000000
00100000
01000000
,
00001000
00100000
00000000
00001000
00100010
00000000
00001000
00010000
,
01000000
10000000
00000000
00100000
00001010
00000000
00000100
00000001
,
00000010
00000100
00000000
00010000
10001000
00000000
10000000
01000000
,
00100000
00001000
00000000
00010000
00010001
00000000
00000010
00000100
,
00001000
00000010
00000000
00000100
01100000
00000000
00010000
10000000
,
01000000
00100000
00000000
00001000
00010001
00000000
00000010
00001000
,
00000100
00000010
00000011
00000000
00000100
00000001
01100000
00000000
,
10000000
00000000
01000000
00000000
00000110
00000000
00000000
00000000
00000100
00000000
00010000
00000000
01000100
00011000
00000000
10001000
,
00100000
10000000
00001100
00000000
00010000
00000100
00100010
00000000
,
00100000
00000000
01000000
00000000
00010001
00000000
00000000
00000000
00000100
00000000
00001000
00000000
10001000
01010000
00000000
10010000
,
01000000
00100000
00000000
01000000
10010000
00000000
00100000
10000000
,
01000000
00100000
00000000
00010000
00000110
00000000
00000001
00000100
,
00000010
00001000
00000100
00010000
00000000
00000000
00001000
00000100
00000000
00000000
00001000
00010000
00000000
00100000
10000000
00000000
,
01000000
00100000
00010000
01000000
00000000
00000000
00100000
10000000
00000000
00000000
01000000
00010000
00000000
00001000
00000100
00000000
,
00000001
00001000
00000000
00000010
00000101
00000000
00000010
00000100
,
00001000
00000001
00000000
00000100
01100000
00000000
00010000
10000000
,
01000000
00100000
00010000
10000000
00000000
00000000
01000000
00100000
00000000
00000000
00001000
00010000
00000000
00000010
00000100
00000000
,
00000001
00001000
00000100
00000010
00000000
00000000
00000001
00000100
00000000
00000000
00001000
00010000
00000000
00100000
10000000
00000000
,
01000000
00100000
00000000
00010000
00001010
00000000
00000001
00000100
,
00000010
00010000
00000000
00000100
01000100
00000000
00001000
01000000
,
00010000
00100000
00010000
01000000
00000000
00000000
00100000
10000000
00000000
00000000
01000000
00010000
00000000
00001000
00000100
00000000
,
00000001
00001000
00000100
00000010
00000000
00000000
00000001
00000100
00000000
00000000
00001000
00010000
00000000
01000000
00010000
00000000
,
00001000
01000000
00000000
00100000
01000100
00000000
00010000
00001000
,
00100000
01000000
00000000
10000000
10010000
00000000
00010000
01000000
,
00100000
10000000
01000000
00010000
00000000
00000000
00001000
00010000
00000000
00000000
00100000
00010000
00000000
00001000
00000100
00000000
,
00000010
00001000
00000100
00000010
00000000
00000000
00000001
00000100
00000000
00000000
00000010
00001000
00000000
00000100
00000010
00000000
,
00000001
00000100
00100010
00000000
00001000
00000010
10001000
00000000
,
01000000
00000000
00010000
00000000
00010001
00000000
00000000
00000000
00001000
00000000
00000001
00000000
00001100
00000110
00000000
00002002
,
00000000
00000000
00003003
00000000
00000010
00001000
00000100
00000000
00000000
00000000
00001000
00000100
00010000
00000000
00001000
01000000
,
00100000
10000000
01000000
00000000
00100000
00010000
01000000
00100000
10000000
00000000
01000000
00100000
00010000
00000000
10000000
01000000
,
00100000
00000000
00000000
00000000
00010000
01000000
00001000
00000000
00000000
00000000
00010000
00000100
00001000
00000000
00000010
00001000
,
00000100
00000010
00000001
00000000
00000100
00000010
00001000
00000100
00010000
00000000
00001000
01000000
00010000
00000000
10000000
01000000
,
00100000
00000000
00000000
00000000
00010000
10000000
01000000
00000000
00000000
00000000
00100000
00001000
00010000
00000000
00000100
00010000
,
00001000
01000000
00100000
00000000
10000000
01000000
00100000
00001000
00010000
00000000
00000100
00001000
00000010
00000000
00000100
00000001
,
00000010
00000000
00000000
00000000
00001000
00000001
00000100
00000000
00000000
00000000
00000010
00001000
00000100
00000000
00010000
00001000
,
01000000
00100000
10000000
00000000
01000000
00100000
00001000
00010000
00000100
00000000
00000010
00000001
00001000
00000000
00000010
00000100
,
00000001
00000000
00000000
00000000
00000100
00000010
00001000
00000000
00000000
00000000
00000100
00010000
00001000
00000000
01000000
00100000
,
10000000
01000000
00100000
00000000
00010000
10000000
00100000
01000000
00001000
00000000
00010000
00000100
00001000
00000000
00000010
00000100
,
00000110
00001001
00000000
00000000
00000000
00000000
00000000
00000000
;
