#TITLE:Fleadh Uncut;
#SUBTITLE:;
#ARTIST:Parker/Stiles;
#TITLETRANSLIT:;
#SUBTITLETRANSLIT:;
#ARTISTTRANSLIT:;
#GENRE:Ethnic;
#CREDIT:;
#BANNER:Fleadh Uncut-banner.png;
#BACKGROUND:Fleadh Uncut-bg.png;
#LYRICSPATH:;
#CDTITLE:;
#MUSIC:Fleadh Uncut.ogg;
#OFFSET:0.019;
#SAMPLESTART:29.080;
#SAMPLELENGTH:11.760;
#SELECTABLE:YES;
#BPMS:0.000=132.000;
#STOPS:;
#BGCHANGES:0.000=Fleadh Uncut-bg.png=1.000=0=0=1=====,
16.000=In The Groove 2/968_JumpBack.mpg=1.000=0=0=1=====,
32.000=In The Groove 2/803_JumpBack.mpg=1.000=1=0=1===CrossFade==,
48.000=In The Groove 2/613_JumpBack.mpg=1.000=0=0=1=====,
64.000=In The Groove 2/949_JumpBack.mpg=1.000=1=0=1===CrossFade==,
80.000=In The Groove 2/819_JumpBack.mpg=1.000=1=0=1===CrossFade==,
96.000=-random-=1.000=0=0=1=====,
112.000=-random-=1.000=0=0=1=====,
128.000=-random-=1.000=0=0=1=====,
144.000=-random-=1.000=0=0=1=====,
160.000=-random-=1.000=0=0=1===FadeLeft==,
176.000=-random-=1.000=0=0=1===FadeRight==,
192.000=-random-=1.000=0=0=1=====,
208.000=-random-=1.000=0=0=1=====,
223.000=Fleadh Uncut-bg.png=1.000=0=0=1=====,
99999=-nosongbg-=1.000=0=0=0 // don't automatically add -songbackground-
;
#BGCHANGES2:16.000=white flash=1.000=0=0=1=====,
32.000==1.000=0=0=1=====,
48.000=white flash=1.000=0=0=1=====,
92.000=yellow flash=1.000=0=0=1=====,
96.000=white flash=1.000=0=0=1=====,
112.000=white flash=1.000=0=0=1=====,
124.000=yellow flash=1.000=0=0=1=====,
128.000=white flash=1.000=0=0=1=====,
144.000=white flash=1.000=0=0=1=====,
188.000=yellow flash=1.000=0=0=1=====,
192.000=white flash=1.000=0=0=1=====,
208.000=white flash=1.000=0=0=1=====,
220.000=yellow flash=1.000=0=0=1=====,
223.000=white flash=1.000=0=0=1=====,
;
#KEYSOUNDS:;
// cache tags:
#FIRSTBEAT:12.000;
#LASTBEAT:223.000;
#SONGFILENAME:/Songs/In The Groove 2/Fleadh Uncut/Fleadh Uncut.sm;
#HASMUSIC:1;
#HASBANNER:1;
#MUSICLENGTH:103.636;
// end cache tags

//---------------dance-single - C. Foy----------------
#NOTES:
     dance-single:
     C. Foy:
     Easy:
     4:
     0.263,0.000,0.077,0.116,0.000,171.000,8.000,12.000,0.000,0.000,0.000:
0000
0000
0000
0000
,
0000
0000
0000
0000
,
0000
0000
0000
0000
,
0000
0000
0000
0000
,
1000
0001
1000
0000
,
0010
0000
1000
0000
,
0001
0100
0001
0000
,
0010
0000
0100
0000
,
1000
0100
0010
0000
,
0001
0000
1000
0000
,
0001
0010
0100
0000
,
0010
0000
0100
0000
,
1000
0100
1000
0100
,
0010
0001
0010
0001
,
1000
0100
0010
0001
,
1000
0100
0010
0001
,
1001
0001
1000
0001
,
0100
0010
0100
0010
,
1000
0010
0100
0001
,
1000
0010
0100
0001
,
2002
0000
0000
0000
0000
0000
0000
3003
,
0220
0000
0000
0330
,
2200
0000
0000
0000
0000
0000
0000
3300
,
0022
0000
0000
0033
,
1000
0100
1000
0100
,
0010
0001
0010
0001
,
1000
0010
1000
0010
,
0100
0001
0100
0001
,
1000
0100
0010
0001
,
1000
0100
0010
0001
,
0001
0010
0100
1000
,
0001
0010
0100
1000
,
1001
0001
1000
0000
,
1000
0010
0100
0000
,
0001
0100
0010
0000
,
1000
0001
0100
0000
,
0001
1000
0010
0000
,
0100
0010
1000
0000
,
0010
0100
0001
0000
,
0100
0001
1000
0000
,
2000
0001
0001
0000
,
0001
0100
0001
0000
,
3002
1000
1000
0000
,
1000
0100
1003
0000
,
0200
0001
0010
0000
,
1000
0010
0010
0000
,
0320
0100
1000
0000
,
0001
0100
0130
0110
,
1001
0001
1000
0001
,
1000
0000
0010
0000
0000
0010
1000
0000
,
0100
0010
0100
0010
,
0001
0000
0010
0000
0000
0010
0001
0000
,
0001
0100
0001
0100
,
0010
0000
1000
0000
0000
1000
0010
0000
,
0100
0010
0100
0010
,
1000
0000
0001
1000
0001
1000
0001
0000
;

//---------------dance-single - ----------------
#NOTES:
     dance-single:
     :
     Medium:
     6:
     0.442,0.000,0.183,0.154,0.106,286.000,19.000,16.000,0.000,0.000,0.000:
0000
0000
0000
0000
,
0000
0000
0000
0000
,
0000
0000
0000
0000
,
0000
0000
0000
0000
,
1000
0001
1000
0001
1000
0000
0001
0000
,
0100
0010
0100
0010
0100
0000
0010
0000
,
1000
0100
1000
0100
1000
0000
0100
0000
,
0010
0001
0010
0001
0010
0000
0001
0000
,
1000
0010
1000
0010
1000
0000
0010
0000
,
0100
0001
0100
0001
0100
0000
0001
0000
,
1000
0100
1000
0100
0010
0000
0100
0000
,
0010
0001
0010
0001
1000
0000
1001
0000
,
1000
0010
1000
0001
2000
0000
3010
0000
,
0100
0001
0100
0010
0200
0000
0301
0000
,
1000
0010
1000
0001
2000
0000
3010
0000
,
0100
0001
0100
0010
0200
0000
0300
0000
,
0110
0000
0001
0010
0100
0000
1000
0000
,
0010
0000
1000
0001
0100
0000
0010
0000
,
1000
0000
0100
0010
0001
0000
1000
0000
,
0010
0000
0100
0010
1000
0000
0001
0000
,
2200
0000
0000
0000
3300
0010
0000
0001
,
0022
0000
0000
0000
0000
0000
0000
0033
,
2020
0000
0000
0000
3030
0100
0000
0001
,
0202
0000
0000
0303
,
1000
0100
1000
0001
1000
0000
1001
0000
,
0001
0010
0001
1000
0001
0000
1001
0000
,
0100
0010
0100
0001
0100
0000
0101
0000
,
0010
0100
0010
1000
0010
0000
1010
0000
,
1000
0001
1000
0100
1000
0000
1100
0000
,
0001
1000
0001
0100
0001
0000
0101
0000
,
1000
0010
1000
0001
1000
0000
1001
0000
,
0001
0010
0100
1000
0001
0010
0100
1000
,
1100
0000
0001
0000
0100
0010
1000
0000
,
1000
0000
0010
0000
1000
0100
1000
0001
,
1000
0000
0001
0000
0100
0010
1000
0000
,
1000
0000
0010
0000
0100
0010
0100
0001
,
0101
0000
0100
0000
0001
0100
0010
0000
,
0010
0000
1000
0000
0001
0010
0001
0100
,
0101
0000
0001
0000
0010
0100
1000
0000
,
1000
0000
0100
0000
0010
0001
0010
0001
,
2000
0000
0010
0000
0010
0010
0010
0000
,
0001
0000
0100
0000
0100
0100
0100
0000
,
3002
0000
0100
0000
1000
1000
1000
0000
,
0010
1000
1003
0001
,
0200
0000
0001
0000
0010
0010
0010
0000
,
1000
0000
0010
0000
0001
0001
0001
0000
,
0320
0000
0100
0000
0001
0001
0001
0000
,
0100
1000
0130
0110
,
1001
0000
0000
1000
0001
0000
0000
0001
1000
0000
0000
1000
0001
0000
0000
0001
,
1000
0000
0000
1000
0010
0000
0000
0000
0000
0000
0010
0000
1000
0000
0000
1000
,
0100
0000
0000
0100
0010
0000
0000
0010
0100
0000
0000
0100
0010
0000
0000
0010
,
0001
0000
0000
0001
0010
0000
0000
0000
0000
0000
0010
0000
0001
0000
0000
0001
,
0010
0000
0000
0010
0001
0000
0000
0001
0100
0000
0000
0100
0010
0000
0000
0010
,
1000
0000
0000
1000
0001
0000
0000
0000
0000
0000
1000
0000
0010
0000
0000
0010
,
0100
0000
0000
0100
0010
0000
0000
0010
1000
0000
0000
1000
0010
0000
0000
0010
,
1000
0000
0001
0010
0100
0000
1001
0000
;

//---------------dance-single - C. Foy----------------
#NOTES:
     dance-single:
     C. Foy:
     Hard:
     8:
     0.635,0.000,0.357,0.135,0.352,410.000,37.000,14.000,4.000,0.000,0.000:
0000
0000
0000
0000
,
0000
0000
0000
0000
,
0000
0000
0000
0000
,
1001
0000
0000
0000
0110
0000
0000
0000
0011
0000
0000
0000
1100
0000
0000
0001
,
1000
0010
0100
0001
1000
0100
1000
0001
,
0100
0000
0001
0000
1000
0000
0010
0000
0100
0000
0010
1000
0010
0000
0000
0010
,
1000
0100
1000
0001
0100
0001
1000
0100
,
1000
0000
0001
0000
0010
0000
0001
0000
0100
0000
0010
0100
0010
0000
0000
0010
,
1000
0100
1000
0001
0100
0010
1000
0100
,
0010
0000
0001
0000
0100
0000
0010
0000
1000
0000
0001
0100
0001
0000
0000
0001
,
0010
0100
1000
0100
0010
0100
0010
0001
,
0010
0000
0001
0000
0100
0000
0010
0000
0100
0000
0010
1000
0010
0000
0000
0000
,
1010
0010
0100
0001
0020
0000
0130
0000
,
1000
0010
1000
0100
0020
0000
0031
0000
,
0100
0010
1000
0100
2000
0000
3010
0000
,
1000
0100
0010
0001
0200
0000
0300
MMMM
,
0110
0000
0001
0010
0100
1000
0001
0010
,
0100
0010
0001
0100
0010
0100
0010
1000
,
0100
0010
0001
0100
0001
0010
0100
1000
,
0100
0010
0001
0100
0010
1000
0001
1000
,
2020
0000
0000
0000
3030
1000
0000
0010
,
0022
0000
0000
0000
0000
0000
0000
0033
,
2020
0000
0000
0000
3030
0100
0000
0001
,
0101
1100
0011
1100
,
1000
0100
1000
0001
1000
0001
1001
0000
,
0001
0010
0001
1000
0010
0100
1100
0000
,
1000
0010
0100
0001
1000
0010
1010
0000
,
0010
0100
0001
1000
0100
0010
0011
0000
,
0001
1000
0100
0010
0100
1000
1100
0000
,
0001
1000
0001
0100
0010
1000
1010
0000
,
1000
0010
0100
0001
0010
0100
1001
0000
,
0011
1100
1010
0101
,
1000
0001
1000
0000
0001
0000
1000
0100
1000
0100
1000
0100
1000
0100
1000
0100
,
1000
0000
0001
1000
0001
0000
0100
0001
0100
0000
0010
1000
0010
0000
0000
0000
,
0100
0001
0100
0001
0100
0000
0001
1000
0001
1000
0001
1000
0001
1000
0001
0000
,
0001
0100
0001
0000
1000
0001
1000
0000
0001
0010
0001
0000
1000
0000
0000
0000
,
1000
0001
1000
0000
0001
0000
1000
0100
1000
0100
1000
0100
1000
0100
1000
0100
,
1000
0000
0001
1000
0001
0000
0100
0001
0100
0000
0010
1000
0010
0000
0000
0000
,
0100
0001
0100
0001
0100
0000
0001
1000
0001
1000
0001
1000
0001
1000
0001
0000
,
0001
0100
0001
0000
1000
0001
1000
0000
0001
0010
0001
0000
1000
0000
0000
0000
,
2000
0000
0001
0000
0010
0001
0010
0000
,
0100
0000
0010
0000
0001
0010
0001
0000
,
3002
0000
0100
0000
0010
1000
0100
0000
,
0010
1000
0103
0001
,
0200
0000
0001
0000
0010
1000
1000
0000
,
0010
0000
1000
0000
0010
0001
0010
0000
,
0320
0000
0100
0000
0001
0001
0001
0000
,
0100
0001
0130
0110
,
0001
1000
0001
0000
1000
0000
0001
0010
0001
0010
0001
0010
0001
0010
0001
0010
,
0001
0000
1000
0001
1000
0000
1010
0000
0000
0000
0110
0000
1001
0000
0000
0000
,
0010
1000
0010
1000
0010
0000
1000
0001
1000
0001
1000
0001
1000
0001
1000
0000
,
1000
0010
1000
0000
0001
1000
0001
0000
1000
0000
1001
0000
0101
0000
0000
0000
,
0001
1000
0001
0000
1000
0000
0001
0010
0001
0010
0001
0010
0001
0010
0001
0010
,
0001
1001
0000
0110
0000
0101
1010
0000
,
0010
1000
0010
1000
0010
0000
1000
0001
1000
0001
1000
0001
1000
0001
1000
0000
,
0001
0010
0001
0000
1000
0001
1000
0000
0101
0000
1100
0000
0101
0000
0000
0000
;

//---------------dance-single - C. Foy----------------
#NOTES:
     dance-single:
     C. Foy:
     Challenge:
     10:
     0.766,0.000,0.241,0.145,0.839,516.000,25.000,15.000,6.000,0.000,0.000:
0000
0000
0000
0000
,
0000
0000
0000
0000
,
0000
0000
0000
0000
,
1001
1010
0101
0110
,
0001
0010
0001
1000
0100
0000
0010
0001
1000
0010
1000
0001
1000
0100
1000
0001
,
0010
0100
1000
0001
0010
0100
1000
0001
0010
0001
1000
0001
0100
0000
0000
0000
,
0010
1000
0100
1000
0001
0000
0010
0001
0100
0010
1000
0001
0010
0100
1000
0010
,
0100
0001
0010
0100
1000
0001
0100
0010
1000
0001
1000
0100
1000
0000
0000
0000
,
1000
0001
1000
0010
0100
0000
0010
0100
0001
0100
0010
1000
0100
1000
0100
0010
,
0100
1000
0001
0100
0001
1000
0001
0010
0001
0100
0010
0100
0001
0000
0000
0000
,
1000
0010
1000
0100
0010
0000
0001
0010
0100
1000
0100
0010
0001
0010
0001
1000
,
0100
1000
0001
0010
0001
1000
0010
1000
0001
0100
0001
1000
0010
0000
0000
0000
,
1001
0010
0100
0001
0020
0000
0130
0000
,
1000
0001
0100
0000
0010
0000
1000
0000
0020
0000
0000
0000
0031
0000
0000
0000
,
0010
1000
0100
0000
1000
0000
0010
0000
0002
0000
0000
0000
0013
0000
0000
0000
,
1000
0100
0010
0000
0010
0000
0001
0000
0200
0000
0000
0000
0300
0000
MMMM
0000
,
M21M
0000
0001
0000
0301
0000
0100
0000
0001
1000
0010
0000
0100
0000
0001
0000
,
0010
0100
1000
0000
0010
0000
1000
0000
0010
1000
0100
0000
0010
0000
0001
0000
,
0010
0100
1000
0000
0010
0000
1000
0000
0100
1000
0010
0000
0100
0000
0001
0000
,
0010
0100
1000
0000
0100
0000
1000
0000
0010
0100
0001
0000
0010
0000
0100
0000
,
2020
0000
0000
0000
3030
1000
0000
0010
,
0022
0000
0000
0000
0000
0000
0000
0033
,
2020
0000
0000
0000
3030
0100
0000
0001
,
0101
1010
1001
0101
,
1000
0000
0100
0000
1000
0000
0001
0000
1000
0001
1000
0000
1001
0000
0000
0000
,
0001
0000
0010
0000
0001
0000
1000
0000
0010
1000
0100
0000
1100
0000
0000
0000
,
1000
0000
0010
0000
0100
0000
0001
0000
1000
0010
1000
0000
1010
0000
0000
0000
,
0010
0000
0100
0000
0001
0000
1000
0000
0100
0010
0001
0000
0011
0000
0000
0000
,
0001
0000
1000
0000
0100
0000
0010
0000
0001
0100
0010
0000
1100
0000
0000
0000
,
0001
0000
1000
0000
0001
0000
0100
0000
0010
0100
0001
0000
1010
0000
0000
0000
,
1000
0000
0010
0000
0100
0000
0001
0000
0010
0100
1000
0000
0011
0000
0000
0000
,
1100
0101
1010
1001
,
0001
0010
0100
1000
0001
0010
0100
1000
0001
0100
0001
1000
0001
0010
0001
1000
,
0100
0010
0001
1000
0100
0010
0001
1000
0100
1000
0001
1000
0010
0000
0000
0000
,
0100
0001
0010
0001
1000
0000
0100
1000
0010
0100
0001
1000
0100
0010
0001
0100
,
0010
1000
0100
0010
0001
1000
0010
0100
0001
1000
0001
0010
0001
0000
0000
0000
,
0001
1000
0001
0100
0010
0000
0100
0010
1000
0010
0100
0001
0010
0001
0010
0100
,
0010
0001
1000
0010
1000
0001
1000
0100
1000
0010
0100
0010
1000
0000
0000
0000
,
0001
0100
0001
0010
0100
0000
1000
0100
0010
0001
0010
0100
1000
0100
1000
0001
,
0010
0001
1000
0100
1000
0001
0100
0001
1000
0010
1000
0001
0100
0000
0000
0000
,
2000
0000
0001
0000
0010
0001
0010
0000
,
0100
0000
0010
0000
0001
0001
0010
0010
,
3002
0000
0100
0000
0010
0100
0010
0000
,
1000
0010
0103
0001
,
0200
0000
0001
0000
1000
0010
1000
0000
,
0001
0000
0001
0000
1000
0010
1000
0000
,
0320
0000
0100
0000
0001
0100
0001
0000
,
1000
0001
0130
1010
,
1000
0100
1000
0001
0010
0000
0001
0100
0001
1000
0010
1000
0010
0100
0010
0100
,
0001
0100
0001
0010
0001
0010
0100
0010
0100
1000
0100
1000
0010
0000
0000
0000
,
0100
0001
0010
0100
1000
0000
0100
1000
0010
0100
0001
1000
0010
0100
0001
1000
,
0010
0100
0001
0010
0100
1000
0010
1000
0100
1000
0010
1000
0001
0000
0000
0000
,
0100
0001
0010
0100
1000
0000
0001
1000
0010
0100
0001
0010
0100
0010
0001
1000
,
0010
0100
0001
0010
0001
0100
0001
1000
0010
0100
0001
0010
0001
0000
0000
0000
,
0001
1000
0010
0100
0001
0000
1000
0001
1000
0001
1000
0100
1000
0100
0010
0100
,
0010
0100
0001
0100
0001
0100
0010
0100
0010
0100
1000
0100
1000
0000
0000
0000
;

//---------------dance-double - M.Emirzian----------------
#NOTES:
     dance-double:
     M.Emirzian:
     Easy:
     3:
     0.163,0.000,0.048,0.000,0.000,113.000,5.000,0.000,0.000,0.000,0.000:
00000000
00000000
00000000
00000000
,
00000000
00000000
00000000
00000000
,
00000000
00000000
00000000
00000000
,
00000000
00000000
00000000
00000000
,
01000000
00000000
00001000
00000000
,
01000000
00000000
00010000
00000000
,
01000000
00000000
00001000
00000000
,
00010000
00000000
00000010
00000000
,
00010000
00000000
00001000
00000000
,
00010000
00000000
00000100
00000000
,
00001000
00000000
00000010
00000000
,
00010000
00000000
00000010
00000000
,
00001000
00000000
00000000
00000001
,
00001000
00000000
00000000
00000100
,
00000100
00000000
00000000
00010000
,
00001000
00000000
00000000
01000000
,
01000000
00000000
00000000
00010000
,
10000000
00100000
00000000
10000000
,
00100000
00000000
00000000
00001000
,
00010000
00000100
00000000
00000010
,
00000001
00000000
00000000
00001000
,
00000010
00000100
00000000
00000001
,
00001000
00000000
00000000
00000100
,
00010000
00001000
01000000
00010000
,
10000000
00000000
00000000
00000000
,
11000000
00000000
00000000
00000000
,
00011000
00000000
00000000
00000000
,
00000101
00000000
00000000
00000000
,
00011000
00000000
00000000
00010000
,
00010000
00000000
00000000
00001000
,
00001000
00000000
00000000
01000000
,
00100000
10000000
01000000
00100000
,
00001000
00000000
00010000
00000000
,
00000100
00000000
00010000
00000000
,
00001000
00000000
01000000
00000000
,
00010000
00000000
01000000
00000000
,
00001000
00000000
00010000
00000000
,
00000100
00000000
00010000
00000000
,
00001000
00000000
00000100
00000000
,
00000001
00000000
00001000
00000000
,
00000100
00000000
00000000
00000100
,
00010000
00001000
00000000
01000000
,
01000000
00000000
00000000
00010000
,
00100000
01000000
00000000
10000000
,
00010000
00000000
00000000
01000000
,
00001000
00010000
00000000
00000010
,
00000010
00000000
00000000
00001000
,
00000100
00000010
00000001
00000100
,
00000010
00000000
00000000
00000000
,
00010000
00000000
00000000
00001000
,
00001000
00000000
00000000
01000000
,
00010000
00000000
00000000
10000000
,
10000000
00000000
00000000
01000000
,
00100000
00000000
00000000
00001000
,
00001000
00000000
00000000
00010000
,
00000100
00001000
00000001
00000110
;

//---------------dance-double - M.Emirzian----------------
#NOTES:
     dance-double:
     M.Emirzian:
     Medium:
     6:
     0.352,0.000,0.154,0.010,0.053,238.000,16.000,1.000,0.000,0.000,0.000:
00000000
00000000
00000000
00000000
,
00000000
00000000
00000000
00000000
,
00000000
00000000
00000000
00000000
,
00000000
00000000
00000000
00000000
,
00010000
00000000
01000000
00000000
00001000
00010000
00001000
00000000
,
00010000
00000000
00000010
00000000
00001000
00000100
00001000
00000000
,
00000100
00000000
00010000
00000000
00001000
01000000
00001000
00000000
,
00010000
00000000
00000100
00001000
00000010
00000100
00000001
00000000
,
00000010
00000000
00000100
00000000
00010000
00001000
00010000
00000000
,
00001000
00000000
01000000
00000000
00010000
00100000
00010000
00000000
,
01000000
00000000
00001000
00000000
00010000
00000100
00010000
00000000
,
00001000
00000000
01000000
00010000
00100000
01000000
10000000
00000000
,
00100000
00000000
00000000
01000000
00000000
00000000
00010000
00000000
00000000
00000000
00000000
00000000
11000000
00000000
00000000
00000000
,
00010000
00000000
00000000
01000000
00000000
00000000
00001000
00000000
00000000
00000000
00000000
00000000
00011000
00000000
00000000
00000000
,
00000100
00000000
00000000
00001000
00000000
00000000
00000010
00000000
00000000
00000000
00000000
00000000
00000101
00000000
00000000
00000000
,
00000010
00000000
00000000
00000100
00000000
00000000
00002000
00000000
00000000
00000000
00000000
00000000
00000000
00000000
00003000
00000000
,
00000001
00000100
00000000
00000010
00000000
00001000
00000000
00000100
,
00000000
00010000
00000000
00001000
00000000
00000100
00000000
00001000
,
00010000
00001000
00000000
01000000
00000000
00100000
00000000
00010000
,
00000000
00001000
00000000
00100000
00000000
01000000
00000000
10000000
,
01000000
10000000
00000000
00010000
00000000
01000000
00000000
00100000
,
00000000
00010000
00000000
00001000
00000000
00000010
00000000
00000100
,
00001000
00000100
00000000
00000010
00000000
00000001
00000000
00000100
,
00000010
00001010
00000100
00010100
,
00000100
00000000
00000000
00001000
00000000
00000000
00000001
00000000
00000000
00000000
00000000
00000000
00001100
00000000
00000000
00000000
,
00000010
00000000
00000000
00010000
00000000
00000000
00001000
00000000
00000000
00000000
00000000
00000000
01001000
00000000
00000000
00000000
,
00010000
00000000
00000000
01000000
00000000
00000000
00100000
00000000
00000000
00000000
00000000
00000000
10100000
00000000
00000000
00000000
,
01000000
00000000
00000000
00100000
00000000
00000000
00010000
00000000
00000000
00000000
00000000
00000000
01001000
00000000
00000000
00000000
,
00001000
00000000
00000000
00010000
00000000
00000000
00000100
00000000
00000000
00000000
00000000
00000000
00001100
00000000
00000000
00000000
,
00000001
00000000
00000000
00000100
00000000
00000000
00000010
00000000
00000000
00000000
00000000
00000000
00001010
00000000
00000000
00000000
,
00000100
00000000
00000000
00000010
00000000
00000000
00000001
00000000
00000000
00000000
00000000
00000000
00001100
00000000
00000000
00000000
,
00000100
00010100
00001000
01001000
,
00010000
00000000
01000000
00000000
00100000
10000000
00100000
00000000
,
01000000
00000000
00010000
00000000
00100000
00001000
00100000
00000000
,
00001000
00000000
00010000
00000000
00000100
00010000
00000100
00000000
,
00001000
00000000
00000001
00000100
00000010
00001000
00000100
00000000
,
00010000
00000000
00001000
00000000
01000000
00010000
01000000
00000000
,
00001000
00000000
00010000
00000000
00000010
00001000
00000010
00000000
,
00010000
00000000
00001000
00000000
01000000
00100000
01000000
00000000
,
00010000
00000000
00100000
01000000
10000000
00100000
01000000
00000000
,
00010000
00000000
00000000
00000000
10000000
00010000
10000000
00000000
,
01000000
00000000
00000000
00000000
00001000
00010000
00001000
00000000
,
00000010
00000000
00000000
00000000
00000001
00001000
00000001
00000000
,
00000100
00000000
00000000
00000000
00001000
00010000
00001000
00000000
,
01000000
00000000
00000000
00000000
00010000
00100000
00010000
00000000
,
10000000
00000000
00000000
00000000
01000000
00100000
01000000
00000000
,
10000000
00000000
00000000
00000000
00001000
00010000
00001000
00000000
,
00010000
00010100
00001000
00001010
,
00000100
00000001
00001000
00000100
,
00010000
00001000
00010000
00000000
01000000
00000000
10000000
00000000
,
00100000
01000000
00010000
00100000
,
01000000
10000000
01000000
00000000
00100000
00001000
00100000
00000000
,
00001000
00010000
00000100
00001000
,
00000010
00000100
00000010
00000000
00001000
00000000
00000001
00000000
,
00000100
00001000
00010000
00000100
,
00010000
00001000
01000000
00001000
00010000
00000010
00001000
00000000
;

//---------------dance-double - M.Emirzian----------------
#NOTES:
     dance-double:
     M.Emirzian:
     Hard:
     8:
     0.544,0.000,0.164,0.000,0.164,378.000,17.000,0.000,12.000,0.000,0.000:
00000000
00000000
00000000
00000000
,
00000000
00000000
00000000
00000000
,
00000000
00000000
00000000
00000000
,
00000000
00000000
00000000
00000000
00000000
00000000
00000000
MM000000
,
10000000
01000000
01000000
00100000
00010000
01000000
01000000
00001000
,
00010000
00000100
00001000
00001000
00000010
00000010
00001001
00000000
,
00000010
00000100
00000100
00001000
00000001
00000100
00000100
00000010
,
00010000
00001000
01000000
01000000
00010000
00010000
10010000
00000000
,
00100000
01000000
01000000
00001000
00010000
01000000
01000000
10000000
,
00100000
00010000
00001000
00001000
00010000
00010000
00010010
00000000
,
00001000
00000100
00000100
00000010
00000001
00000100
00000100
00000010
,
00001000
00000100
00010000
00010000
00001000
00001000
01001000
00000000
,
01000000
00000000
00000000
00010000
00000000
00000000
00100000
00000000
01000000
00000000
01000000
00000000
10000000
00000000
00000000
00000000
,
00010000
00000000
00000000
01000000
00000000
00000000
00100000
00000000
10000000
00000000
10000000
00000000
01000000
00000000
00000000
00000000
,
00100000
00000000
00000000
00010000
00000000
00000000
01000000
00000000
00001000
00000000
00001000
00000000
00010000
00000000
00000000
00000000
,
00000100
00000000
00000000
00001000
00000000
00000000
00000010
00000000
00000100
00000000
00000100
00000000
00000001
00000000
00000000
00000000
,
00001000
00000000
00000100
00000010
00000000
00000000
00000010
00000001
00000000
00000000
00000001
00000000
00000100
00000000
00000100
00000000
,
00001000
00000000
00010000
00001000
00000000
00000000
00001000
01000000
00000000
00000000
01000000
00000000
00100000
00000000
00100000
00000000
,
10000000
00000000
01000000
00100000
00000000
00000000
00100000
00001000
00000000
00000000
00001000
00000000
00010000
00000000
00010000
00000000
,
01000000
00000000
00010000
00001000
00000000
00000000
00001000
00000100
00000000
00000000
00000100
00000000
00000001
00000000
00000001
00000000
,
00000010
00000000
00000100
00001000
00000000
00000000
00001000
00000001
00000000
00000000
00000001
00000000
00000010
00000000
00000010
00000000
,
00001000
00000000
00010000
00001000
00000000
00000000
00001000
00000100
00000000
00000000
00000100
00000000
00001000
00000000
00001000
00000000
,
00010000
00000000
00001000
01000000
00000000
00000000
01000000
00100000
00000000
00000000
00100000
00000000
10000000
00000000
01000000
00000000
,
10010000
01100000
00101000
00010010
,
00001000
00000000
00000000
00001000
00000100
00000000
00000010
00000000
00000001
00000000
00001000
00000000
0000100M
00000000
00000000
00000000
,
00000010
00000000
00000000
00000010
00000100
00000000
00000001
00000000
00000010
00000000
00000100
00000000
000001M0
00000000
00000000
00000000
,
00010000
00000000
00000000
00010000
00001000
00000000
00000100
00000000
00001000
00000000
00010000
00000000
0001M000
00000000
00000000
00000000
,
01000000
00000000
00000000
01000000
10000000
00000000
00100000
00000000
01000000
00000000
00010000
00000000
0M010000
00000000
00000000
00000000
,
10000000
00000000
00000000
10000000
01000000
00000000
00010000
00000000
00001000
00000000
00010000
00000000
00010000
00000000
00100000
00000000
,
00010000
00000000
00000000
00010000
00001000
00000000
00000010
00000000
00000100
00000000
00001000
00000000
00001000
00000000
00000001
00000000
,
00000100
00000000
00000000
00000100
00000010
00000000
00001000
00000000
00000100
00000000
00000010
00000000
00000001
00000000
00000001
00000000
,
00001001
00000110
00010010
01001000
,
10000000
01000000
00100000
00100000
00001000
00010000
00010000
00010000
,
01000000
00010000
00001000
00000010
00000001
00000100
00000100
00000000
,
00000001
00000100
00000010
00000010
00010000
00001000
00001000
00001000
,
00000010
00001000
00010000
00100000
10000000
01000000
01000000
00000000
,
01000000
00100000
00001000
00001000
00010000
00100000
00100000
00100000
,
10000000
01000000
00010000
00001000
00000010
00000100
00000100
00000000
,
00001000
00000100
00000010
00000010
00000001
00001000
00001000
00001000
,
00000010
00010000
00100000
01000000
00001000
00010000
00010000
00000000
,
00010000
00000000
01000000
00000000
10000000
00000000
00000000
10000000
01000000
00000000
00100000
00000000
00010000
00000000
10000000
00000000
,
00100000
00000000
00010000
00000000
00001000
00000000
00000100
00000000
00001000
00000000
00010000
00001000
00010000
00000000
00000000
00000000
,
00000100
00000000
00010000
00000000
00000010
00000000
00000000
00000010
00001000
00000000
00000100
00000000
00000001
00000000
00000100
00000000
,
00001000
00000000
00000010
00000000
00000100
00000000
00001000
00000000
00010000
00000000
00000100
00001000
00000100
00000000
00000000
00000000
,
00010000
00000000
00001000
00000000
01000000
00000000
00000000
01000000
00100000
00000000
10000000
00000000
01000000
00000000
00100000
00000000
,
00001000
00000000
00010000
00000000
01000000
00000000
10000000
00000000
00100000
00000000
01000000
00010000
01000000
00000000
00000000
00000000
,
00100000
00000000
10000000
00000000
01000000
00000000
00000000
01000000
00100000
00000000
00001000
00000000
00010000
00000000
00000100
00000000
,
00011000
01010000
00001010
00001001
,
00000001
00000100
00000M01
00000000
00001000
00000010
000010M0
00000000
,
00000100
00010000
00001000
01000000
00010000
10000000
01000000
00000000
,
00100000
00001000
0010M000
00000000
00010000
01000000
0M010000
00000000
,
00100000
00001000
00010000
00000100
00001000
00000010
00000100
00000000
,
00000001
00000010
00000100
00001000
00000001
00000001
00000100
00000100
,
00000010
00001000
00000100
00010000
00001000
00001000
01000000
01000000
,
00010000
00100000
00001000
00010000
00100000
10000000
01000000
MM000000
,
10000000
01000000
10000000
00000000
00010000
00000000
00010000
00000000
00100000
00001000
00100000
00000000
00011000
00000000
00000000
00000000
;

//---------------dance-double - M.Emirzian----------------
#NOTES:
     dance-double:
     M.Emirzian:
     Challenge:
     10:
     0.765,0.000,0.203,0.000,0.815,534.000,21.000,0.000,10.000,0.000,0.000:
00000000
00000000
00000000
00000000
,
00000000
00000000
00000000
00000000
,
00000000
00000000
00000000
00000000
,
00000000
00000000
00000000
00000000
00000000
00000000
00000000
M00M0000
,
00010000
10000000
01000000
10000000
00010000
00000000
10000000
01000000
10000000
01000000
00100000
00010000
00100000
00001000
00010000
00000100
,
00010000
00001000
00010000
00000010
00001000
00000010
00010000
00001000
00100000
00010000
00100000
00001000
00010000
00000000
00000000
00000000
,
00000001
00001000
00000001
00000100
00000001
00000000
00000010
00000100
00001000
00000100
00010000
00001000
00010000
00000010
00001000
00000010
,
00010000
00001000
01000000
00010000
01000000
00001000
00010000
00000010
00001000
00000010
00010000
00001000
00100000
00000000
00000000
00000000
,
01000000
10000000
00010000
10000000
01000000
00000000
00100000
00010000
00100000
00001000
00010000
00001000
01000000
00001000
00010000
00000010
,
00001000
00000010
00010000
00001000
01000000
00010000
01000000
00001000
00010000
00000010
00001000
00000010
00000100
00000000
00000000
00000000
,
00000001
00000010
00000100
00001000
00000001
00000000
00000100
00000010
00000100
00000010
00010000
00001000
00010000
00000100
00010000
00001000
,
01000000
00010000
01000000
00001000
00010000
00000010
00001000
00000010
00010000
00001000
00100000
00010000
00100000
00000000
00000000
00000000
,
01001000
00000000
00000000
01010000
00000000
00000000
00100000
00000000
10000000
00000000
00100000
00000000
01000000
00000000
00001000
00000000
,
01010000
00000000
00000000
00110000
00000000
00000000
01000000
00000000
00010000
00000000
00001000
00000000
01000000
00000000
00001000
00000000
,
00011000
00000000
00000000
00010010
00000000
00000000
00001000
00000000
00000100
00000000
00000001
00000000
00000100
00000000
00001000
00000000
,
00001010
00000000
00000000
00000101
00000000
00000000
00000001
00000000
00000100
00000000
00000010
00000000
00001000
00000000
00000000
00000000
,
00000001
00000000
00000100
00000010
00000000
00000000
00000010
00001000
00000000
00000000
00001000
00000100
00010000
00000000
00001000
00000000
,
00010000
00000000
00001000
01000000
00000000
00000000
01000000
00100000
00000000
00000000
00100000
10000000
01000000
00000000
00100000
00000000
,
00010000
00000000
01000000
00100000
00000000
00000000
00100000
00010000
00000000
00000000
00010000
00001000
01000000
00000000
00001000
00000000
,
00010000
00000000
00000100
00001000
00000000
00000000
00001000
00000010
00000000
00000000
00000010
00000100
00000001
00000000
00000010
00000000
,
00000100
00000000
00010000
00001000
00000000
00000000
00001000
00000100
00000000
00000000
00000100
00001000
00010000
00000000
00000100
00000000
,
00010000
00000000
00100000
01000000
00000000
00000000
01000000
10000000
00000000
00000000
10000000
01000000
00010000
00000000
00100000
00000000
,
01000000
00000000
10000000
00100000
00000000
00000000
00100000
00010000
00000000
00000000
00010000
00001000
00010000
00000000
00000100
00000000
,
00011000
00000000
01010000
00000000
00001100
00000000
00000011
0000MM00
,
00000100
00001000
00000100
00000000
00000010
00000000
00000001
00001000
00000100
00001000
00000100
00000000
00000010
00000000
00000001
00000000
,
00000100
00000010
00001000
00000000
00000100
00000000
00010000
00001000
01000000
00001000
00010000
00000000
00001000
00000000
01000000
00000000
,
00010000
01000000
00010000
00000000
00100000
00000000
00001000
00010000
00000010
00010000
00001000
00000000
01000000
00000000
00010000
00000000
,
00100000
01000000
00100000
00000000
00010000
00000000
10000000
00100000
10000000
00010000
00100000
00000000
01000000
00000000
00100000
00000000
,
00010000
01000000
00010000
00000000
00100000
00000000
00001000
00010000
00000100
00010000
00001000
00000000
00010000
00000000
00000100
00000000
,
00001000
00000010
00001000
00000000
00000100
00000000
00010000
00001000
01000000
00001000
00010000
00000000
00000100
00000000
00001000
00000000
,
00000010
00000100
00000010
00000000
00001000
00000000
00000100
00000010
00000001
00001000
00000010
00000000
00000100
00000000
00000001
00000000
,
00001001
00000000
00001100
00000000
00110000
00000000
10010000
M00M0000
,
10000000
00010000
10000000
01000000
00100000
00000000
00010000
01000000
00001000
00010000
00001000
00100000
00010000
01000000
00001000
00010000
,
00000010
00001000
00000010
00010000
00001000
01000000
00010000
01000000
00001000
00010000
00000100
00001000
00000100
00000000
00000000
00000000
,
00000001
00001000
00000100
00001000
00000010
00000000
00000100
00000001
00001000
00000100
00010000
00001000
01000000
00010000
00100000
00010000
,
01000000
00001000
00010000
00000010
00001000
00000010
00000100
00000001
00001000
00000100
00010000
00001000
00010000
00000000
00000000
00000000
,
01000000
10000000
00010000
00100000
01000000
00000000
10000000
00100000
01000000
00001000
00010000
00001000
00100000
00010000
00100000
00001000
,
00010000
00000010
00001000
00000010
00010000
00001000
01000000
00010000
01000000
00001000
00010000
00000010
00001000
00000000
00000000
00000000
,
00000100
00000010
00000001
00001000
00000010
00000000
00000100
00000001
00001000
00000100
00010000
00001000
01000000
00010000
01000000
00001000
,
00010000
00001000
00100000
00010000
00100000
00001000
00010000
00000010
00001000
00000010
00010000
00001000
00010000
00000000
00000000
00000000
,
01000000
00100000
00010000
10000000
00100000
00010000
00100000
01000000
,
00001000
00000000
00000010
00000000
00001000
00000000
00100000
00000000
00001000
00000000
00010000
00000010
00000000
00000000
00000010
00000000
,
00001000
00000100
00000010
00000001
00000100
00001000
00000100
00000001
,
00001000
00000000
00000100
00000000
00010000
00000000
00100000
00000000
10000000
00000000
01000000
00100000
00000000
00000000
00100000
00000000
,
01000000
10000000
00100000
00010000
00000010
00001000
01000000
00100000
,
00000100
00000000
00010000
00000000
00001000
00000000
00000100
00000000
00001000
00000000
00010000
00000010
00000000
00000000
00000010
00000000
,
00001000
00000100
00000010
00000001
00010000
00001000
00000010
00000001
,
00001001
00000000
00001100
00000000
00110000
00000000
10010000
M00M0000
,
10000000
00010000
10000000
00000000
01000000
00000000
00010000
00000000
00001000
00000000
01000000
00000000
00010000
00000000
01000000
00000000
,
00001000
00010000
00001000
00000000
00010000
00000000
00000010
00000000
00001000
00000000
00000010
00000000
00000100
00000000
00000000
00000000
,
00000001
00000100
00000001
00000000
00000010
00000000
00000100
00000000
00001000
00000000
00000100
00000000
00010000
00000000
00001000
00000000
,
00100000
00010000
00100000
00000000
01000000
00000000
10000000
00000000
00100000
00000000
00010000
00000000
00001000
00000000
00000000
00000000
,
00010000
00001000
00010000
00000000
00000010
00000000
00001000
00000000
00000100
00001000
00000100
00000000
00000010
00000000
00000001
00000000
,
00001000
00000100
00001000
00000000
00000010
00000000
00010000
00000000
00001000
01000000
00001000
00000000
00010000
00000000
00000000
00000000
,
01000000
00100000
01000000
00000000
10000000
00000000
00100000
00000000
01000000
00010000
01000000
00000000
00011000
00000000
000MM000
00000000
,
00010000
00000010
00001000
00000010
00010000
00001000
01000000
00010000
01000000
00001000
00010000
00000100
00000010
00000000
00000000
00000000
;

//---------------dance-single - K. Ward----------------
#NOTES:
     dance-single:
     K. Ward:
     Beginner:
     1:
     0.087,0.000,0.077,0.000,0.000,55.000,8.000,0.000,0.000,0.000,0.000:

0000
0000
0000
0000
,
0000
0000
0000
0000
,
0000
0000
0000
0000
,
0000
0000
0000
0000
,
0010
0000
0000
0000
,
0010
0000
0000
0000
,
0100
0000
0000
0000
,
0100
0000
0000
0000
,
0010
0000
0000
0000
,
0001
0000
0000
0000
,
0100
0000
0000
0000
,
1000
0000
0000
0000
,
1001
0000
0000
0000
,
0000
0000
0000
0000
,
1001
0000
0000
0000
,
0000
0000
0000
0000
,
0010
0000
0010
0000
,
0010
0000
0000
0000
,
1000
0000
1000
0000
,
1000
0000
0000
0000
,
0001
0000
0000
0000
,
1000
0000
0000
0000
,
0001
0000
0000
0000
,
1000
0000
0000
0000
,
0110
0000
0000
0000
,
0000
0000
0000
0000
,
0110
0000
0000
0000
,
0000
0000
0000
0000
,
1000
0000
0000
0000
,
0001
0000
0000
0000
,
0010
0000
0000
0000
,
0001
0000
0000
0000
,
1000
0000
1000
0000
,
1000
0000
0000
0000
,
0001
0000
0001
0000
,
0001
0000
0000
0000
,
1000
0000
1000
0000
,
1000
0000
0000
0000
,
0010
0000
0010
0000
,
0010
0000
0000
0000
,
0100
0000
0000
0000
,
0001
0000
0000
0000
,
0010
0000
0000
0000
,
0001
0000
0000
0000
,
1000
0000
0000
0000
,
0001
0000
0000
0000
,
0010
0000
0000
0000
,
0100
0000
0000
0000
,
1000
0000
0000
0000
,
1000
0000
0000
0000
,
0001
0000
0000
0000
,
0001
0000
0000
0000
,
1001
0000
0000
0000
,
0110
0000
0000
0000
,
1001
0000
0000
0000
,
0010
0000
0000
1001
;
