#TITLE:Hispanic Panic;
#SUBTITLE:;
#ARTIST:Chucho Merchan;
#TITLETRANSLIT:;
#SUBTITLETRANSLIT:;
#ARTISTTRANSLIT:;
#GENRE:Latin;
#CREDIT:;
#BANNER:Hispanic Panic-banner.png;
#BACKGROUND:Hispanic Panic-bg.png;
#LYRICSPATH:;
#CDTITLE:;
#MUSIC:hispanic panic.ogg;
#OFFSET:0.012;
#SAMPLESTART:6.860;
#SAMPLELENGTH:11.860;
#SELECTABLE:YES;
#BPMS:0.000=139.920;
#STOPS:;
#BGCHANGES:0.000=Hispanic Panic-bg.png=1.000=0=0=1=====,
16.000=In The Groove 2/926_JumpBack.mpg=1.000=0=0=1=====,
32.000=In The Groove 2/919_JumpBack.mpg=1.000=1=0=1===CrossFade==,
44.000=In The Groove 2/614_JumpBack.mpg=1.000=0=0=1=SongBgWithMovieViz====,
48.000=In The Groove 2/968_JumpBack.mpg=1.000=0=0=1=SongBgWithMovieViz====,
52.000=In The Groove 2/814_JumpBack.mpg=1.000=0=0=1=SongBgWithMovieViz====,
56.000=-random-=1.000=0=0=1=SongBgWithMovieViz====,
60.000=In The Groove 2/911_JumpBack.mpg=1.000=0=0=1=====,
76.000=In The Groove 2/761_JumpBack.mpg=1.000=0=0=1===FadeLeft==,
92.000=In The Groove 2/804_JumpBack.mpg=1.000=0=0=1===FadeDown==,
100.000=In The Groove 2/604_JumpBack.mpg=1.000=0=0=1===FadeUp==,
108.000=In The Groove 2/804_JumpBack.mpg=1.000=0=0=1===FadeDown==,
116.000=In The Groove 2/462_JumpBack.mpg=1.000=0=0=1===FadeUp==,
120.500=Hispanic Panic-bg.png=1.000=0=0=1====1^0^0^1=,
121.000=Hispanic Panic-bg.png=1.000=0=0=1====0^1^0^1=,
121.500=Hispanic Panic-bg.png=1.000=0=0=1====1^0^1^1=,
122.000=Hispanic Panic-bg.png=1.000=0=0=1====1^1^0^1=,
122.500=Hispanic Panic-bg.png=1.000=0=0=1====0^1^1^1=,
123.000=Hispanic Panic-bg.png=1.000=0=0=1=====,
124.000=In The Groove 2/920_JumpBack.mpg=1.000=0=0=1===FadeLeft==,
140.000=In The Groove 2/947_JumpBack.mpg=1.000=0=0=1===FadeRight==,
156.000=In The Groove 2/750_JumpBack.mpg=1.000=0=0=1===FadeUp==,
168.500=Hispanic Panic-bg.png=1.000=0=0=1====1^0^0^1=,
169.000=Hispanic Panic-bg.png=1.000=0=0=1====0^1^0^1=,
169.500=Hispanic Panic-bg.png=1.000=0=0=1====0^0^1^1=,
169.750=Hispanic Panic-bg.png=1.000=0=0=1====1^1^0^1=,
170.250=Hispanic Panic-bg.png=1.000=0=0=1====0^1^1^1=,
170.500=Hispanic Panic-bg.png=1.000=0=0=1====1^0^1^1=,
171.000=Hispanic Panic-bg.png=1.000=0=0=1=====,
172.000=In The Groove 2/862_JumpBack.mpg=1.000=0=0=1=====,
188.000=In The Groove 2/968_JumpBack.mpg=1.000=0=0=1===FadeLeft==,
204.000=In The Groove 2/453_JumpBack.mpg=1.000=0=0=1===FadeRight==,
220.000=In The Groove 2/464_JumpBack.mpg=1.000=0=0=1===FadeLeft==,
236.000=Hispanic Panic-bg.png=1.000=0=0=1====1^0^0^1=,
236.250=Hispanic Panic-bg.png=1.000=0=0=1====0^1^0^1=,
236.750=Hispanic Panic-bg.png=1.000=0=0=1====0^0^1^1=,
237.500=Hispanic Panic-bg.png=1.000=0=0=1====1^1^0^1=,
237.750=Hispanic Panic-bg.png=1.000=0=0=1====0^1^1^1=,
238.250=Hispanic Panic-bg.png=1.000=0=0=1====1^0^1^1=,
238.750=Hispanic Panic-bg.png=1.000=0=0=1====1^0^0^1=,
239.000=Hispanic Panic-bg.png=1.000=0=0=1=====,
239.500=Hispanic Panic-bg.png=1.000=0=0=1=====,
99999=-nosongbg-=1.000=0=0=0 // don't automatically add -songbackground-
;
#BGCHANGES2:16.000=white flash=1.000=0=0=1=====,
44.000=yellow flash=1.000=0=0=1=====,
48.000=yellow flash=1.000=0=0=1=====,
52.000=yellow flash=1.000=0=0=1=====,
56.000=yellow flash=1.000=0=0=1=====,
60.000=white flash=1.000=0=0=1=====,
172.000=white flash=1.000=0=0=1=====,
239.500=white flash=1.000=0=0=1=====,
;
#KEYSOUNDS:;
// cache tags:
#FIRSTBEAT:12.500;
#LASTBEAT:243.500;
#SONGFILENAME:/Songs/In The Groove 2/Hispanic Panic/Hispanic Panic.sm;
#HASMUSIC:1;
#HASBANNER:1;
#MUSICLENGTH:107.094;
// end cache tags

//---------------dance-single - C. Foy-K. Ward----------------
#NOTES:
     dance-single:
     C. Foy-K. Ward:
     Easy:
     4:
     0.244,0.000,0.215,0.121,0.000,147.000,23.000,13.000,0.000,0.000,0.000:
0000
0000
0000
0000
,
0000
0000
0000
0000
,
0000
0000
0000
0000
,
0000
0000
0000
0000
,
1000
0001
0100
0000
,
0001
1000
0100
0000
,
0010
0001
0100
0000
,
0010
0100
0001
0000
,
1000
1000
0100
0000
,
0010
0010
0100
0000
,
1000
0001
0100
0000
,
1001
0000
0000
0000
,
0110
0000
0000
0000
,
1001
0000
0000
0000
,
0110
0000
0000
0000
,
1000
0100
1000
0100
,
1000
0020
0130
0000
,
0001
0010
0001
0010
,
0001
0200
0310
0000
,
1000
0001
1000
0001
,
1000
0020
0130
0000
,
0010
1000
0010
1000
,
0010
0200
0310
0000
,
1001
0000
0000
0000
,
0220
0000
0330
0000
,
1001
0000
0000
0000
,
0220
0000
0330
0000
,
1001
0000
0000
0000
,
2200
0000
3300
0000
,
1001
0000
0000
0000
,
1000
0001
1000
0000
,
1001
1000
0000
0000
,
1001
0001
0000
0000
,
0110
0010
0000
0000
,
0000
1000
1000
1000
,
0010
0110
0000
0000
,
0001
1001
0000
0000
,
1000
1001
0000
0000
,
0010
0100
0001
0001
,
1000
1100
0000
0000
,
0010
0011
0000
0000
,
0100
0110
0000
0000
,
0001
1000
0001
1000
,
0000
0000
0100
0100
,
0010
0000
0010
0010
,
0001
0000
0001
0001
,
1000
1000
1000
0000
,
0001
1000
0100
0100
,
0010
0001
0100
0100
,
0010
1000
0100
0100
,
0000
1000
0000
0001
0000
1000
0000
0000
,
0001
0001
0100
0100
,
0010
0000
0100
0100
,
0001
1000
0100
0100
,
0020
0000
0130
0000
,
1000
0010
0100
0100
,
0001
0001
0100
0000
,
0010
0010
0100
0100
,
0001
0000
0010
0000
,
1001
0000
0000
1001
0000
0000
0000
2002
,
0000
0000
0000
0000
0000
0000
0000
3003
;

//---------------dance-single - C. Foy----------------
#NOTES:
     dance-single:
     C. Foy:
     Hard:
     8:
     0.448,0.000,0.374,0.121,0.448,283.000,40.000,13.000,0.000,0.000,0.000:
0000
0000
0000
0000
,
0000
0000
0000
0000
,
0000
0000
0000
0000
,
0000
0000
0000
0000
,
0001
1000
0000
1001
0000
0000
0000
0000
0100
0000
0000
0000
0100
0000
1000
0000
,
0001
1000
0000
1001
0000
0000
0000
0000
0100
0000
0000
0000
0100
0000
0000
0000
,
0010
0001
0000
0011
0000
0000
0000
0000
0100
0000
0000
0000
0100
0000
0000
0000
,
0000
0000
0100
0000
0001
0000
0010
0100
0000
1000
0000
0100
0000
0010
0001
0000
,
1000
0001
0000
1001
0000
0000
0000
0000
0100
0000
0000
0000
0100
0000
0010
0000
,
0100
0010
0000
0110
0000
0000
0000
0000
0100
0000
0000
0000
0100
0000
0000
0000
,
0001
0010
0000
0011
0000
0000
0000
0000
0100
0000
0000
0000
0100
0000
0000
0000
,
0010
0100
0000
0110
0000
0000
0000
0000
0000
0000
0000
0000
0000
0000
0000
0000
,
1000
0010
0000
1010
0000
0000
0000
0000
0000
0000
0000
0000
0000
0000
0000
0000
,
0100
0001
0000
0101
0000
0000
0000
0000
0000
0000
0000
0000
0000
0000
0000
0000
,
0001
1000
0000
1001
0000
0000
0000
0000
0000
0000
0000
0000
0000
0000
0000
0000
,
0001
0100
0010
0001
0010
0100
0001
0010
,
0100
0020
0000
0100
0130
0000
0000
0000
,
1000
0010
0100
1000
0100
0010
1000
0010
,
1000
0200
0000
0010
0310
0000
0000
0000
,
0001
0010
0100
1000
0010
0100
0001
0100
,
0001
0020
0000
0100
0130
0000
0000
0000
,
0100
1000
0010
0100
0001
0010
0100
1000
,
0010
0200
0000
0010
0310
0000
0000
0000
,
1001
0000
1000
0000
0001
1000
0000
0000
,
0220
0000
0000
0330
,
1100
0000
1000
0000
0001
0100
0000
0000
,
0202
0000
0000
0303
,
1010
0000
1000
0000
0010
1000
0000
0000
,
0022
0000
0000
0033
,
1001
0000
1000
0000
0001
1000
0000
0000
,
0000
1000
0010
1000
0100
0010
0001
0000
,
0100
0001
0000
0101
0000
0000
0000
0000
0000
0000
0000
0000
0000
0000
1000
0000
,
0001
0100
0000
0101
0000
0000
0000
0000
0000
0000
0000
0000
0000
0000
0000
0000
,
0010
0100
0000
1010
0000
0000
0000
0000
0000
0000
0000
0000
0000
0000
0000
0000
,
0000
0000
0001
0000
1000
0000
0100
0010
0000
0001
0000
0010
0000
0100
1000
0000
,
0001
1000
0000
1001
0000
0000
0000
0000
0000
0000
0000
0000
0000
0000
0001
0000
,
0100
0001
0000
0101
0000
0000
0000
0000
0000
0000
0000
0000
0000
0000
0000
0000
,
1000
0100
0000
1100
0000
0000
0000
0000
0000
0000
0000
0000
0000
0000
0000
0000
,
0000
0000
1000
0000
0010
0000
0100
0001
0000
1000
0000
0010
0000
1000
0100
0000
,
1000
0100
0000
1100
0000
0000
0000
0000
0000
0000
0000
0000
0000
0000
0010
0000
,
0001
0010
0000
0011
0000
0000
0000
0000
0000
0000
0000
0000
0000
0000
0000
0000
,
0001
0100
0000
0110
0000
0000
0000
0000
0000
0000
0000
0000
0000
0000
0000
0000
,
0000
0000
0001
0000
0100
0000
0010
0100
0000
0001
0000
1000
0000
0100
1000
0000
,
0010
0100
0000
0110
0000
0000
0000
0000
0100
0000
0000
0000
0100
0000
0001
0000
,
1000
0001
0000
1001
0000
0000
0000
0000
0100
0000
0000
0000
0100
0000
0000
0000
,
0010
1000
0000
1010
0000
0000
0000
0000
0100
0000
0000
0000
0100
0000
0000
0000
,
0000
0000
0010
0000
0100
0000
0010
0001
0000
1000
0000
0010
0000
0100
0010
0000
,
1000
0100
0000
1100
0000
0000
0000
0000
0100
0000
0000
0000
0100
0000
0010
0000
,
0001
0010
0000
0011
0000
0000
0000
0000
0100
0000
0000
0000
0100
0000
0000
0000
,
1000
0010
0000
0000
1010
0000
0000
0000
0100
0000
0000
0000
0100
0000
0000
0000
,
0000
0000
0001
0000
0010
0000
0100
0010
0000
0001
0000
0010
0000
0100
0010
0000
,
0100
1000
0000
1010
0000
0000
0000
0000
0100
0000
0000
0000
0100
0000
1000
0000
,
0010
1000
0000
1010
0000
0000
0000
0000
0100
0000
0000
0000
0100
0000
0000
0000
,
1000
0001
0000
0000
1001
0000
0000
0000
0100
0000
0000
0000
0100
0000
0000
0000
,
0201
0000
0000
0301
0000
0000
1000
0000
0001
0000
0000
0100
0000
0001
1000
0000
,
0010
0100
0000
0110
0000
0000
0000
0000
0100
0000
0000
0000
0100
0000
0001
0000
,
1000
0001
0000
1001
0000
0000
0000
0000
0100
0000
0000
0000
0100
0000
0000
0000
,
0010
1000
0000
1010
0000
0000
0000
0000
0100
0000
0000
0000
0100
0000
0000
0000
,
0000
0000
1000
0000
0001
0000
0010
0100
0000
1000
0000
0100
0000
0010
0001
0000
,
1000
0001
0000
1000
0000
0000
0010
0100
0000
0010
0000
1000
0001
0000
2002
0000
,
0000
0000
0000
0000
0000
0000
0000
3003
;

//---------------dance-single - C. Foy----------------
#NOTES:
     dance-single:
     C. Foy:
     Medium:
     6:
     0.324,0.000,0.317,0.121,0.084,196.000,34.000,13.000,0.000,0.000,0.000:
0000
0000
0000
0000
,
0000
0000
0000
0000
,
0000
0000
0000
0000
,
0000
0000
0000
0000
,
0001
1000
0000
0000
0010
0000
0000
0000
0100
0000
0000
0000
0100
0000
0000
0000
,
0010
1000
0100
0100
,
1000
0001
0000
0000
0010
0000
0000
0000
0100
0000
0000
0000
0100
0000
0000
0000
,
0000
1000
0000
0010
0000
0100
0000
0001
,
1000
0001
0000
0000
1000
0000
0000
0000
0100
0000
0000
0000
0100
0000
0000
0000
,
0010
0010
0100
0100
,
1000
0001
0000
0000
1000
0000
0000
0000
0100
0000
0000
0000
0100
0000
0000
0000
,
1000
0001
1001
0000
0000
0000
0000
0000
,
0010
0100
0110
0000
0000
0000
0000
0000
,
1000
0001
1001
0000
0000
0000
0000
0000
,
1000
0100
1100
0000
0000
0000
0000
0000
,
1000
0010
0100
0001
,
1000
0020
0000
0100
0030
0000
0000
0000
,
0001
0010
0100
1000
,
0010
0200
0000
0010
0300
0000
0000
0000
,
1000
0010
0100
0001
,
0100
0020
0000
0100
0030
0000
0000
0000
,
0001
0010
0100
0010
,
0001
0200
0000
0010
0300
0000
0000
0000
,
1001
0000
0000
0000
,
0220
0000
0000
0330
,
1100
0000
0000
0000
,
0202
0000
0000
0303
,
1010
0000
0000
0000
,
0022
0000
0000
0033
,
1001
0000
0000
0000
,
0000
1000
0100
1000
0100
1000
0100
0000
,
1000
0001
0000
0000
1001
0000
0000
0000
0000
0000
0000
0000
0000
0000
0000
0000
,
1001
0100
0000
0000
,
0010
0100
0000
0000
0010
0000
0000
0000
0000
0000
0000
0000
0000
0000
0000
0000
,
0000
1000
0000
0001
0000
0100
0000
0010
,
0100
0010
0000
0000
0110
0000
0000
0000
0000
0000
0000
0000
0000
0000
0000
0000
,
0001
0101
0000
0000
,
1000
0100
0000
0000
1100
0000
0000
0000
0000
0000
0000
0000
0000
0000
0000
0000
,
0000
0010
0000
0001
0000
1000
0000
0100
,
1000
0100
0000
0000
1100
0000
0000
0000
0000
0000
0000
0000
0000
0000
0000
0000
,
0010
0011
0000
0000
,
0001
0100
0000
0000
0110
0000
0000
0000
0000
0000
0000
0000
0000
0000
0000
0000
,
0000
1000
0000
0010
0000
0100
0000
0001
,
1000
0001
0000
0000
1001
0000
0000
0000
0100
0000
0000
0000
0100
0000
0000
0000
,
0001
1001
0100
0100
,
0010
0001
0000
0000
0011
0000
0000
0000
0100
0000
0000
0000
0100
0000
0000
0000
,
0000
0001
0000
0100
0000
0010
0000
1000
,
0100
1000
0000
0000
1100
0000
0000
0000
0100
0000
0000
0000
0100
0000
0000
0000
,
0010
0011
0100
0100
,
0010
1000
0000
0000
1010
0000
0000
0000
0100
0000
0000
0000
0100
0000
0000
0000
,
0000
0001
0000
1000
0000
0100
0000
1000
,
0001
1000
0000
0000
1001
0000
0000
0000
0100
0000
0000
0000
0100
0000
0000
0000
,
0010
1010
0100
0100
,
0001
1000
0000
0000
1001
0000
0000
0000
0100
0000
0000
0000
0100
0000
0000
0000
,
2000
3010
1000
0001
,
0010
0100
0000
0000
0110
0000
0000
0000
0100
0000
0000
0000
0100
0000
0000
0000
,
1000
1001
0100
0100
,
0010
1000
0000
0000
1010
0000
0000
0000
0100
0000
0000
0000
0100
0000
0000
0000
,
0000
0010
0000
0001
0000
0100
0000
0010
,
1001
0000
0000
0110
0000
0000
0000
2002
,
0000
0000
0000
0000
0000
0000
0000
3003
;

//---------------dance-single - C. Foy----------------
#NOTES:
     dance-single:
     C. Foy:
     Challenge:
     10:
     0.684,0.000,0.812,0.149,0.607,410.000,87.000,16.000,6.000,0.000,0.000:
0000
0000
0000
0000
,
0000
0000
0000
0000
,
0000
0000
0000
0000
,
0000
0000
1000
0000
0001
0000
0010
0100
0000
1000
0000
0100
0000
0010
0001
0000
,
1000
0001
0000
1001
0000
0000
0000
0000
0120
0000
0000
0000
0130
0000
0001
0000
,
0100
0010
0000
1001
0000
0000
0000
0000
0102
0000
0000
0000
1003
0000
0000
0000
,
0001
0100
0000
1010
0000
0000
0000
0000
1002
0000
0000
0000
1003
0000
0000
0000
,
0000
0000
0100
0000
0010
0000
0010
0100
0000
1000
0000
0010
0000
0010
0100
0000
,
0001
0100
0000
1010
0000
0000
0000
0000
0102
0000
0000
0000
1003
0000
0010
0000
,
0100
0010
0000
0110
0000
0000
0000
0000
0102
0000
0000
0000
0103
0000
0000
0000
,
0001
0010
0000
0101
0000
0000
0000
0000
2010
0000
0000
0000
3001
0000
0000
0000
,
0010
0100
0000
0110
0000
0000
M01M
0000
0000
0000
0000
0000
0000
0000
0000
0000
,
1000
0010
0000
1010
0000
0000
0000
0000
1M0M
0000
0000
0000
0000
0000
0000
0000
,
0100
0001
0000
0101
0000
0000
M1M0
0000
0000
0000
0000
0000
0000
0000
0000
0000
,
0001
1000
0000
1001
0000
0000
0001
0000
0001
0000
1000
0000
0100
0000
0010
0000
,
0001
0000
0001
1000
0001
0000
0001
0010
0001
0000
0001
0100
0001
0000
0001
1000
,
0001
0000
0020
0000
0000
0000
1000
0000
0130
0000
0010
1000
0100
0010
0001
0000
,
1000
0000
1000
0001
1000
0000
1000
0010
1000
0000
1000
0100
1000
0000
1000
0001
,
1000
0000
0020
0000
0000
0000
1000
0000
0130
0000
0010
1000
0100
0010
0001
0000
,
1000
0000
0100
1000
0100
0000
0100
0010
0100
0000
0100
1000
0100
0000
0100
0010
,
0100
0000
0020
0000
0000
0000
0100
0000
0031
0000
1000
0010
1000
0100
0010
0000
,
0010
0000
0100
1000
0100
0000
0100
0010
0100
0000
0100
1000
0100
0000
0100
0010
,
0100
0000
0020
0000
0000
0000
0001
0000
0130
0000
1000
0001
0010
0001
0100
0000
,
1001
0001
1000
0000
0001
1000
0000
0000
,
0120
0000
1000
0100
0100
0100
0030
0000
,
1100
0000
0001
0100
1000
0100
0000
0000
,
0201
0000
0010
0001
0001
0001
0300
0000
,
1010
0000
1000
0100
0001
0100
0000
0000
,
0021
0000
0100
0001
0001
0031
0000
0000
,
1001
0000
0100
0001
0010
0010
0000
0000
,
0000
1000
0100
0001
0100
0010
0001
0000
,
0100
0001
0000
0101
0000
0000
0010
0001
0100
0000
0010
1000
0100
0000
1000
0000
,
0001
0100
0000
0101
0000
0000
0010
1000
0100
0000
0010
0001
0100
0000
0000
0000
,
0010
0100
0000
1010
0000
0000
0010
1000
0100
0000
0100
1000
0010
0000
0000
0000
,
0000
0000
1000
0000
0010
0000
1000
0100
0000
0100
0000
0010
0000
0010
0001
0000
,
0100
0010
0000
1100
0000
0000
1100
0000
0101
0000
0000
0000
1001
0000
0001
0000
,
0100
0001
0000
0101
0000
0000
0011
0000
1010
0000
0000
0000
1001
0000
0000
0000
,
1000
0100
0000
0011
0000
0000
1100
0000
0011
0000
0000
0000
1100
0000
0000
0000
,
0000
0000
1000
0000
0010
0000
0100
0001
0000
0001
0000
0010
0000
0010
0100
0000
,
0010
0001
0000
1100
0000
0000
0101
0000
1100
0000
0000
0000
1001
0000
0010
0000
,
0001
0010
0000
1100
0000
0000
1001
0000
0011
0000
0000
0000
1100
0000
0000
0000
,
0001
0100
0000
1010
0000
0000
0101
0000
1100
0000
0000
0000
0011
0000
0000
0000
,
0000
0000
0001
0000
0100
0000
0100
0010
0000
1000
0000
1000
0000
0100
0010
0000
,
0010
0001
0000
1100
0000
0000
1001
0000
0100
0000
1001
0000
0100
0000
0001
0000
,
1000
0001
0000
1001
0000
0000
1100
0000
0100
0000
0101
0000
0100
0000
0000
0000
,
0010
1000
0000
1010
0000
0000
1010
0000
0100
0000
0011
0000
0100
0000
1001
0000
,
0000
0000
0010
0000
1000
0000
0100
0010
0000
0010
0000
0001
0000
0001
0100
0000
,
0010
1000
0000
0101
0000
0000
1001
0000
0100
0000
0110
0000
0100
0000
0010
0000
,
1000
0100
0000
0011
0000
0000
0011
0000
0100
0000
1010
0000
0100
0000
1001
0000
,
1000
0010
0000
0000
1010
0000
1100
0000
0100
0000
0101
0000
0100
0000
1100
0000
,
0000
0000
0010
0000
1000
0000
0100
0010
0000
0010
0000
0001
0000
0001
0100
0000
,
0100
0001
0000
1010
0000
0000
0110
0000
0100
0000
1001
0000
0100
0000
1000
0000
,
0010
1000
0000
1010
0000
0000
1100
0000
0100
0000
0011
0000
0100
0000
1100
0000
,
1000
0001
0000
0000
1001
0000
1100
0000
0100
0000
0011
0000
0100
0000
1001
0000
,
0201
0000
0000
0301
0000
0000
1000
0000
0010
0000
0000
0100
0000
0001
0010
0000
,
0010
0100
0000
1010
0000
0000
0000
0000
0100
0000
0000
0000
0100
0000
0010
0000
,
0100
0001
0000
1100
0000
0000
0000
0000
0100
0000
0000
0000
0100
0000
0000
0000
,
0010
1000
0000
0101
0000
0000
0000
0000
0100
0000
0000
0000
0100
0000
0000
0000
,
0000
0000
1000
0000
0010
0000
0010
1000
0000
1000
0000
0100
0000
0100
0010
0000
,
0010
0100
0000
1000
0000
0000
1000
0001
0000
0001
0000
1000
0100
0000
2002
0000
,
0000
0000
0000
0000
0000
0000
0000
3003
;

//---------------dance-double - M.Emirzian----------------
#NOTES:
     dance-double:
     M.Emirzian:
     Easy:
     2:
     0.100,0.000,0.065,0.000,0.000,68.000,7.000,0.000,0.000,0.000,0.000:
00000000
00000000
00000000
00000000
,
00000000
00000000
00000000
00000000
,
00000000
00000000
00000000
00000000
,
00000000
00000000
00000000
00000000
,
00010000
00010000
00000000
00000000
,
00000100
00000100
00000000
00000000
,
00000001
00000001
00000000
00000000
,
00001000
00000000
00000000
00000000
,
00010000
00010000
00000000
00000000
,
10000000
10000000
00000000
00000000
,
00100000
00100000
00000000
00000000
,
01001000
00000000
00000000
00000000
,
10010000
00000000
00000000
00000000
,
00001000
00000000
00000000
00000000
,
00001100
00000000
00000000
00000000
,
00000001
00000000
00000000
00000000
,
00010000
00000000
00000000
00000000
,
00001000
00000000
00000000
00000000
,
10000000
00000000
00000000
00000000
,
00010000
00000000
00000000
00000000
,
00001000
00000000
00000000
00000000
,
00000001
00000000
00000000
00000000
,
00001000
00000000
00000000
00000000
,
00001100
00000000
00000000
00000000
,
00000000
00000000
00000000
00000000
,
01100000
00000000
00000000
00000000
,
00000000
00000000
00000000
00000000
,
00011000
00000000
00000000
00000000
,
00000000
00000000
00000000
00000000
,
00000101
00000000
00000000
00000000
,
00000000
00000000
00000000
00000000
,
00001000
00000000
00000000
00000000
,
00000000
00000000
00000000
00000000
,
00010000
00000000
00000000
00000000
,
00000000
00000000
00000000
00000000
,
10000000
00000000
00000000
00000000
,
00000000
00000000
00000000
00000000
,
00001000
00000000
00000000
00000000
,
00000000
00000000
00000000
00000000
,
00000010
00000000
00000000
00000000
,
00000000
00000000
00000000
00000000
,
00010000
00000000
00000000
00000000
,
00000000
00000000
00000000
00000000
,
01000000
01000000
00000000
00000000
,
10000000
10000000
00000000
00000000
,
00001000
00001000
00000000
00000000
,
00000100
00000100
00000000
00000000
,
00000001
00000001
00000000
00000000
,
00001000
00001000
00000000
00000000
,
00010000
00010000
00000000
00000000
,
01000000
00000000
00000000
00000000
,
10000000
10000000
00000000
00000000
,
00100000
00100000
00000000
00000000
,
00001000
00001000
00000000
00000000
,
00000100
00000100
00000000
00000000
,
00000001
00000001
00000000
00000000
,
00001000
00001000
00000000
00000000
,
00100000
00100000
00000000
00000000
,
00010000
00000000
00000000
00000000
,
10000000
00000000
00000000
00010000
00000000
00000000
00000000
00001000
;

//---------------dance-double - M.Emirzian----------------
#NOTES:
     dance-double:
     M.Emirzian:
     Medium:
     5:
     0.311,0.000,0.215,0.028,0.000,207.000,23.000,3.000,0.000,0.000,0.000:
00000000
00000000
00000000
00000000
,
00000000
00000000
00000000
00000000
,
00000000
00000000
00000000
00000000
,
00000000
00000000
00000000
00000000
,
00100000
00001000
00010000
00000000
00000000
00000000
00000100
00000000
,
01000000
00001000
00010000
00000000
00000000
00000000
01000000
00000000
,
10000000
01000000
00010000
00000000
00000000
00000000
00001000
00000000
,
00000000
00010000
00000100
00000000
00000010
00000000
00000001
00000000
,
00000100
00000010
00001000
00000000
00000000
00000000
00000100
00000000
,
00010000
00001000
01000000
00000000
00000000
00000000
00000100
00000000
,
00010000
00001000
00100000
00000000
01000000
00000000
10000000
00000000
,
01010000
10010000
00000000
00000000
,
00101000
00011000
00000000
00000000
,
00000011
00001100
00000000
00000000
,
00011000
00000000
01001000
00000000
00010000
01000000
00100000
10000000
,
01000000
00000000
10000000
01000000
00010000
00000000
00001000
00010000
,
00000100
00000000
00001000
00000010
,
00000100
00000000
00000001
00000010
00001000
00000000
00010000
00000100
,
00001000
00000000
00000010
00000100
,
00001000
00000000
00010000
00001000
01000000
00000000
00010000
01000000
,
10000000
00000000
01000000
00010000
,
00100000
00000000
10000000
00100000
00010000
00000000
01000000
00001000
,
00010000
00000000
00000100
00001000
,
00000010
00000000
00000101
00000000
00000010
00000100
00001000
00000000
,
00020100
00000000
00001000
00030000
,
00001000
00000000
01001000
00000000
00010000
01000000
00100000
00000000
,
20100000
00000000
00010000
30000000
,
00100000
00000000
00101000
00000000
00001000
00010000
00000100
00000000
,
00001020
00000000
00010000
00000030
,
00000100
00000000
00000011
00000000
00000100
00001000
00000010
00000000
,
00000000
00000101
00000000
00000000
00001010
00000000
00011000
00000000
,
00010000
00010000
00000000
00000000
,
00001000
00001000
00000000
00000000
,
01000000
01000000
00000000
00000000
,
00100000
10000000
01000000
00010000
,
00001000
00010000
00000000
00000000
,
00000100
00000100
00000000
00000000
,
00000010
00000010
00000000
00000000
,
00000001
00000100
00001000
00010000
,
00000100
00010000
00000000
00000000
,
00001000
00001000
00000000
00000000
,
00010000
00010000
00000000
00000000
,
00000000
01000000
10000000
00000000
00100000
00000000
01000000
00000000
,
00010000
10000000
01000000
00000000
00000000
00000000
00100000
00000000
,
00010000
01000000
00001000
00000000
00000000
00000000
00010000
00000000
,
00000100
00000010
00000001
00000000
00000000
00000000
00000100
00000000
,
00000000
00000010
00001000
00000000
00000100
00000000
00010000
00000000
,
00001000
00000100
00001000
00000000
00000000
00000000
00010000
00000000
,
01000000
00010000
01000000
00000000
00000000
00000000
10000000
00000000
,
00100000
01000000
00001000
00000000
00000000
00000000
00010000
00000000
,
00000000
00100000
10000000
00000000
01000000
00000000
00100000
00000000
,
00010000
01000000
00001000
00000000
00000000
00000000
00010000
00000000
,
00001000
00000100
00000001
00000000
00000000
00000000
00000010
00000000
,
00000100
00001000
00000001
00000000
00000000
00000000
00000100
00000000
,
00001010
00010010
00011000
01001000
,
00010000
01000000
00100000
00000000
00000000
00000000
10000000
00000000
,
01000000
00100000
00010000
00000000
00000000
00000000
01000000
00000000
,
00001000
00010000
00000100
00000000
00000000
00000000
00001000
00000000
,
00000000
00000001
00000010
00000000
00000100
00000000
00001000
00000000
,
00000001
00000100
00000010
00010000
00001000
00000000
01000000
00110000
;

//---------------dance-double - M.Emirzian----------------
#NOTES:
     dance-double:
     M.Emirzian:
     Hard:
     8:
     0.499,0.000,0.374,0.056,0.448,328.000,40.000,6.000,9.000,3.000,0.000:
00000000
00000000
00000000
00000000
,
00000000
00000000
00000000
00000000
,
00000000
00000000
00000000
00000000
,
00000000
00000000
00000000
00000000
,
00000100
00000010
00000000
00000100
00000000
00000000
00010000
00000000
00001000
00000000
00000000
00000000
01001000
00000000
00000000
00000000
,
00100000
01000000
00000000
00100000
00000000
00000000
10000000
00000000
01000000
00000000
00000000
00000000
00101000
00000000
00000000
00000000
,
00010000
01000000
00000000
00001000
00000000
00000000
00010000
00000000
00000100
00000000
00000000
00000000
00010010
00000000
00000000
00000000
,
00000000
00000000
00001000
00000000
00000100
00000000
00000010
00000001
00000000
00000010
00000000
00000100
00000000
00001000
00000001
00000000
,
00000100
00000010
00000000
00010000
00000000
00000000
00001000
00000000
01000000
00000000
00000000
00000000
00110000
00000000
00000000
00000000
,
01000000
00100000
00000000
01000000
00000000
00000000
10000000
00000000
00100000
00000000
00000000
00000000
01001000
00000000
00000000
00000000
,
00010000
00000100
00000000
00001000
00000000
00000000
00000001
00000000
00000010
00000000
00000000
00000000
00001100
00000000
00000000
00000000
,
00010010
00000000
00000000
00011000
00000000
00000000
00000000
00000000
01000000
00000000
00000000
00000000
00010000
00000000
00000000
00000000
,
00110000
00000000
00000000
10010000
00000000
00000000
00000000
00000000
01000000
00000000
00000000
00000000
00100000
00000000
00000000
00000000
,
00101000
00000000
00000000
00011000
00000000
00000000
00000000
00000000
00010000
00000000
00000000
00000000
00000100
00000000
00000000
00000000
,
00010010
00000000
00000000
00001010
00000000
00000000
00000001
00000000
00000010
00000000
00001000
00000000
00010000
00000000
00001000
00000000
,
00000100
00000000
00000000
00000100
00000001
00000000
00000010
00000000
00000100
00000000
00010000
00000000
00001000
00000000
01000000
00000000
,
00100000
00000000
00000000
00100000
10000000
00000000
01000000
00000000
00100000
00000000
00010000
00000000
00100000
00000000
00000000
00000000
,
01000000
00000000
00000000
01000000
10000000
00000000
00100000
00000000
00010000
00000000
00001000
00000000
00010000
00000000
01000000
00000000
,
10000000
00000000
00000000
10000000
01000000
00000000
00100000
00000000
00001000
00000000
00010000
00000000
00000100
00000000
00000000
00000000
,
00000010
00000000
00000000
00000010
00000001
00000000
00001000
00000000
00000010
00000000
00000001
00000000
00001000
00000000
00000100
00000000
,
00000001
00000000
00000010
00001000
00010000
00001000
00000100
00000000
,
00001000
00000000
00000000
00001000
00010000
00000000
01000000
00000000
10000000
00000000
00100000
00000000
01000000
00000000
00010000
00000000
,
00100000
00000000
01000000
00100000
00001000
00010000
00000100
00000000
,
00000010
00000000
00000001
00001000
00000001
00000000
00001000
00000100
00000000
00000000
00010100
00000000
00000000
00000000
00000000
00000000
,
02002000
00000000
00000000
00000000
00000000
00000000
00000000
00000000
00110000
03003000
00000000
00000000
00000000
00000000
0M00M000
00000000
,
00100000
00000000
10000000
00010000
10000000
00000000
01000000
00100000
00000000
00000000
00101000
00000000
00000000
00000000
00000000
00000000
,
00020200
00000000
00000000
00000000
00000000
00000000
00000000
00000000
00001010
00030300
00000000
00000000
00000000
00000000
000M0M00
00000000
,
00000100
00000000
00010000
00000100
00001000
00000000
00000010
00000100
00000000
00000000
00001001
00000000
00000000
00000000
00000000
00000000
,
00002200
00000000
00000000
00000000
00000000
00000000
00000000
00000000
00010010
00003300
00000000
00000000
00000000
00000000
0000MM00
00000000
,
00010000
00000000
00001000
01000000
00010000
00000000
01000000
00100000
00000000
00000000
10100000
00000000
00000000
00000000
00000000
00000000
,
00000000
00001000
00010000
00000100
00001000
00000010
00000101
00000000
,
00000010
00000000
00000000
00000010
00000000
00000000
00000000
00000000
00000000
00000000
00000000
00000000
000M0000
00000000
00000000
00000000
,
00010000
00000000
00000000
00010000
00000000
00000000
00000000
00000000
00000000
00000000
00000000
00000000
M0000000
00000000
00000000
00000000
,
10000000
00000000
00000000
10000000
00000000
00000000
00000000
00000000
00000000
00000000
00000000
00000000
00000000
00000000
00000000
00000000
,
00000M00
00000000
00000100
00000000
00010000
00000000
00000000
00001000
00000000
00000000
00000000
01000000
00000000
00000000
00010000
00000000
,
00100000
00000000
00000000
01000000
00000000
00000000
10000000
00000000
00010000
00000000
00000000
00000000
01000000
00000000
00000000
00000000
,
00100000
00000000
00000000
10000000
00000000
00000000
01000000
00000000
00100000
00000000
00000000
00000000
00010000
00000000
00000000
00000000
,
01000000
00000000
00000000
00001000
00000000
00000000
00010000
00000000
00000100
00000000
00000000
00000000
00000010
00000000
00000000
00000000
,
00000000
00000000
00000001
00000000
00000100
00000000
00000000
00001000
00000000
00000000
00000000
00010000
00000000
00000000
00001000
00000000
,
00000010
00000000
00000000
00001000
00000000
00000000
00010000
00000000
00100000
00000000
00000000
00000000
00010000
00000000
00000000
00000000
,
00001000
00000000
00000000
00100000
00000000
00000000
01000000
00000000
00010000
00000000
00000000
00000000
00001000
00000000
00000000
00000000
,
00010000
00000000
00000000
00100000
00000000
00000000
10000000
00000000
01000000
00000000
00000000
00000000
00100000
00000000
00000000
00000000
,
00000000
00000000
00010000
00000000
01000000
00000000
00100000
10000000
00000000
01000000
00000000
00100000
00000000
01000000
10000000
00000000
,
00010000
01000000
00000000
00001000
00000000
00000000
00010000
00000000
00000100
00000000
00000000
00000000
00010010
00000000
00000000
00000000
,
00001000
00000100
00000000
00000010
00000000
00000000
00000100
00000000
00001000
00000000
00000000
00000000
00000011
00000000
00000000
00000000
,
00000100
00000010
00000000
00000100
00000000
00000000
00001000
00000000
00010000
00000000
00000000
00000000
00010100
00000000
00000000
00000000
,
00000000
00000000
00001000
00000000
01000000
00000000
00010000
00100000
00000000
01000000
00000000
00100000
00000000
00010000
01000000
00000000
,
00100000
10000000
00000000
01000000
00000000
00000000
00100000
00000000
00001000
00000000
00000000
00000000
00011000
00000000
00000000
00000000
,
00000100
00001000
00000000
00000010
00000000
00000000
00010000
00000000
00001000
00000000
00000000
00000000
00010010
00000000
00000000
00000000
,
00000100
00000010
00000000
00000100
00000000
00000000
00001000
00000000
00000001
00000000
00000000
00000000
00011000
00000000
00000000
00000000
,
00000000
00000000
00001000
00000000
01000000
00000000
00010000
00100000
00000000
00001000
00000000
00010000
00000000
00001000
01000000
00000000
,
00100000
01000000
00000000
00010000
00000000
00000000
00100000
00000000
00001000
00000000
00000000
00000000
01001000
00000000
00000000
00000000
,
00001000
00010000
00000000
00000100
00000000
00000000
00001000
00000000
00000010
00000000
00000000
00000000
00010100
00000000
00000000
00000000
,
00001000
00000001
00000000
00000010
00000000
00000000
00000100
00000000
00001000
00000000
00000000
00000000
00010010
00000000
00000000
00000000
,
00011000
00000000
00000000
01001000
00000000
00000000
00010000
00000000
01000000
00100000
00000000
01000000
00000000
00010000
10000000
00000000
,
01000000
00100000
00000000
00010000
00000000
00000000
10000000
00000000
01000000
00000000
00000000
00000000
00101000
00000000
00000000
00000000
,
00001000
00010000
00000000
00000100
00000000
00000000
00001000
00000000
00000010
00000000
00000000
00000000
00000101
00000000
00000000
00000000
,
00000010
00000100
00000000
00001000
00000000
00000000
00000010
00000000
00010000
00000000
00000000
00000000
00011000
00000000
00000000
00000000
,
00000000
00000000
00000100
00000000
00010000
00000000
00010000
00001000
00000000
01000000
00000000
00010000
00000000
00100000
01000000
00000000
,
10000000
00100000
00000000
01000000
00000000
00000000
00001000
00010000
00000000
00000100
00000000
00001000
00000010
00000000
00001001
00000000
;

//---------------dance-double - M.Emirzian----------------
#NOTES:
     dance-double:
     M.Emirzian:
     Challenge:
     10:
     0.680,0.000,0.261,0.056,0.882,476.000,28.000,6.000,2.000,6.000,0.000:
00000000
00000000
00000000
00000000
,
00000000
00000000
00000000
00000000
,
00000000
00000000
00000000
00000000
,
00000000
00000000
00000000
00000000
,
00010000
01000000
00000000
00100000
00000000
01000000
00010000
10000000
00000000
01000000
00100000
00000000
00001000
00000000
00010000
00000000
,
00000100
00001000
00000000
00000010
00000000
00000100
00000001
00000010
00000000
00000100
00000010
00000000
00000001
00000000
00000100
00000000
,
00000010
00001000
00000000
00000010
00000000
00010000
00001000
01000000
00000000
00010000
01000000
00000000
00100000
00000000
01000000
00000000
,
00010000
00000000
00100000
00000000
01000000
00000000
10000000
00010000
00000000
01000000
00000000
00001000
00000000
00010000
00001000
00000000
,
00010000
00000010
00000000
00010000
00000000
00001000
00010000
00000100
00000000
00010000
00001000
00000000
01000000
00000000
00001000
00000000
,
00010000
00000100
00000000
00001000
00000000
00000010
00000100
00000010
00000000
00001000
00000100
00000000
00000010
00000000
00000001
00000000
,
00000100
00000010
00000000
00010000
00000000
00001000
01000000
00001000
00000000
00010000
00000100
00000000
00010000
00000000
00001000
00000000
,
01000000
00010000
00000000
10010000
00000000
00000000
00000000
00000000
00100000
00000000
10000000
00000000
01000000
00000000
00100000
00000000
,
00010000
01000000
00000000
01001000
00000000
00000000
00000000
00000000
00010000
00000000
00100000
00000000
00001000
00000000
00010000
00000000
,
00000100
00001000
00000000
00010100
00000000
00000000
00000000
00000000
00001000
00000000
00000100
00000000
00000010
00000000
00000001
00000000
,
00001000
00000100
00000000
00001010
00000000
00000000
00000100
00000000
00000001
00000000
00000010
00000000
00000100
00000000
00001000
00000000
,
00000001
00000000
00000100
00001000
00010000
00000000
00001000
00010000
01000000
00000000
10000000
00100000
01000000
00000000
00010000
01000000
,
00100000
00000000
10000000
00000000
01000000
00000000
00010000
00000000
00001000
00000000
00010000
00000100
00000000
00010000
00001000
00000000
,
01000000
00000000
00100000
10000000
01000000
00000000
00100000
00001000
00010000
00000000
01000000
00010000
00001000
00000000
00010000
00001000
,
00000010
00000000
00000001
00000000
00000100
00000000
00000010
00000000
00001000
00000000
00000100
00000010
00000000
00000001
00000100
00000000
,
00000001
00000000
00000100
00001000
00010000
00000000
00100000
10000000
01000000
00000000
00100000
00010000
01000000
00000000
00001000
00010000
,
00100000
00000000
00010000
00000000
00001000
00000000
00000100
00000000
00001000
00000000
00010000
00001000
00000000
01000000
00100000
00000000
,
10000000
00000000
01000000
00100000
00001000
00000000
00010000
00000100
00000010
00000000
00000001
00000100
00001000
00000000
00000100
00000001
,
00000010
00000000
00000100
00000000
00001000
00000000
00000010
00000000
00000100
00000000
00000010
00001000
00000000
00000100
00010000
00000000
,
00001000
00000000
00000100
00001000
00010000
00100000
01000000
00100000
00000000
00000000
11000000
00000000
00000000
00000000
00100000
00000000
,
20020000
00000000
00000000
00000000
00000000
00000000
00000000
00000000
00101000
00000000
00000000
00000000
01100000
30030000
00000000
00000000
,
00010000
00000000
00100000
00001000
00010000
00000100
00000010
00000001
00000000
00000000
00001100
00000000
00000000
00000000
00000010
00000000
,
00020020
00000000
00000000
00000000
00000000
00000000
00000000
00000000
00001001
00000000
00000000
00000000
00001100
00030030
00000000
00000000
,
00010000
00000000
00000100
00010000
00001000
01000000
00100000
10000000
00000000
00000000
00110000
00000000
00000000
00000000
00100000
00000000
,
00202000
00000000
00000000
00000000
00000000
00000000
00000000
00000000
00010100
00000000
00000000
00000000
01010000
00303000
00000000
00000000
,
00001000
00000000
00010000
00000100
00000010
00000001
00000100
00000010
00000000
00000000
00001010
00000000
00000000
00000000
00000000
00000000
,
00000000
00000010
00010000
00001000
01000000
00100000
01000000
00000000
,
00010000
00100000
00000000
01000000
00000000
00000000
00000000
00000000
10000000
00000000
00000000
00000000
00010000
00000000
01000000
00000000
,
00100000
10000000
00000000
01000000
00000000
00000000
00000000
00000000
00100000
00000000
00000000
00000000
00001000
00000000
00010000
00000000
,
00000100
00001000
00000000
00000001
00000000
00000000
00000000
00000000
00000010
00000000
00000000
00000000
00000100
00000000
00001000
00000000
,
00000010
00000000
00000100
00000000
00000001
00000000
00001000
00000100
00000000
00010000
00000000
00001000
00000000
01000000
00100000
00000000
,
01000000
00010000
00000000
00100000
00000000
00000000
01000000
00000000
10000000
00000000
00000000
00000000
10010000
00000000
00000000
00000000
,
10000000
01000000
00000000
00100000
00000000
00000000
00001000
00000000
00010000
00000000
0M000000
00000000
00100010
00000000
00000000
00000000
,
00010000
00000100
00000000
00001000
00000000
00000000
00000001
00000000
00000010
00000000
00000000
00000000
00001100
00000000
00000000
00000000
,
00000001
00000000
00000100
00000000
00000010
00000000
00001000
00000100
00000000
00010000
00000000
00100000
00000000
00010000
00001000
00000000
,
01000000
00100000
00000000
01000000
00000000
00000000
00010000
00000000
00100000
00000000
00M00000
00000000
11000000
00000000
00000000
00000000
,
10000000
01000000
00000000
00100000
00000000
00000000
00001000
00000000
00010000
00000000
00000000
00000000
01000100
00000000
00000000
00000000
,
00010000
00000100
00000000
00000010
00000000
00000000
00000001
00000000
00001000
00000000
00000000
00000000
00001100
00000000
00000000
00000000
,
00000000
00000000
00000010
00000000
00010000
00000000
00001000
01000000
00000000
00100000
00000000
01000000
00000000
00010000
10000000
00000000
,
01000000
00100000
00000000
00001000
00000000
00100000
01000000
10000000
00000000
01000000
00100000
00000000
00001000
00000000
00010000
00000000
,
00000100
00001000
00000000
00000010
00000000
00000100
00000001
00000100
00000000
00000010
00001000
00000000
00000100
00000000
00010000
00000000
,
00001000
00000100
00000000
00001000
00000000
00010000
00100000
01000000
00000000
00100000
10000000
00000000
01000000
00000000
00100000
00000000
,
00001000
00000000
00010000
00000000
00000100
00000000
00010000
00001000
00000000
01000000
00000000
00001000
00000000
00010000
00000100
00000000
,
00001000
00000100
00000000
00000010
00000000
00000001
00000100
00001000
00000000
00010000
00001000
00000000
00000010
00000000
00000100
00000000
,
00000010
00000001
00000000
00000100
00000000
00000010
00000100
00000001
00000000
00000100
00000010
00000000
00001000
00000000
00000100
00000000
,
00010000
00001000
00000000
01000000
00000000
00001000
00010000
00000100
00000000
00010000
00001000
00000000
01000000
00000000
00010000
00000000
,
00100000
00000000
10000000
00000000
00100000
00000000
00010000
01000000
00000000
00100000
00000000
10000000
00000000
01000000
00100000
00000000
,
00001000
00010000
00000000
01000000
00000000
00010000
00001000
00000010
00000000
00000100
00001000
00000000
00000100
00000000
00000001
00000000
,
00000100
00001000
00000000
00000010
00000000
00000100
00000001
00000010
00000000
00000100
00010000
00000000
00001000
00000000
00100000
00000000
,
00001000
00010000
00000000
00000100
00000000
00010000
00001000
01000000
00000000
00100000
10000000
00000000
01000000
00000000
00100000
00000000
,
10010000
00000000
00000000
01001000
00000000
00000000
00010000
00000000
01000000
00100000
00000000
01000000
00000000
00010000
10000000
00000000
,
01000000
00100000
00000000
00001000
00000000
00010000
00000100
00001000
00000000
00000100
00000010
00000000
00000001
00000000
00001000
00000000
,
00000010
00000100
00000000
00000001
00000000
00000100
00001000
00010000
00000000
00000100
00010000
00000000
00001000
00000000
01000000
00000000
,
00100000
01000000
00000000
00010000
00000000
00100000
10000000
00100000
00000000
00010000
01000000
00000000
00100000
00000000
01000000
00000000
,
00001000
00000000
00010000
00000000
00000100
00000000
00000010
00000001
00000000
00000100
00000000
00000010
00000000
00001000
00000100
00000000
,
00010000
00001000
00000000
00101000
00000000
00000000
00001000
01000000
00000000
01010000
00000000
00100000
10000000
00000000
10010000
00000000
;

//---------------dance-single - K. Ward----------------
#NOTES:
     dance-single:
     K. Ward:
     Beginner:
     1:
     0.085,0.000,0.037,0.000,0.000,60.000,4.000,0.000,0.000,0.000,0.000:

0000
0000
0000
0000
,
0000
0000
0000
0000
,
0000
0000
0000
0000
,
0000
0000
0000
0000
,
1000
0000
0000
0000
,
0001
0000
0000
0000
,
0010
0000
0000
0000
,
0001
0000
0001
0000
,
0001
0000
0000
0000
,
0100
0000
0000
0000
,
0010
0000
0000
0000
,
0010
0000
0000
0000
,
1000
0000
0000
0000
,
0001
0000
0000
0000
,
1000
0000
1000
0000
,
0001
0000
0000
0000
,
0010
0000
0000
0000
,
1001
0000
0000
0000
,
0100
0000
0000
0000
,
1001
0000
0000
0000
,
0010
0000
0000
0000
,
1001
0000
0000
0000
,
0100
0000
0000
0000
,
0001
0000
0000
0000
,
0010
0000
0000
0000
,
0001
0000
0000
0000
,
0010
0000
0000
0000
,
1000
0000
0000
0000
,
0100
0000
0000
0000
,
1000
0000
0001
0000
,
0000
0000
0000
0000
,
1000
0000
0000
0000
,
1000
0000
0000
0000
,
0001
0000
0000
0000
,
0010
0000
0000
0000
,
0001
0000
0000
0000
,
1000
0000
0000
0000
,
0001
0000
0000
0000
,
0010
0000
0010
0000
,
0001
0000
0000
0000
,
1000
0000
0000
0000
,
0001
0000
0000
0000
,
0100
0000
0000
0000
,
0001
0000
0000
0000
,
0001
0000
0000
0000
,
1000
0000
0000
0000
,
1000
0000
0000
0000
,
0001
0000
0000
0000
,
0001
0000
0000
0000
,
1000
0000
0000
0000
,
1000
0000
0000
0000
,
0010
0000
0010
0000
,
0000
0000
0000
0000
,
0100
0000
0100
0000
,
0000
0000
0000
0000
,
0001
0000
0001
0000
,
0000
0000
0000
0000
,
1000
0000
1000
0000
,
0000
0000
0000
0000
,
0010
0000
0000
0000
0000
0000
0000
1001
;
