#TITLE:Funk Factory;
#SUBTITLE:;
#ARTIST:Money Deluxe;
#TITLETRANSLIT:;
#SUBTITLETRANSLIT:;
#ARTISTTRANSLIT:;
#GENRE:Disco;
#CREDIT:;
#BANNER:Funk Factory-banner.png;
#BACKGROUND:Funk Factory-bg.png;
#LYRICSPATH:;
#CDTITLE:;
#MUSIC:Funk Factory.ogg;
#OFFSET:0.021;
#SAMPLESTART:29.520;
#SAMPLELENGTH:11.860;
#SELECTABLE:YES;
#BPMS:0.000=130.000;
#STOPS:;
#BGCHANGES:12.000=In The Groove 2/937_JumpBack.mpg=1.000=1=0=1===CrossFade==,
16.000=In The Groove 2/926_JumpBack.mpg=1.000=0=0=1=====,
32.000=In The Groove 2/759_JumpBack.mpg=1.000=0=0=1===SlideLeft==,
48.000=In The Groove 2/921_JumpBack.mpg=1.000=0=0=1===SlideRight==,
64.000=In The Groove 2/982_JumpBack.mpg=1.000=0=0=1===FadeLeft==,
72.000=In The Groove 2/967_JumpBack.mpg=1.000=0=0=1===FadeRight==,
80.000=In The Groove 2/970_JumpBack.mpg=1.000=0=0=1===FadeUp==,
88.000=In The Groove 2/961_JumpBack.mpg=1.000=0=0=1===FadeDown==,
96.000=In The Groove 2/982_JumpBack.mpg=1.000=0=0=1===FadeLeft==,
104.000=In The Groove 2/967_JumpBack.mpg=1.000=0=0=1===FadeRight==,
112.000=In The Groove 2/970_JumpBack.mpg=1.000=0=0=1===FadeUp==,
120.000=In The Groove 2/961_JumpBack.mpg=1.000=0=0=1===FadeDown==,
128.000=Funk Factory-bg.png=1.000=1=0=1===CrossFade==,
132.000=Funk Factory-bg.png=1.000=0=0=1====1^1^0^1=,
133.000=Funk Factory-bg.png=1.000=0=0=1====1^0^1^1=,
134.000=Funk Factory-bg.png=1.000=0=0=1====0^1^1^1=,
136.000=In The Groove 2/759_JumpBack.mpg=1.000=0=0=1===SlideLeft==,
152.000=In The Groove 2/921_JumpBack.mpg=1.000=0=0=1===SlideRight==,
168.000=In The Groove 2/982_JumpBack.mpg=1.000=0=0=1===FadeLeft==,
176.000=In The Groove 2/967_JumpBack.mpg=1.000=0=0=1===FadeRight==,
184.000=In The Groove 2/970_JumpBack.mpg=1.000=0=0=1===FadeUp==,
192.000=In The Groove 2/961_JumpBack.mpg=1.000=0=0=1===FadeDown==,
198.000=Funk Factory-bg.png=1.000=0=0=1====0^1^1^1=,
199.000=Funk Factory-bg.png=1.000=0=0=1====1^1^0^1=,
200.000=In The Groove 2/982_JumpBack.mpg=1.000=0=0=1===FadeLeft=0^1^1^1=,
208.000=In The Groove 2/967_JumpBack.mpg=1.000=0=0=1===FadeRight==,
216.000=In The Groove 2/970_JumpBack.mpg=1.000=0=0=1===FadeUp==,
224.000=In The Groove 2/961_JumpBack.mpg=1.000=0=0=1===FadeDown==,
232.000=Funk Factory-bg.png=1.000=0=0=1=====,
99999=-nosongbg-=1.000=0=0=0 // don't automatically add -songbackground-
;
#BGCHANGES2:232.000=white flash=1.000=0=0=1=====,
;
#KEYSOUNDS:;
// cache tags:
#FIRSTBEAT:12.000;
#LASTBEAT:232.500;
#SONGFILENAME:/Songs/In The Groove 2/Funk Factory/Funk Factory.sm;
#HASMUSIC:1;
#HASBANNER:1;
#MUSICLENGTH:110.261;
// end cache tags

//---------------dance-single - C. Foy----------------
#NOTES:
     dance-single:
     C. Foy:
     Easy:
     4:
     0.273,0.000,0.299,0.118,0.000,165.000,33.000,13.000,4.000,0.000,0.000:
0000
0000
0000
0000
,
0000
0000
0000
0000
,
0000
0000
0000
0000
,
0000
0000
0000
0000
,
1000
0100
1100
0011
,
0000
0000
1001
0000
,
1000
0100
1100
0011
,
0000
0000
0001
1000
,
1001
0000
0000
0000
1001
0000
0000
0000
0020
0000
0000
0030
0100
0000
0000
0000
,
0000
0000
0000
0000
0010
0000
0100
0000
0020
0000
0000
0030
0100
0000
0000
0000
,
1000
0000
0000
0000
0100
0000
0000
0000
2000
0000
0000
3000
0100
0000
0000
0000
,
1000
0100
1000
0100
0000
2000
3100
0000
,
0001
0000
0000
0000
0100
0000
0000
0000
0002
0000
0000
0003
0100
0000
0000
0000
,
0000
0000
0001
0100
0001
0000
0100
0000
,
0010
0001
0010
1000
,
0010
0100
0010
1000
,
0100
0000
0000
0000
,
1001
0000
0100
0100
,
1001
0000
0000
0100
0000
0000
0000
0000
,
0010
0100
0000
0000
,
1000
1000
0001
0001
,
0100
0100
0001
0001
,
0100
0000
0000
0000
0000
0000
0000
0010
,
0000
0000
0100
0000
,
1000
0010
0001
0100
,
1000
0010
0001
0100
,
1000
0100
0001
0010
,
1000
0100
0001
0010
,
1000
0000
0000
0000
,
0001
0000
0000
0000
,
2200
3300
0011
0000
,
0202
0303
1010
0000
,
1001
0000
0000
0000
,
0000
0000
0000
0000
,
0010
1000
0010
0001
,
0010
0100
0010
0001
,
0010
1000
0010
0001
,
0010
0100
0000
1001
,
0001
0022
0033
1100
,
0000
0010
0001
1100
,
0000
1000
2020
3030
,
0101
0000
0000
1001
,
1000
0010
0001
0100
,
1000
0010
0001
0100
,
1000
0100
0001
0010
,
1000
0100
0001
0010
,
1001
0000
0110
0000
,
1001
0000
0110
0000
,
1001
0000
0000
0000
0000
0000
0000
1001
,
0000
0000
MMMM
0000
,
0001
0010
0001
0010
,
0100
1000
0100
0011
,
1000
0001
0100
0001
,
0100
0001
0100
1010
,
0001
1000
0010
0001
,
0100
1000
0100
0011
,
1000
0100
0001
0010
,
1100
0000
0101
0000
,
1010
0000
0000
0000
;

//---------------dance-single - K. Ward----------------
#NOTES:
     dance-single:
     K. Ward:
     Hard:
     8:
     0.474,0.000,0.290,0.209,0.254,311.000,32.000,23.000,8.000,4.000,0.000:
0000
0000
0000
0000
,
0000
0000
0000
0000
,
0000
0000
0000
0000
,
0000
0000
0000
0000
,
0010
0100
1000
0100
0010
0000
1100
0000
,
0100
0000
0010
0000
0001
0000
0010
0000
0100
0000
0000
0000
0011
0000
0000
0100
,
1000
0100
0010
0100
0010
0000
1100
0000
,
0001
0010
0001
0000
0110
0000
1001
0000
,
0100
0000
0000
0000
0001
0000
0000
0000
0010
0000
0000
0101
0000
0000
0000
0000
,
0000
0000
0000
0000
0001
0000
0100
0000
0010
0000
0000
1100
0000
0000
0000
0000
,
0010
0000
0000
0000
0110
0000
0000
0000
0100
0000
0000
0011
0000
0000
0000
0000
,
0001
0010
0000
0001
0010
0000
0001
0000
0000
0000
0100
0000
0110
0000
0000
0000
,
1000
0000
0000
0000
1100
0000
0000
0000
0001
0000
0000
0011
0000
0000
0000
0000
,
0000
0000
0000
0010
0001
0000
1000
0000
0200
0000
0000
0000
0310
0000
0000
0000
,
0100
0000
0000
0000
0100
0000
0000
0000
1000
0000
0000
0110
0000
0000
0000
0000
,
1000
0010
0001
0010
0100
0000
0011
0000
,
1000
0000
0001
1000
0000
0010
1000
0000
0100
0000
0010
0001
0000
0000
0000
0000
,
0010
0000
0100
1000
0000
0010
0100
0000
0001
0000
0001
0000
1000
0000
1000
0000
,
0010
0000
0000
1001
0000
0000
0110
0000
0000
0000
0000
0000
0000
0010
0100
0000
,
0001
0000
0000
0001
0000
0000
0010
0000
0002
0000
0000
0000
1003
0000
0000
0000
,
0100
0000
0000
0100
0000
0000
0010
0100
1000
0000
0010
0100
0000
0000
0001
0000
,
0001
0000
0000
0010
0001
0000
0100
0000
0010
0000
0000
0000
0100
0000
0001
0000
,
0020
0000
0100
0000
0001
0000
0100
0030
,
0200
0000
0010
0000
1000
1000
1300
0000
,
0001
0000
0010
0001
0000
0010
0001
0000
1000
0000
0100
0000
0100
0000
0000
0000
,
0010
0000
0100
0010
0000
0000
0001
0000
0200
0000
0000
0000
0310
0000
0000
0000
,
1000
0000
0000
1000
0000
0000
0010
0000
0100
0000
0010
0100
0000
0000
0000
0000
,
0001
0000
0000
0001
0000
0000
0010
0000
0100
0000
1000
0000
0010
0000
0100
0000
,
0002
0013
2000
3100
,
0002
0000
0013
0000
2000
0100
3100
0000
,
1000
0000
0000
1000
0000
0000
1000
0000
0001
0000
0000
0001
0000
0000
0001
0000
,
0010
0000
0000
0010
0000
0000
0010
0000
0100
0000
0010
0000
0001
0000
0100
0000
,
1000
0000
0000
0000
,
0020
0000
0000
0000
0000
0000
0000
0000
0130
0000
0000
0000
1000
0100
1000
0100
,
1000
0000
0000
0000
0001
0000
0000
0000
1000
0000
0000
1010
0000
0000
0000
0000
,
0000
0000
0000
0010
0100
0000
0001
0000
0010
0000
0000
0011
0000
0000
0000
0000
,
0100
0000
0000
0000
0110
0000
0000
0000
0010
0000
0000
1100
0000
0000
0000
0000
,
0100
0010
0000
0100
1000
0000
0010
0000
0000
0000
0100
0000
1001
0000
0000
0000
,
1000
0000
0010
0001
M000
0002
0000
0003
,
001M
0000
0000
0000
0000
0000
0010
0000
0000
0200
0000
0000
0000
0000
0000
0000
0000
0000
0310
0000
0000
0MMM
M000
0000
,
0010
0000
0000
0000
0100
0000
0011
0000
0000
0000
1100
0000
0000
MM00
0000
0000
,
1000
0100
0001
0100
2000
0000
3001
0000
,
0010
0000
0000
0001
0010
0000
0000
0010
0001
0000
0000
0001
0100
0000
0000
0100
,
0010
0000
0000
0010
2000
0000
0100
0000
0200
0000
0000
0000
0001
0000
3300
0000
,
1000
0000
0000
1000
0010
0000
0000
0010
0100
0000
0000
0100
0001
0000
0000
0001
,
0010
0000
0000
0010
0200
0000
1000
0000
2000
0000
0000
0000
0010
0000
3300
0000
,
1000
0100
1000
0000
0010
0100
0010
0000
,
0001
0010
0001
0000
0010
0100
1000
0100
,
1000
0000
0010
0110
0000
1001
0000
0110
,
0000
0011
0000
2200
0000
0000
0010
3300
,
1000
0010
0100
0000
0001
0000
0010
0000
0001
0000
0000
0000
1100
0000
0000
0000
,
0010
0100
0001
0000
0010
0000
0001
0000
1000
0000
0000
0000
1100
0000
0000
0000
,
0010
0100
0001
0000
0010
0000
0100
0000
0010
0000
0000
0000
1001
0000
0000
0000
,
0100
0010
0100
0000
0002
0000
0010
0000
0013
0000
0000
0000
0110
0000
0000
0000
,
1000
0100
0000
0000
0010
0000
0000
0000
0100
1000
0000
0000
0010
0000
0000
0000
,
0010
0100
0001
2000
0200
0000
0001
3300
,
1000
1000
0100
0010
0001
0001
0100
1000
,
0100
0001
0010
0001
0020
0000
0100
0000
,
0031
0000
0000
0000
;

//---------------dance-single - C. Foy----------------
#NOTES:
     dance-single:
     C. Foy:
     Medium:
     7:
     0.338,0.000,0.254,0.109,0.000,221.000,28.000,12.000,6.000,2.000,0.000:
0000
0000
0000
0000
,
0000
0000
0000
0000
,
0000
0000
0000
0000
,
1001
0000
0000
0000
,
1000
0100
1100
0011
,
0000
0000
0200
0300
,
0000
0000
0101
1010
,
0000
0000
1000
1000
,
0001
0001
0100
0100
,
0000
1000
0100
0010
,
0100
1000
1000
0100
,
0010
0100
0000
0001
,
0010
0100
1000
0100
,
0000
1000
1000
0100
,
0010
0100
0100
0010
,
0010
0001
0010
0100
0010
0000
0000
0000
,
0200
0300
0000
0000
,
1000
0000
0001
0100
,
1010
0000
0000
1010
0000
0000
0000
0000
,
1000
0010
0001
0100
,
1000
1000
0001
0001
,
1000
1000
0100
0100
,
1100
0000
0000
0011
0000
0000
0000
0100
,
0000
0000
M00M
0000
,
0010
0100
0010
0100
0010
0001
0010
0100
,
0010
0001
0010
0100
0010
0100
0010
1000
,
0010
0100
0010
1000
0010
0001
0010
0100
,
0010
0001
0010
1000
0010
0100
0010
0100
,
0010
0001
0100
1000
,
0010
0001
0100
1000
,
2200
3300
0011
0000
,
2002
3003
1001
0000
,
0100
0000
0000
0000
,
0000
0000
0000
0000
,
0010
0001
0010
0100
0010
0100
0010
1000
,
0010
0100
0010
1000
0010
0100
0010
0100
,
0010
0001
0010
0100
0010
0001
0010
1000
,
0010
0001
0010
0100
0010
0000
1001
0000
,
0001
0022
0033
1100
,
0000
0010
0001
1100
,
0000
1000
2020
3030
,
0101
0000
0000
1001
,
1000
0010
0001
0000
0100
0000
1000
0000
,
0010
0001
0100
0000
1000
0000
0010
0000
,
0001
0100
1000
0000
0010
0000
0001
0000
,
0100
1000
0010
0000
0001
0100
1000
0000
,
1001
0000
0110
0000
,
1001
0110
1001
0110
,
1001
0000
0000
0000
0000
0000
0000
0100
,
0000
0000
MMMM
0000
,
1000
0100
1000
0100
1000
0100
0010
0100
,
0010
0100
0010
0100
0010
1000
0001
0100
,
0010
1000
0001
0100
0010
0100
0001
0100
,
0010
0100
0001
0100
0010
1000
0001
0100
,
0010
0000
0000
0000
,
0010
1000
0100
1000
0010
1000
0100
1000
,
0010
0000
0001
0000
,
2002
0000
0010
0000
,
0010
3003
0000
0000
0000
0000
0000
0000
;

//---------------dance-single - C. Foy----------------
#NOTES:
     dance-single:
     C. Foy:
     Challenge:
     9:
     0.750,0.000,0.290,1.000,0.372,357.000,32.000,190.000,0.000,1.000,0.000:
0000
0000
0000
0000
,
0000
0000
0000
0000
,
0000
0000
0000
0000
,
0000
0000
0000
0000
,
0100
0001
0010
0100
2010
0000
3001
0000
,
1000
0000
0010
0000
1000
0000
0100
0000
0011
0000
0000
0000
1010
0000
0000
1000
,
0010
0100
0010
0001
0010
0000
1010
0000
,
1000
0000
0100
0000
0010
0000
0000
0001
0010
0000
0000
0001
0100
0010
0100
1000
,
0100
0000
0000
0000
0020
0000
0000
0000
0001
0030
0000
1010
0000
0000
0000
0000
,
0000
0000
0000
0000
0200
0000
0001
0000
1000
0300
0000
0101
0000
0000
0000
0000
,
0010
0000
0000
0000
0110
0000
0000
0000
0100
0000
0000
1001
0000
0000
0000
0000
,
1000
0010
0000
0100
1000
0000
0100
0000
0000
0000
0001
0000
1001
0000
0000
0000
,
0020
0000
0000
0000
1000
0000
0000
0000
0001
0030
0000
1010
0000
0000
0000
0000
,
0000
0000
0000
0000
2000
0000
0010
0000
0001
3000
0000
1100
0000
0000
0000
1000
,
0002
0000
0000
0000
0010
0000
0000
0000
1000
0003
0000
0101
0000
0000
0000
0000
,
0001
0000
0000
0100
0000
0010
0001
0000
0010
0000
1000
0000
1100
0000
0000
0000
,
1000
0000
0000
0000
0001
0000
0200
0000
0000
0000
0020
0300
0002
0030
0000
0000
0020
0003
0000
0000
0002
0030
0000
0000
0020
0003
0000
0000
0030
0000
0000
0000
,
1000
0000
0000
0000
0200
0000
0020
0300
0000
0000
2000
0030
0020
3000
0000
0000
2000
0030
0000
0000
0020
3000
0000
0000
0200
0030
0000
0000
0020
0300
0000
0000
,
0001
0030
0000
0000
0000
0000
0000
0000
0000
0000
0000
0000
1000
0000
0000
0000
0000
0000
0000
0000
0000
0000
0000
0000
0000
0000
1000
0000
0020
0000
0000
0000
,
0002
0000
0000
0030
0000
0000
2000
0000
0000
0003
0000
0000
0002
3000
0000
0000
0020
0003
0200
0030
0000
0000
0000
0000
0001
0000
0300
0000
1000
0000
0000
0000
,
0200
0000
0000
0020
0300
0000
0230
0320
0200
0030
0302
0200
0003
0000
0020
0300
,
0001
0030
0000
0000
0000
0000
0020
0000
0002
0000
0030
0000
0020
0000
0003
0000
0200
0000
0030
0000
0020
0000
0300
0000
0200
0000
0030
0000
0002
0000
0300
0000
,
0200
0003
0000
0000
0002
0300
2000
0003
0000
0000
0020
0000
3000
0000
0001
0000
,
0030
0000
0200
0000
0000
0000
0020
0300
1000
0030
0200
0000
0020
0300
2000
0030
,
0020
0000
3000
0000
0200
0030
2000
0300
0000
0000
0020
3000
0002
0000
0030
0000
0020
0000
0003
0000
1030
0000
0000
0000
0001
0000
0000
0000
0000
0000
0000
0000
,
1000
0000
0000
0000
0020
0000
0002
0000
0000
0000
0030
0000
0020
0003
1000
0030
0200
0000
0000
0000
0020
0000
0300
0000
0200
0000
0030
0000
0002
0000
0300
0000
,
0200
0000
0000
0000
0003
0000
1000
0000
0000
0000
0300
0000
0020
0000
0000
0000
0002
0000
0030
0000
0020
0003
1000
0000
0030
0000
0000
0000
0000
0000
0000
0000
,
1000
0000
0000
0020
0000
0000
0032
0023
0002
0030
0020
0003
0200
0030
2300
3200
,
2000
0000
0300
0200
0000
3000
0020
0300
1030
0000
0020
0000
0002
0030
2000
0003
,
0200
3000
0000
0320
0200
0030
0001
0300
0020
0200
0000
0030
0020
0300
0001
0030
,
0001
0000
0000
0200
0000
0000
2000
0300
0002
0000
3000
0020
0000
0003
2000
0030
,
0200
3000
0000
0002
0300
0000
2000
0003
0020
3000
0001
0030
1000
0000
0000
0000
,
1001
0000
0010
1001
0100
0000
0100
1010
,
1001
0000
0101
0000
0000
0000
0011
0000
0000
0000
0011
0000
0001
0100
0010
0000
,
1010
0000
0000
0000
0001
0000
0000
0000
1000
0000
0000
1010
0000
0000
1000
0100
,
0010
0000
0000
0000
0100
0000
1000
0000
0001
0000
0000
0011
0000
0000
0000
0000
,
1000
0000
0000
0000
1100
0000
0000
0000
0010
0000
0000
0101
0000
0000
0001
0100
,
0010
0100
0000
0010
1000
0000
0100
0000
0000
0000
0010
0000
0101
0000
0000
0000
,
1000
0000
0000
0000
1000
0000
0000
0000
0001
0000
0000
0101
0000
0000
0001
1000
,
0001
0000
0000
0000
0010
0000
0001
0000
1000
0000
0000
1100
0000
0000
0000
1000
,
0010
0000
0000
0000
0110
0000
0000
0000
0100
0000
0000
1100
0000
0000
0000
0000
,
1000
0000
0000
1000
0000
0100
1000
0000
0010
0000
0100
0000
1001
0000
0000
0000
,
0001
0000
1000
0000
0020
0230
2000
0300
0200
3000
2000
0300
0200
3000
0000
0000
,
0301
0000
0020
0200
0030
0302
0200
0003
0002
0300
0200
0003
0020
0300
0200
0030
,
1000
0300
0000
0000
0000
0000
1000
0000
0000
0000
0000
0000
0000
0001
0200
0000
,
2000
0000
0300
0002
0000
3000
2000
0003
3200
0020
0000
0300
2030
0000
0001
3000
,
0020
0000
0000
0200
0030
0000
0320
0230
0020
0300
2030
0020
0000
3000
0200
0030
,
1000
0300
0000
0200
2000
0300
0200
3000
0020
0300
0200
0030
0002
0300
2000
0003
,
0020
3000
0000
0000
0001
0030
0200
0000
0000
0000
2000
0000
0300
0000
0002
0000
,
3000
0000
2000
0003
0000
0000
0200
3000
0001
0300
0020
0000
0200
0030
0002
0300
,
0200
0003
0020
0301
0030
0200
2000
0300
0200
3000
2000
0300
0002
0000
3000
0000
,
0020
0003
0230
0001
0300
0000
1000
0001
0020
0000
0200
0030
0020
0300
2000
0030
,
0002
3000
0000
2000
0003
0000
0020
3000
0200
0030
1300
0001
0000
0000
0000
0000
,
0001
0000
0000
0200
0000
0000
2300
3200
2000
0300
3200
0000
0020
0300
0032
0023
,
0002
0030
0000
2000
0003
0000
0200
3000
0001
0300
0020
0000
0200
0030
0002
0300
,
2000
0000
0003
3002
2000
0003
0020
3000
0230
0020
0300
0000
0002
0030
1003
0000
,
1000
0000
0000
0020
0000
0000
0002
0030
2000
0000
0003
0200
0000
3000
0002
0300
,
0020
0000
0003
2000
0030
0000
0002
3000
0200
0003
2000
0300
0002
0000
3003
0000
,
1001
0000
0000
0000
;

//---------------dance-single - K. Ward----------------
#NOTES:
     dance-single:
     K. Ward:
     Beginner:
     1:
     0.092,0.000,0.045,0.000,0.000,66.000,5.000,0.000,0.000,0.000,0.000:

0000
0000
0000
0000
,
0000
0000
0000
0000
,
0000
0000
0000
0000
,
0000
0000
0000
0000
,
1000
0000
0000
0000
,
0001
0000
0000
0000
,
0100
0000
0000
0000
,
0001
0000
0000
0000
,
1000
0000
0000
0000
,
0001
0000
0000
0000
,
1000
0000
0000
0000
,
0010
0000
0000
0000
,
1000
0000
1000
0000
,
0001
0000
0001
0000
,
1000
0000
1000
0000
,
1001
0000
0000
0000
,
1000
0000
0000
0000
,
1000
0000
0000
0000
,
0001
0000
0000
0000
,
1000
0000
0010
0000
,
0100
0000
0000
0000
,
0100
0000
0000
0000
,
0001
0000
0000
0000
,
1000
0000
0000
0000
,
0001
0000
0001
0000
,
0001
0000
0000
0000
,
1000
0000
1000
0000
,
1000
0000
0000
0000
,
0010
0000
0000
0000
,
0010
0000
0000
0000
,
0100
0000
0000
0000
,
0010
0000
0000
0000
,
1001
0000
0000
0000
,
0000
0000
0000
0000
,
1000
0000
0000
0000
,
1000
0000
0000
0000
,
1000
0000
0000
0000
,
0001
0000
0000
0000
,
0010
0000
0010
0000
,
0010
0000
0000
0000
,
0001
0000
0001
0000
,
1001
0000
0000
0000
,
1000
0000
0000
0000
,
1000
0000
0000
0000
,
0001
0000
0000
0000
,
0001
0000
0000
0000
,
0010
0000
0000
0000
,
0010
0000
0000
0000
,
0100
0000
0000
0000
,
1001
0000
0000
0000
,
1000
0000
1000
0000
,
0001
0000
0001
0000
,
0100
0000
0100
0000
,
0010
0000
0010
0000
,
1000
0000
0000
0000
,
1000
0000
0000
0000
,
0001
0000
0000
0000
,
0001
0000
0000
0000
,
1001
0000
0000
0000
;

//---------------dance-double - M.Emirzian----------------
#NOTES:
     dance-double:
     M.Emirzian:
     Challenge:
     9:
     0.610,0.000,0.644,0.018,0.499,398.000,71.000,2.000,5.000,1.000,0.000:
00000000
00000000
00000000
00000000
,
00000000
00000000
00000000
00000000
,
00000000
00000000
00000000
00000000
,
00000000
00000000
00000000
00000000
,
00100000
00000000
10000000
00000000
01000000
00100000
00010000
01000000
00001000
00000000
00000000
00000000
00010100
00000000
00000000
00000000
,
00000010
00000000
00001000
00000000
00000100
00010000
00001000
01000000
00010000
00000000
00000000
00000000
10100000
00000000
00000000
00000000
,
10000000
00000000
00100000
00000000
01000000
00010000
00100000
00001000
00010000
00000000
00000000
00000000
00001100
00000000
00000000
00000000
,
00000001
00000000
00000100
00000000
00000010
00000000
00001000
00000001
00000100
00000000
00000010
00001000
00000001
00000100
00000010
00001000
,
00001010
00000000
00000000
00000000
00001100
00000000
00000000
00000000
00010000
00001000
00000000
00000100
00000000
00000000
00001000
00000000
,
00010000
00000000
00100000
00000000
10000000
00000000
01000000
00000000
00100000
00010000
00000000
10000000
00000000
00000000
00100000
00000000
,
01010000
00000000
00000000
00000000
00001100
00000000
00000000
00000000
00000010
00001000
00000000
00000100
00000000
00000000
00000010
00000000
,
00000001
00000100
00000000
00001000
00000100
00000000
00000010
00000000
00001000
00000000
00001010
00000000
00010010
00000000
00000000
00000000
,
01000100
00000000
00000000
00000000
01010000
00000000
00000000
00000000
00100000
00010000
00000000
00100000
00000000
00000000
10000000
00000000
,
01000000
00000000
00100000
00000000
00001000
00000000
00010000
00000000
00001000
01000000
00000000
00010000
00000000
00000000
00100000
00001000
,
00011000
00000000
00000000
00000000
00001001
00000000
00000000
00000000
00000010
00001000
00000000
00000100
00000000
00000000
00000010
00000000
,
00000001
00000000
00000100
00000010
00000000
00001000
00000100
00000000
00010000
00000000
00011000
00000000
00100010
00000000
00000000
00000000
,
00010000
00000000
00001000
01000000
00000000
00010000
00100000
00000000
01000000
00000000
10000000
00010000
00000000
00000000
10000000
00000000
,
01000000
00000000
00010000
00001000
00000000
00000100
00000010
00000000
00001000
00000000
00000010
00000000
00000100
00000000
00000001
00000000
,
00001001
00000000
00000000
00011000
00000000
00000000
10010000
00000000
00000000
00000000
M00M0000
00000000
00000000
00100000
10000000
01000000
,
00000000
00000000
00000000
00110000
00000000
00000000
01000000
00000000
10000000
00100000
00000000
00000000
01000000
00000000
00001000
00000000
,
00010000
00000000
00000000
00010010
00000000
00000000
00001000
00000100
00000010
00000000
00000010
00000001
00000000
00000000
00000001
00000000
,
00000100
00000000
00000000
00000100
00000010
00000000
00000100
00000000
00001000
00000000
00010000
00000000
00100000
00000000
00010000
00000000
,
00001000
00000000
00000100
00001100
00000000
00110000
00000000
01001000
,
00000000
00000000
01000100
00000000
00000000
00000000
00001000
00000000
00010000
00000000
00100000
01000000
00000000
00000000
00100000
10000000
,
01000000
00000000
00100000
00010000
00000000
01000000
00001000
00000000
00010000
00000000
00000100
00001000
00000000
00000000
00000010
00000000
,
00000100
00000000
00000001
00001000
00000000
00000000
00001000
00000100
00000010
00000000
00000001
00000000
00000100
00000000
00000010
00000000
,
00001010
00000000
00000000
01010000
00000000
00000000
00101000
00000000
00011000
00000000
00001000
01000000
00000000
00000000
00010000
00000000
,
01000000
00000000
00000000
10100000
00000000
00000000
01000000
00010000
00001000
00000000
00010000
00000000
01000000
00000000
10000000
00100000
,
01000000
00000000
00000000
01010000
00000000
00000000
00001000
00000000
00010000
00000000
00000100
00000000
00000010
00000000
00000001
00000000
,
00001000
00000000
00000000
00001000
00000010
00000000
00000100
00000000
00000001
00001000
00000000
00000000
00001000
00000000
00000100
00000000
,
00000010
00000000
00000000
00000011
00000000
00000000
00000100
00000000
00001000
00000000
00000000
00011000
00000000
00000000
00100000
00000000
,
00010000
00000000
00000000
00011000
00000000
00000000
00000100
00000000
00001000
00000000
00010000
00100000
00000000
00000000
00M00000
00000000
,
20020000
00000000
00000000
00000000
00000000
00000000
01100000
30030000
00000000
00000000
00000000
00000000
00000000
00000000
00100000
00000000
,
10010000
11000000
00000000
00100000
10010000
00000000
01001000
00000000
,
00100010
00000000
00000000
00000000
00001010
00000000
00000000
00000000
00001000
00000100
00000000
00000010
00000000
00000000
00000001
00000000
,
00000010
00000000
00001000
00000000
00000010
00000000
00000001
00000000
00000100
00000010
00000000
00001000
00000000
00000000
00000100
00000000
,
00010100
00000000
00000000
00000000
01010000
00000000
00000000
00000000
00001000
00010000
00000000
00000100
00000000
00000000
00010000
00000000
,
00001000
00100000
00000000
00010000
01000000
00000000
00100000
00000000
10000000
00000000
11000000
00000000
10010000
00000000
00000000
00000000
,
01010000
00000000
00000000
00000000
00001100
00000000
00000000
00000000
00100000
00010000
00000000
01000000
00000000
00000000
00001000
00000000
,
00010000
00000000
00000100
00000000
00001000
00000000
00000010
00000000
00000100
00000001
00000000
00001000
00000000
00000000
00000100
00000010
,
00001001
00000000
00000000
00000000
00010100
00000000
00000000
00000000
00001000
00010000
00000000
00000100
00000000
00000000
00010000
00000000
,
00001000
00000000
01000000
00010000
00000000
00010000
10000000
00000000
01000000
00000000
01100000
00000000
10010000
00000000
00000000
00000000
,
00100000
00000000
10000000
01000000
00000000
00010000
00001000
00000000
00010000
00000000
00000100
00001000
00000000
00000000
00000010
00000000
,
00000100
00000000
00000001
00001000
00000000
00000100
00000010
00000000
00000001
00000000
00000100
00000000
00000010
00000000
00001000
00000000
,
00001001
00000000
00000000
00011000
00000000
00000000
10010000
00000000
00000000
00000000
M00M0000
00000000
00000000
01000000
00010000
00100000
,
00000000
00000000
00000000
01001000
00000000
00000000
00010000
00000000
01000000
00001000
00000000
00000000
00010000
00000000
00000100
00000000
,
00001000
00000000
00000000
00001010
00000000
00000000
00000100
00000001
00001000
00000000
00001000
00000100
00000000
00000000
00000100
00000000
,
00000010
00000000
00000000
00000010
00000001
00000000
00000001
00000000
00000100
00000000
00001000
00000000
00010000
00000000
01000000
00000000
,
10000000
00000000
00100000
01010000
00000000
01000100
00000000
00011000
,
00000000
00000000
00100010
00000000
00000000
00000000
00010000
00000000
00001000
00000000
00010000
00000100
00000000
00000000
00001000
00000010
,
00000100
00000000
00001000
00000001
00000000
00000010
00000100
00000000
00001000
00000000
00000001
00000100
00000000
00000000
00001000
00000000
,
00010000
00000000
00000100
00010000
00000000
00000000
00001000
01000000
00010000
00000000
00100000
00000000
01000000
00000000
00100000
00000000
,
10010000
00000000
00000000
00011000
00000000
00000000
00001001
00000000
00000110
00000000
00001000
00000100
00000000
00000000
00000010
00000000
,
00000001
00000000
00000000
00001100
00000000
00000000
00000010
00000100
00000001
00000000
00000010
00000000
00000100
00000000
00010000
00001000
,
00000100
00000000
00000000
00011000
00000000
00000000
00100000
00000000
10000000
00000000
01000000
00000000
00010000
00000000
01000000
00000000
,
10000000
00000000
00000000
10000000
00100000
00000000
01000000
00000000
01000000
00010000
00000000
00000000
00010000
00000000
01000000
00000000
,
00001000
00000000
00000000
00011000
00000000
00000000
00000010
00000000
00001000
00000000
00000000
00011000
00000000
00000000
00100000
00000000
,
00010000
00000000
00000000
00011000
00000000
00000000
00000100
00000000
00001000
00000000
00010000
01000000
00000000
00000000
01100000
00000000
,
10010000
00000000
00000000
00000000
;

//---------------dance-double - M.Emirzian----------------
#NOTES:
     dance-double:
     M.Emirzian:
     Easy:
     4:
     0.244,0.000,0.308,0.018,0.000,152.000,34.000,2.000,0.000,0.000,0.000:
00000000
00000000
00000000
00000000
,
00000000
00000000
00000000
00000000
,
00000000
00000000
00000000
00000000
,
00000000
00000000
00000000
00000000
,
00100000
00000000
01010000
00000000
,
00001000
00000000
00011000
00000000
,
00000010
00000000
00001010
00000000
,
00000001
00000000
00000010
00000001
,
00001000
00001000
00000001
00000001
,
00000000
00000100
00000010
00000000
,
00010000
00010000
00001000
00001000
,
00000000
01000000
00010000
00000000
,
00100000
00100000
01000000
01000000
,
00000000
10000000
00010000
00000000
,
01000000
01000000
00001000
00001000
,
00000000
00010000
00000100
00000000
,
00001000
00000001
00001000
00000000
,
00000100
00000010
00000001
00000100
,
00001001
00000000
00001100
00000000
,
00011000
00000000
01010000
00000000
,
00100000
10000000
00100000
00000000
,
01000000
00100000
00010000
10000000
,
10010000
00000000
01010000
00000000
,
00011000
00000000
00001010
00000000
,
00000100
00001000
00000100
00000000
,
00000001
00000100
00000010
00001000
,
00001010
00000000
00011000
00000000
,
01001000
00000000
01010000
00000000
,
01000000
10000000
01000000
00000000
,
00010000
10000000
01000000
00100000
,
00110000
00000000
00101000
00000000
,
00011000
00000000
00001100
00000000
,
00002002
00000000
00000000
00000000
,
00000000
00000000
00000000
00003003
,
00001000
00001000
00000001
00000001
,
00000000
00001000
00000100
00000000
,
00000010
00000010
00010000
00010000
,
00000000
00001000
01000000
00000000
,
00010000
00010000
01000000
01000000
,
00000000
00100000
10000000
00000000
,
01000000
01000000
00100000
00100000
,
00000000
00001000
00010000
00000000
,
00000100
00001000
00000100
00000000
,
00000010
00000001
00000100
00000010
,
00001010
00000000
00011000
00000000
,
00101000
00000000
00110000
00000000
,
00100000
10000000
00100000
00000000
,
01000000
00010000
00100000
01000000
,
11000000
00000000
00110000
00000000
,
00101000
00000000
00011000
00000000
,
00010000
00001000
00010000
00000000
,
00000100
00010000
00000010
00001000
,
00001010
00000000
00001001
00000000
,
00001100
00000000
00011000
00000000
,
00001000
00010000
00001000
01000000
,
00010000
01000000
00100000
10000000
,
00100000
01000000
00010000
00100000
,
00001000
00010000
00001000
00011000
,
00010010
00000000
00000000
00000000
;

//---------------dance-double - M.Emirzian----------------
#NOTES:
     dance-double:
     M.Emirzian:
     Medium:
     7:
     0.448,0.000,0.490,0.036,0.000,288.000,54.000,4.000,0.000,0.000,0.000:
00000000
00000000
00000000
00000000
,
00000000
00000000
00000000
00000000
,
00000000
00000000
00000000
00000000
,
00000000
00000000
00000000
00000000
,
00100000
10000000
00010000
00000000
11000000
00000000
00000000
00000000
,
00100000
00010000
01000000
00000000
01001000
00000000
00000000
00000000
,
00001000
00010000
00000100
00000000
00011000
00000000
00000000
00000000
,
00000100
00001000
00000010
00000000
00000110
00000000
00001000
00000000
,
00001100
00000000
00001010
00000000
00000100
00000001
00002000
00000000
,
00000000
00000000
00003100
00010000
00001000
01000000
00010000
00000000
,
00110000
00000000
01010000
00000000
00100000
10000000
00010000
00000000
,
00100000
01000000
10000000
01000000
00000000
00100000
00010000
00000000
,
11000000
00000000
10100000
00000000
01000000
00010000
20000000
00000000
,
00000000
00000000
31000000
00100000
00010000
01000000
00001000
00000000
,
00011000
00000000
00010100
00000000
00010000
00000100
00001000
00000000
,
00000010
00000100
00000001
00001000
00000100
00000010
00000001
00000000
,
00000100
00000010
00001000
00000000
00000100
00000010
00000001
00000000
,
00000100
00000010
00001000
00000100
00010000
00001000
01000000
00000000
,
01010000
00110000
01000000
10000000
,
10100000
00000000
10010000
00000000
01000000
00100000
00010000
00000000
,
01000000
00100000
10000000
00000000
01000000
00100000
00010000
00000000
,
01000000
00001000
00010000
00001000
00010000
00000100
00001000
00000000
,
00001010
00001100
00000010
00000001
,
00000110
00000000
00001001
00000000
00000100
00000010
00001000
00000000
,
00000100
00000010
00000001
00000000
00000100
00000010
00001000
00000000
,
00000100
00010000
00001000
01000000
00010000
10000000
01000000
00000000
,
00110000
01010000
00100000
10000000
,
11000000
00000000
10100000
00000000
01000000
00010000
10000000
00000000
,
01000000
00100000
00010000
00000000
01000000
00001000
00010000
00000000
,
00000100
00001000
00000100
00010000
00000100
00000010
00000001
00000000
,
00001100
00001010
00000100
00000001
,
00000011
00000000
00000101
00000000
00000100
00000010
00001000
00000000
,
00000100
00000000
00000000
00001001
00000000
00000000
00000000
00010000
,
00001000
01000000
00000000
00010000
01000000
00000000
00100000
00000000
,
10100000
00000000
11000000
00000000
00100000
00010000
20000000
00000000
,
00000000
00000000
31000000
00100000
00010000
01000000
00001000
00000000
,
00011000
00000000
00010100
00000000
00010000
00001000
00010000
00000000
,
00000100
00001000
00000010
00000100
00000000
00000010
00001000
00000000
,
00001100
00000000
00000011
00000000
00000100
00001000
00000002
00000000
,
00000000
00000000
00000103
00000010
00001000
00000100
00010000
00000000
,
00011000
00000000
01001000
00000000
00001000
01000000
00010000
00000000
,
01000000
00100000
10000000
01000000
00100000
00010000
01000000
00000000
,
00001000
00010000
00000100
00000000
00010000
00001000
01000000
00000000
,
00001000
00010000
00001000
00010000
00000100
00001000
00000001
00000000
,
00000110
00001001
00000100
00000010
,
00001010
00000000
00010010
00000000
00010000
00001000
01000000
00000000
,
00001000
01000000
00010000
00000000
01000000
00100000
10000000
00000000
,
01000000
00100000
00010000
10000000
00100000
01000000
00010000
00000000
,
00110000
01010000
00001000
00010000
,
00001100
00000000
00001010
00000000
00000100
00000010
00000001
00000000
,
00000100
00000010
00001000
00000000
00000100
00001000
00000001
00000000
,
00000100
00000010
00001000
00000100
00010000
00001000
01000000
00000000
,
00110000
01010000
00100000
10000000
,
11000000
00000000
00110000
00000000
01000000
10000000
00010000
00000000
,
01000000
00100000
10000000
00000000
01000000
00100000
00010000
00000000
,
01000000
00001000
00010000
00000100
00001000
00000100
00000010
00000000
,
00000011
00000101
00000010
00001000
,
00010010
00000000
00011000
00000000
00000100
00010000
00001000
00000000
,
01001000
00000000
00000000
00000000
;

//---------------dance-double - M.Emirzian----------------
#NOTES:
     dance-double:
     M.Emirzian:
     Hard:
     8:
     0.535,0.000,0.326,0.073,0.358,369.000,36.000,8.000,4.000,1.000,0.000:
00000000
00000000
00000000
00000000
,
00000000
00000000
00000000
00000000
,
00000000
00000000
00000000
00000000
,
00000000
00000000
00000000
00000000
,
00010000
00000000
01000000
00000000
00100000
10000000
00100000
00000000
01000000
00000000
00000000
00000000
00011000
00000000
00000000
00000000
,
00000100
00000000
00001000
00000000
00000001
00000010
00000001
00000000
00001000
00000000
00000000
00000000
00011000
00000000
00000000
00000000
,
01000000
00000000
00100000
00000000
10000000
00010000
10000000
00000000
01000000
00000000
00000000
00000000
00011000
00000000
00000000
00000000
,
00000010
00000000
00001000
00000000
00000001
00000100
00000001
00000000
00001001
00000000
00000000
00000000
00011000
00000000
00000000
00000000
,
00010000
00100000
00010000
10000000
00010000
01000000
00010000
00001000
,
00010000
01000000
00010000
10000000
00010000
00100000
00010000
00001000
,
00000010
00001000
00000001
00001000
00000100
00001000
00010000
00001000
,
00000100
00001000
00000001
00001000
00000010
00001000
00010000
00000000
,
00011000
00000000
00000000
00000000
01001000
00000000
00000000
00000000
00100000
00000000
00000000
10010000
00000000
00000000
00000000
00000000
,
M00M0000
00000000
00000000
00000000
10000000
00000000
01000000
00000000
00110000
00000000
00000000
10010000
00000000
00000000
00000000
00000000
,
00101000
00000000
00000000
00000000
00010100
00000000
00000000
00000000
00000010
00000000
00000000
00000101
00000000
00000000
00000000
00000000
,
00000010
00000000
00001000
00000100
00000000
00000010
00000001
00000000
00000100
00000000
00000010
00000000
00001000
00000000
00000000
00000000
,
00000100
00000000
00010000
00001000
00000000
00010000
00000100
00000000
00010000
00000000
00001000
01000000
00000000
00000000
00000000
00000000
,
00001000
00000000
00100000
00010000
00000000
00100000
01000000
00000000
10000000
00000000
00100000
00000000
01000000
00000000
00100000
00000000
,
10000000
00000000
00000000
01000000
00000000
00000000
00200000
00000000
00000000
00000000
00000000
00000000
00300000
00010000
01000000
00100000
,
00000000
00000000
00000000
10000000
00000000
00000000
01000000
00000000
00100000
00010000
00000000
00000000
01000000
00000000
00001000
00000000
,
00010000
00000000
00000000
00000100
00000000
00000000
00010000
00001000
00010000
00000000
00000010
00001000
00000000
00000000
00000100
00000000
,
00000010
00000000
00000000
00000001
00000000
00000000
00001000
00000000
00000010
00000000
00000100
00000000
00000001
00000000
00001000
00000000
,
00000100
00000000
00001000
00001100
00000000
00010010
00000000
01001000
,
00000000
00000000
00110000
00000000
00000000
00000000
01000000
00000000
10000000
00000000
00100000
01000000
00000000
00000000
01000000
00010000
,
10000000
00000000
01000000
00100000
00000000
00010000
10000000
00000000
01000000
00000000
00100000
00002000
00000000
00000000
00000000
00000000
,
00013000
00000000
00001000
00010000
00000000
00000000
00000100
00001000
00000100
00000000
00010000
00000000
00001000
00000000
00000010
00000000
,
00000001
00000000
00000000
00000100
00000000
00000000
00000010
00000000
00001000
00000000
00000100
00000020
00000000
00000000
00000000
00000000
,
00000031
00000000
00000000
00000100
00000000
00000000
00000010
00001000
00000010
00000000
00000100
00000000
00001000
00000000
00010000
00001000
,
00010000
00000000
00000000
00001000
00000000
00000000
01000000
00000000
00010000
00000000
00100000
00000000
01000000
00000000
10000000
00000000
,
00100000
00000000
00000000
00100000
10000000
00000000
01000000
00000000
00100000
00010000
00000000
00000000
00010000
00000000
00100000
00000000
,
00001000
00000000
00000000
00010000
00000000
00000000
01000000
00000000
00010000
00000000
00000000
00001000
00000000
00000000
00000010
00000000
,
00001000
00000000
00000000
00010000
00000000
00000000
00000100
00000000
00001000
00000000
00000010
00000100
00000000
00000000
00000000
00000000
,
00000220
00000000
00000000
00000000
00000000
00000000
00001001
00000330
00000000
00000000
00000000
00000000
00000000
00000000
00000010
00000000
,
00001000
00001001
00000000
00000010
00000110
00000000
00011000
00000000
,
00010000
00001000
00000100
00001000
00000001
00001000
00000010
00001000
,
00010000
00001000
00000010
00001000
00000001
00001000
00000100
00001000
,
00010000
01000000
00010000
10000000
00010000
00100000
00010000
00001000
,
00010000
00100000
00010000
10000000
00010000
01000000
00010000
00000000
,
00011000
00000000
00000000
00000000
00010010
00000000
00000000
00000000
00001000
00000000
00000000
00001100
00000000
00000000
00000000
00000000
,
0000M00M
00000000
00000000
00000000
00000001
00000000
00000100
00000000
00001010
00000000
00000000
00001001
00000000
00000000
00000000
00000000
,
00010010
00000000
00000000
00000000
01001000
00000000
00000000
00000000
00010000
00000000
00000000
00110000
00000000
00000000
00000000
00000000
,
01000000
00000000
10000000
00010000
00000000
10000000
01000000
00000000
00100000
00000000
00001000
00000000
00010000
00000000
00000000
00000000
,
00000100
00000000
00010000
00001000
00000000
00010000
00000010
00000000
00010000
00000000
00001000
00010000
00000000
00000000
00000000
00000000
,
00000100
00000000
00001000
00000010
00000000
00000100
00000001
00000000
00000010
00000000
00000100
00000000
00001000
00000000
00000001
00000000
,
00000100
00000000
00000000
00000010
00000000
00000000
00002000
00000000
00000000
00000000
00000000
00000000
00003000
00000010
00001000
00000010
,
00000000
00000000
00000000
00010000
00000000
00000000
00001000
00000000
00010000
00000100
00000000
00000000
00010000
00000000
00001000
00000000
,
01000000
00000000
00000000
00010000
00000000
00000000
01000000
00100000
10000000
00000000
01000000
00100000
00000000
00000000
00010000
00000000
,
10000000
00000000
00000000
01000000
00000000
00000000
00100000
00000000
00001000
00000000
00100000
00000000
00010000
00000000
01000000
00000000
,
00001000
00000000
00010000
01010000
00000000
00101000
00000000
00010100
,
00000000
00000000
00001010
00000000
00000000
00000000
00000001
00000000
00000100
00000000
00000010
00001000
00000000
00000000
00001100
00000000
,
00000010
00000000
00000001
00000100
00000000
00000010
00001000
00000000
00000100
00000000
00010000
00002000
00000000
00000000
00000000
00003000
,
00010000
00000000
00000100
00010000
00000000
00000000
00001000
01000000
00001000
00000000
00010000
00000000
00100000
00000000
10000000
00000000
,
01000000
00000000
00000000
00100000
00000000
00000000
00010000
00000000
01000000
00000000
00001000
00020000
00000000
00000000
00000000
00030000
,
00001000
00000000
00000000
01000000
00000000
00000000
00001000
00010000
00001000
00000000
00010000
00000000
00000100
00000000
00001000
00000001
,
00001000
00000000
00000000
00001000
00000000
00000000
00000100
00000000
00000010
00000000
00000001
00000000
00000100
00000000
00000010
00000000
,
00001000
00000000
00000000
00001000
00000100
00000000
00010000
00000000
00000010
00001000
00000000
00000000
00000100
00000000
00010000
00000000
,
00001000
00000000
00000000
01000000
00000000
00000000
00100000
00000000
10000000
00000000
00000000
01000000
00000000
00000000
00100000
00000000
,
00010000
00000000
00000000
01000000
00000000
00000000
00001000
00000000
00010000
00000000
00000100
00001000
00000000
00000000
00000010
00000000
,
00000101
00000000
00000000
00000000
;
