#TITLE:Little Kitty Mine;
#SUBTITLE:;
#ARTIST:Ni Ni;
#TITLETRANSLIT:;
#SUBTITLETRANSLIT:;
#ARTISTTRANSLIT:;
#GENRE:Bubblegum Dance;
#CREDIT:;
#BANNER:Little Kitty Mine-banner.png;
#BACKGROUND:Little Kitty Mine-bg.png;
#LYRICSPATH:;
#CDTITLE:;
#MUSIC:Little Kitty Mine.ogg;
#OFFSET:0.021;
#SAMPLESTART:49.980;
#SAMPLELENGTH:11.860;
#SELECTABLE:YES;
#BPMS:0.000=139.000;
#STOPS:;
#BGCHANGES:0.000=Little Kitty Mine-bg.png=1.000=0=0=1=====,
16.000=In The Groove 2/817_JumpBack.mpg=1.000=0=0=1=====,
32.000=In The Groove 2/439_JumpBack1.mpg=1.000=0=0=1===FadeRight==,
48.000=In The Groove 2/446_JumpBack_1.mpg=1.000=0=0=1=====,
64.000=-random-=1.000=0=0=1===FadeLeft==,
80.000=In The Groove 2/966_JumpBack.mpg=1.000=0=0=1=SongBgWithMovieViz====0.5^0.5^0.5^1,
84.000=-random-=1.000=0=0=1=====,
100.000=In The Groove 2/643_JumpBack.mpg=1.000=0=0=1===FadeLeft==,
116.000=In The Groove 2/817_JumpBack.mpg=1.000=0=0=1=====,
132.000=In The Groove 2/439_JumpBack_1.mpg=1.000=0=0=1===FadeRight==,
148.000=In The Groove 2/462_JumpBack.mpg=1.000=0=0=1=SongBgWithMovieViz====0.5^0.5^0.5^1,
152.000=In The Groove 2/439_JumpBack1.mpg=1.000=0=0=1===FadeLeft==,
168.000=-random-=1.000=0=0=1===FadeRight==,
180.000=In The Groove 2/465_JumpBack.mpg=1.000=0=0=1=SongBgWithMovieViz====0.5^0.5^0.5^1,
184.000=In The Groove 2/927_JumpBack.mpg=1.000=0=0=1=====,
200.000=-random-=1.000=0=0=1===FadeLeft==,
216.000=-random-=1.000=0=0=1===FadeRight==,
232.000=In The Groove 2/462_JumpBack.mpg=1.000=0=0=1===FadeUp==,
244.000=In The Groove 2/462_JumpBack.mpg=1.000=0=0=1=SongBgWithMovieViz====,
247.000=Little Kitty Mine-bg.png=1.000=0=0=1=====,
99999=-nosongbg-=1.000=0=0=0 // don't automatically add -songbackground-
;
#BGCHANGES2:16.000=yellow flash=1.000=0=0=1=====,
48.000=white flash=1.000=0=0=1=====,
80.000=yellow flash=1.000=0=0=1=====,
84.000=white flash=1.000=0=0=1=====,
112.000=yellow flash=1.000=0=0=1=====,
116.000=white flash=1.000=0=0=1=====,
148.000=yellow flash=1.000=0=0=1=====,
180.000=yellow flash=1.000=0=0=1=====,
184.000=white flash=1.000=0=0=1=====,
244.000=yellow flash=1.000=0=0=1=====,
247.000=white flash=1.000=0=0=1=====,
;
#KEYSOUNDS:;
// cache tags:
#FIRSTBEAT:15.000;
#LASTBEAT:248.000;
#SONGFILENAME:/Songs/In The Groove 2/Little Kitty Mine/Little Kitty Mine.sm;
#HASMUSIC:1;
#HASBANNER:1;
#MUSICLENGTH:108.777;
// end cache tags

//---------------dance-single - K.W----------------
#NOTES:
     dance-single:
     K.W:
     Hard:
     7:
     0.407,0.000,0.221,0.202,0.074,264.000,24.000,22.000,2.000,0.000,0.000:
0000
0000
0000
0000
,
0000
0000
0000
0000
,
0000
0000
0000
0000
,
0000
0000
0000
0MM0
,
0010
0100
0001
0000
0010
0000
0001
0000
,
1000
0000
0000
0010
0100
0000
0001
0000
0010
0000
0000
0000
0100
0000
0000
0000
,
0010
0001
1000
0000
0010
0100
0001
0000
,
0010
0100
0000
1001
0000
0000
1000
0100
,
0010
0000
0000
0000
0001
0000
0000
0010
0000
0000
0001
0000
0000
0000
0000
0000
,
1000
0000
0000
0010
0100
0000
0010
0000
1000
0000
0000
0000
0000
0000
0000
0000
,
0010
0010
0100
0000
0002
0000
0013
0000
,
0001
1000
0100
0000
1001
0000
0000
0000
,
0010
0100
0010
0100
0002
0000
0013
0000
,
0100
0000
0000
0100
1000
0000
0010
0000
0100
0000
0000
0000
0000
0000
0000
0000
,
0001
0001
1000
0000
0200
0000
0310
0000
,
0100
0000
0000
1001
0000
0000
0010
0100
,
0002
0010
0013
0000
,
0200
1000
1300
0000
,
0010
0100
0001
0000
1000
0000
0001
0000
,
0010
0000
0000
0010
0002
0000
0000
0000
1003
0000
0000
0000
0000
0000
0000
0000
,
0010
0000
0000
0100
0000
0000
1100
0000
0000
0000
0000
0000
1001
0000
0000
0000
,
0001
0000
0000
0001
0100
0000
0010
0000
0100
0000
0001
0000
0000
0000
2000
0000
,
0000
3010
0100
0001
0010
0000
0000
0000
,
0100
0000
0000
0100
1000
0000
0010
0000
0100
0000
0001
0000
0000
0000
0000
0000
,
1000
0000
0010
0100
0001
0000
0000
0000
,
2000
3020
0230
0302
,
0013
0000
0100
1100
0000
0000
0000
0000
,
0010
0001
0100
1000
,
0010
0100
0010
1001
0000
0000
0000
0000
,
0000
0011
0000
0110
0000
1001
1001
0000
,
0010
0100
0001
0000
1000
0000
0000
0000
,
0000
1100
0000
0110
0000
1001
1001
0000
,
0100
0020
0000
1030
0000
0000
0100
0010
,
0001
0000
0000
0000
1000
0000
0000
0010
0000
0000
0100
0000
0000
0000
0000
0000
,
0001
1000
0002
0000
0013
0000
0000
0000
,
0100
0010
0100
0010
0001
0000
1000
0000
,
0010
0000
0000
0010
0100
0000
0000
0000
0011
0000
0000
0000
0000
0000
0000
0000
,
1000
0000
0000
0010
0000
0000
1001
0000
0000
0000
0000
0000
0110
0000
0000
0000
,
0000
0001
0000
0010
0000
0001
0001
0001
,
0000
0100
0000
0010
0000
1000
1000
0000
,
0000
0001
0000
0010
0000
0001
1000
0001
,
0020
0230
1300
0000
,
0001
0100
1000
0100
,
0001
1000
0000
1001
0000
0000
0000
0000
,
0010
0100
0001
0000
2000
0000
3100
0000
,
0010
0000
0000
0100
0000
0000
1001
0000
0000
0000
0000
0000
0000
0000
0000
0000
,
1000
0010
0001
0000
0001
0010
1000
0000
,
1000
0100
0010
0000
0200
0000
0300
0000
,
1000
0010
0100
0000
0001
0010
0001
0000
,
1000
0010
0000
0101
0000
0000
0010
0001
,
2000
3100
0020
0130
,
0002
0013
1001
0000
,
0010
0100
0001
0000
0010
0001
1000
0000
,
0100
0000
0000
0100
0010
0000
0000
0000
1001
0000
0000
0000
0000
0000
0000
0000
,
1000
1000
0010
0010
0200
0000
0301
0000
,
0010
0000
0000
0010
0001
0000
0000
0000
1000
0000
0000
0000
0010
0000
0000
0000
,
0100
0100
0010
0010
1000
0000
0002
0000
,
0010
0100
0013
0000
,
0001
0100
0010
0000
0100
0010
1000
0000
,
0010
0000
0000
0010
0100
0000
0000
0000
0001
0000
0000
0000
0000
0000
0000
0000
,
1000
0100
0010
0000
0100
0000
0010
0000
,
0001
0000
0000
1000
0100
0000
0000
0000
0000
0000
0010
0000
1001
0000
0000
0000
;

//---------------dance-single - K.W----------------
#NOTES:
     dance-single:
     K.W:
     Easy:
     3:
     0.235,0.000,0.074,0.000,0.000,171.000,8.000,0.000,0.000,0.000,0.000:
0000
0000
0000
0000
,
0000
0000
0000
0000
,
0000
0000
0000
0000
,
0000
0000
0000
0000
,
0010
1000
0100
1000
,
0010
0010
0010
0000
,
1000
1000
0010
0100
,
0001
0000
0000
0010
0000
0000
0000
0000
,
0001
0100
0010
1000
,
0010
1000
0110
0000
,
0100
1000
0001
0100
,
0010
0001
1001
0000
,
1000
0010
0100
0001
,
1000
0001
0001
0000
,
0010
0100
0010
0001
,
1000
0000
0000
1000
0000
0000
0000
0000
,
1000
0001
0100
0001
,
0001
0100
0110
0000
,
0001
0010
0001
0000
,
1000
0100
1000
0000
,
1001
0000
0000
0000
,
0010
0010
0010
0000
,
1000
1000
1000
0000
,
0001
0001
0001
0000
,
0010
0010
0010
0000
,
0001
1000
0010
0000
,
0100
0001
1000
0000
,
1000
1000
0100
0000
,
1000
0001
0010
0000
,
0010
0001
0100
0001
,
1000
1000
1000
0000
,
0001
0001
0100
0000
,
0010
0000
0000
0100
0000
0000
0000
0000
,
0001
0010
0001
0000
,
0001
1000
0100
0000
,
1000
0001
1000
0010
,
0100
0000
0001
0000
,
1001
0000
0000
0000
,
0001
0010
0010
0000
,
0001
1000
1000
0000
,
0100
1000
1000
0000
,
0001
0100
0010
0000
,
1000
0001
0010
0000
,
0001
0000
0000
1000
0000
0000
0000
0000
,
1000
0010
0100
0100
,
0010
0000
0000
1001
0000
0000
0000
0000
,
0001
0100
0010
1000
,
0100
0100
1000
0000
,
0010
0100
0001
0001
,
0010
0000
0000
0001
0000
0000
0000
0000
,
1000
1000
0010
0000
,
0100
0000
0110
0000
,
0001
0010
0001
0000
,
1000
0100
1000
0000
,
0001
0000
0001
0000
,
0100
0100
0100
0000
,
0010
0000
0010
0000
,
1000
0000
0000
0100
0000
0000
0000
0000
,
1000
0001
0100
0000
,
0001
0001
0001
0000
,
1000
1000
0010
0010
,
0100
0000
0000
1001
;

//---------------dance-single - K.W----------------
#NOTES:
     dance-single:
     K.W:
     Medium:
     5:
     0.310,0.000,0.138,0.018,0.000,219.000,15.000,2.000,0.000,0.000,0.000:
0000
0000
0000
0000
,
0000
0000
0000
0000
,
0000
0000
0000
0000
,
0000
0000
0000
1001
,
0100
0010
1000
0000
0001
0010
0001
0000
,
1000
0100
1000
0000
,
0010
0010
0010
0000
0100
0000
0001
0000
,
0010
0000
0000
0110
0000
0000
0000
0000
,
1000
0100
1000
0010
,
0100
0001
0020
0000
,
0031
0001
0100
0100
,
0010
0100
0010
0000
1001
0000
0000
0000
,
1000
0100
1000
0000
0001
0000
0001
0000
,
0100
0010
1000
0000
,
0001
0010
0001
0000
1000
0000
1000
0000
,
0110
0000
0000
1001
0000
0000
0000
0000
,
0010
0001
0100
0001
,
0010
0100
2000
0000
,
3010
0100
0010
0000
0100
0000
0100
0000
,
0001
0010
0001
0000
1000
0000
0000
0000
,
0011
0000
0000
0000
,
1000
0000
1000
0000
1000
0100
1000
0000
,
0001
0000
0001
0000
0001
0010
0001
0000
,
0100
0000
0100
0000
0001
0010
0000
0010
,
0001
1000
0100
0000
,
1000
0001
0010
0001
,
1000
0000
0010
0100
0000
0000
0000
0000
,
0001
0010
0001
0100
,
0001
0000
0010
0010
0000
0000
0000
0000
,
0001
0100
0010
0000
1000
0000
0100
0000
,
1000
1000
1000
0000
,
0010
0100
0001
0000
0010
0000
0001
0000
,
1000
0000
0000
1100
0000
0000
0000
0000
,
1000
0010
0100
0001
,
0001
0010
0100
0000
,
1000
1000
0010
0010
,
0100
0001
0010
0000
0001
0000
0000
0000
,
1001
0000
0000
0000
,
0001
1000
0001
0000
0100
0000
0000
0000
,
0010
0010
0010
0000
,
0100
0001
0010
0000
0001
0000
0000
0000
,
1000
0100
1000
0100
1000
0000
0000
0000
,
0001
0100
1000
0100
,
0001
0000
0000
1001
0000
0000
0000
0000
,
0100
0001
0010
0010
,
0001
0000
0000
1100
0000
0000
0000
0000
,
0010
0100
0010
0000
1000
0000
0001
0000
,
0010
0010
0010
0000
,
0001
0100
0010
0000
1000
0000
0010
0000
,
0010
0000
0000
0110
0000
0000
0000
0000
,
1000
0010
0100
0001
,
0001
0010
0100
0000
,
1000
0100
1000
0000
0001
0000
1000
0000
,
0010
0100
0001
0000
,
1000
0100
1000
0100
1000
0000
1000
0000
,
0001
0001
0001
0000
,
0100
0010
0100
0010
0100
0000
0001
0000
,
0001
0000
0000
0110
0000
0000
0000
0000
,
1000
0100
1000
0000
0010
0000
0000
0000
,
0100
0010
0100
0000
0001
0000
0000
0000
,
1000
0100
1000
0100
1000
0000
0001
0000
,
0110
0000
1100
1001
;

//---------------dance-single - K. Ward----------------
#NOTES:
     dance-single:
     K. Ward:
     Challenge:
     9:
     0.542,0.000,0.285,0.267,0.299,353.000,31.000,29.000,5.000,2.000,0.000:
0000
0000
0000
0000
,
0000
0000
0000
0000
,
0000
0000
0000
0000
,
0000
0000
0000
0000
,
1200
0000
0000
0010
0000
0000
1000
0000
0000
0000
0010
0000
0310
0000
0000
0000
,
0021
0000
0000
0100
0000
0000
0001
0000
0000
0000
0100
0000
0130
0000
0000
0000
,
1000
0000
0000
0100
0000
0000
0010
0000
0000
0100
0010
0000
0001
0000
1000
0000
,
0010
0110
0000
1002
0000
0000
0010
0000
,
0103
1000
0100
0001
0010
0001
0100
1000
,
0200
0000
0002
0300
0013
0000
M0MM
0000
,
0100
0010
1001
0000
0010
0100
0011
0000
,
0100
0000
0000
0010
1000
0000
0100
0000
0010
0000
0100
0000
1001
0000
0000
0000
,
0010
0100
0001
0001
0010
0001
1000
1000
,
0100
0000
0000
0010
0100
0000
1000
0000
0002
0000
0000
0000
0013
0000
0000
0000
,
0100
0100
1000
0100
0020
0000
0130
0001
,
0010
0011
0000
1100
0000
0000
0010
0100
,
0002
0013
2000
3100
,
0010
0000
0000
0010
0100
0000
0001
0000
1001
0000
0000
0000
0000
0000
0000
0000
,
1000
1000
0010
0010
0200
0000
0002
0300
,
0013
0000
0000
0010
0100
0000
0010
0000
1001
0000
0000
0000
0000
0000
0000
0000
,
0100
0000
0000
0011
0000
0000
1100
0000
0000
0010
0000
0100
0001
0000
0000
0000
,
0000
0000
1000
0100
2000
0000
0000
0000
3000
0000
0010
0100
0020
0000
0000
0000
,
0030
1000
0100
0010
0110
0000
0011
0000
,
0100
0000
0000
0010
0100
0000
0010
0000
1000
0000
1001
0000
0000
0000
0010
0000
,
0200
0302
0023
0130
,
2200
0000
0000
0000
0001
3300
0000
0000
,
0022
0000
0000
1000
0033
0000
0000
0000
,
1000
0100
0020
0100
0000
0000
0031
0000
,
0100
0000
1000
0000
0100
0000
0010
0000
0000
1000
0000
0001
0010
0000
0000
0000
,
0001
0000
0000
0001
0010
0000
0000
0010
0001
0000
1000
0000
0001
0000
0000
0000
,
0100
0000
0000
0001
0010
0000
0000
0000
0001
0000
0100
0000
1000
0000
0100
0000
,
0001
0000
0000
0001
0100
0000
0000
0100
0010
0000
1000
0000
0001
0000
0000
0000
,
0010
0100
0000
1001
0000
0000
0000
0000
,
1000
0000
0100
1000
0000
0100
1000
0000
0010
0100
0010
0000
0100
0000
0001
0000
,
0010
0000
0100
0010
0000
0100
0010
0000
0001
0000
0100
0000
1000
0000
0100
0000
,
0001
0001
0001
0000
1000
1000
1000
0000
,
0010
0000
0000
0010
0100
0000
0001
0000
1000
0000
0001
0000
1000
0000
0000
0000
,
0010
0000
0000
1100
0000
0000
0011
0000
0000
0100
0000
0010
1000
0000
0000
0000
,
0010
0000
0000
0010
0000
0000
0010
0000
0000
0100
0001
0000
0010
0000
0001
0000
,
1000
0000
0000
1000
0000
0000
1000
0000
0000
0010
0100
0000
0001
0000
0010
0000
,
0001
0000
0000
0001
0000
0000
0001
0000
0000
1000
0100
0000
1000
0000
0010
0000
,
0100
1000
0100
0001
0020
0000
0130
0000
,
0010
0001
0012
0000
1003
0100
1200
0000
,
0310
0100
0010
0000
0000
0000
2002
0000
0000
0000
0000
0000
3003
0000
0000
0000
,
1000
0000
0100
1000
0010
0000
0100
0000
0001
0000
0000
0000
1000
0000
0000
0000
,
1001
0000
0000
1100
0000
0000
0022
0000
0000
0000
0033
0000
00MM
0000
0000
0000
,
1000
0000
0000
1000
0010
0000
0000
0010
0100
0000
0001
0000
0010
0000
0000
0000
,
0001
0000
0000
0100
0010
0000
0100
0000
0200
0000
0000
0000
0310
0000
0000
0000
,
1000
0000
0000
1000
0010
0000
0000
0010
0100
0000
0001
0000
0010
0000
0001
0000
,
1000
0100
0000
0011
0000
0000
0000
0000
,
0100
1000
0100
0001
0010
0001
0100
1000
,
0100
0000
0000
0100
0010
0000
0000
0010
1000
0000
0000
1000
0001
0000
1000
0000
,
0001
0001
0001
0000
1000
1000
1000
0000
,
0010
0100
0000
0010
0100
0000
0010
0000
1001
0000
0000
0000
0000
0000
0000
0000
,
1000
0000
0000
0100
0000
0000
0010
0000
0000
0001
1000
0000
0001
0000
1000
0000
,
0010
0000
0000
0100
0000
0000
0001
0000
0000
1000
0001
0000
1000
0000
0000
0000
,
0001
0000
0000
0100
0000
0000
0010
0000
0000
1000
0001
0000
1000
0000
0001
0000
,
0010
0001
0000
1100
0000
0000
0000
0000
,
0010
0000
0100
0010
0000
0100
0001
0000
0010
0001
0100
0000
0001
0000
1000
0000
,
0100
0000
1000
0100
0000
1000
0100
0000
0010
0000
0100
0000
0010
0000
0001
0000
,
1000
0000
0100
1000
0000
0100
1000
0000
0010
0000
0100
0000
0011
0000
0000
0000
,
1000
0000
0000
1000
0010
0000
0100
0000
0000
0010
0000
1000
0001
0000
0000
0000
;

//---------------dance-double - J.Casarino----------------
#NOTES:
     dance-double:
     J.Casarino:
     Hard:
     7:
     0.450,0.000,0.101,0.110,0.120,320.000,11.000,12.000,2.000,0.000,0.000:
00000000
00000000
00000000
00000000
,
00000000
00000000
00000000
00000000
,
00000000
00000000
00000000
00000000
,
00000000
00000000
00000000
00000000
,
00010000
00000100
00001000
00000100
00000010
00000000
00000001
00000000
,
00000100
00000000
00000000
00000100
00000010
00000000
00001000
00000000
00000010
00000000
00000000
00000000
00000000
00000000
00000000
00000000
,
00000001
00000010
00000001
00000100
00001000
00000000
00010000
01000000
,
00100000
01000000
00000000
10010000
00000000
00000000
01000000
00100000
,
10000000
00000000
00000000
00000000
00010000
00000000
00000000
00100000
00000000
00000000
00010000
00000000
00000000
00000000
00000000
00000000
,
10000000
00000000
00000000
00100000
01000000
00000000
00000000
00000000
01010000
00000000
00000000
00000000
00000000
00000000
00000000
00000000
,
00001000
00001000
00010000
00010000
00100000
00000000
00010000
00000000
,
00001000
00000000
00000000
00010000
00000010
00000000
00000000
00000000
00001010
00000000
00000000
00000000
00000000
00000000
00000000
00000000
,
00000001
00000001
00000010
00000100
00002000
00000000
00003010
00000000
,
00010000
00000000
00000000
00001000
00010000
00000000
00000010
00000000
00000010
00000000
00000000
00000000
00000000
00000000
00000000
00000000
,
00010000
00010000
00000010
00001000
00000200
00000000
00010300
00000100
,
00010000
00001000
00000000
00101000
00000000
00000000
00010000
00000010
,
00001000
00000000
00000000
00000000
00000001
00000000
00000000
00000010
00000000
00000000
00000001
00000000
00000000
00000000
00000000
00000000
,
00001000
00000000
00000000
00000010
00000100
00000000
00000010
00000000
00010000
00000000
00000000
00000000
00000000
00000000
00000000
00000000
,
00001000
00001000
00001000
00010000
00100000
00000000
01000000
00000000
,
00010000
00000000
00000000
10000000
00100000
00000000
01000000
00000000
00100000
00000000
00000000
00000000
00000000
00000000
00000000
00000000
,
00010000
00000000
00000000
00001000
00000000
00000000
00011000
00000000
00000000
00010000
00000000
00000100
00010000
00000000
00000000
00000000
,
00001000
01000000
00001000
00100000
00010000
00100000
00000000
02000000
,
00000000
13000000
00100000
01000000
00010000
00000000
00000000
00000000
,
00100000
00010000
00100000
00001000
00010000
00001000
00000000
00010000
,
00000100
00010000
00001000
00000100
00001000
00000000
00000000
00000100
,
00000002
00000023
00000230
00002300
,
00003020
00000000
00010030
00000100
00000000
00000000
00000000
00000001
,
00000010
00000100
00001000
00000000
00000010
00000000
00010000
00000000
,
00001000
00010000
00001000
01000000
00000000
00000000
00000000
00000000
,
00010000
00010000
10000000
10000000
00100000
01000000
00100000
00000000
,
01000000
00000000
00000000
00010000
01000000
00000000
00001000
00000000
00010000
00000000
00000000
00000000
00000000
00000000
00000000
00000000
,
00001000
00001000
00000100
00000100
00000010
00000000
00001000
00000001
,
00001000
00000010
00000000
00000110
00000000
00000000
00001000
00010000
,
01000000
00000000
00000000
00000000
10000000
00000000
00000000
00010000
00000000
00000000
10000000
00000000
00000000
00000000
00000000
00000000
,
00010000
00000000
00000000
10000000
00100000
00000000
00000000
00000000
01100000
00000000
00000000
00000000
00000000
00000000
00000000
00000000
,
00001000
00001000
00010000
00010000
00000100
00000000
00000010
00000000
,
00000001
00000000
00000000
00000100
00000010
00000000
00000000
00000000
00001001
00000000
00000000
00000000
00000000
00000000
00000000
00000000
,
00000001
00000000
00000000
00000100
00000000
00000000
00000010
00000000
00000000
00001000
00000000
00000010
00001000
00000000
00000100
00000000
,
00000100
00010000
00001000
00010000
00001000
00001000
00000000
01000000
,
00010000
01000000
00010000
10000000
10000000
00000000
00000000
10000000
,
00010000
00000000
10000000
00100000
01000000
00010000
00000000
01000000
,
00100000
10000000
01000000
00100000
01000000
00000000
00010000
00001000
,
00020000
02030000
23000000
30200000
,
00310000
00010000
00000000
00001000
00000000
00000000
00010000
00000000
,
00000010
00001000
00000010
00000000
00000100
00000001
00000100
00000000
,
00000010
00000000
00000000
00001000
00000000
00000000
00001100
00000000
00000000
00000000
00000000
00000000
00000000
00000000
00000000
00000000
,
00010000
00001000
00000100
00001000
00010000
00001000
00000100
00000000
,
00001000
00010000
00001000
00100000
00001000
00000000
00100000
00000000
,
00010000
01000000
00100000
01000000
10000000
01000000
00100000
01000000
,
00010000
10000000
00000000
10100000
00000000
00000000
10000000
01000000
,
00100000
00000000
00000000
00000000
00001000
00000000
00000000
00010000
00000000
00000000
00001000
00000000
01000000
00000000
00000000
00000000
,
00001000
00000000
00000000
00001000
01000000
00000000
00010000
00000000
00100000
00000000
00000000
00000000
00001000
00000000
00000000
00000000
,
00010000
00001000
00000010
00001000
00010000
00001000
00000010
00000000
,
00000001
00000000
00000000
00001000
00000100
00000000
00010000
00000000
00001000
00000000
00000000
00000000
00000000
00000000
00000000
00000000
,
00010000
00010000
00001000
00001000
00100000
00000000
00100000
00000000
,
00010000
00000000
00000000
10000000
00100000
00000000
10000000
00000000
01000000
00000000
00000000
00000000
00100000
00000000
00000000
00000000
,
00001000
00001000
00010000
00010000
00000010
00000000
00000010
00001000
,
00000010
00000100
00000000
00000001
00000000
00000000
00000010
00000100
,
00000010
00000000
00000000
00000000
00001000
00000000
00000000
00010000
00000000
00000000
00001000
00000000
00010000
00000000
00000000
00000000
,
00100000
00000000
00000000
01000000
00100000
00000000
10000000
00000000
01000000
00000000
00000000
00000000
10000000
00000000
00000000
00000000
,
00100000
00100000
00010000
00010000
00001000
00000100
00001000
00000000
,
00010000
00000000
00000000
00000010
00001000
00000000
00000001
00000000
00000010
00000000
00000000
00000000
00001001
00000000
00000000
00000000
,
0000M00M
00000000
00000000
00000000
;

//---------------dance-double - J.Casarino----------------
#NOTES:
     dance-double:
     J.Casarino:
     Medium:
     5:
     0.317,0.000,0.083,0.018,0.000,230.000,9.000,2.000,0.000,0.000,0.000:
00000000
00000000
00000000
00000000
,
00000000
00000000
00000000
00000000
,
00000000
00000000
00000000
00000000
,
00000000
00000000
00000000
00000000
,
00010000
00001000
00010000
00000000
00001000
00010000
00001000
00000000
,
00000010
00000001
00000010
00000000
,
00000100
00010000
00000100
00000000
00010000
00000000
00001000
00000000
,
00010000
00000000
00000000
01010000
00000000
00000000
00000000
00000000
,
00100000
10000000
00100000
01000000
,
00001000
00010000
00002000
00000000
,
00003100
00000100
00000001
00000001
,
00000010
00000100
00000010
00000000
00000001
00000000
00000000
00000000
,
00001000
00000100
00001000
00000000
00000010
00000000
00000010
00000000
,
00010000
00001000
00010000
00000000
,
00000010
00000100
00000010
00000000
00001000
00000000
00001000
00000000
,
00000101
00000000
00000000
00010010
00000000
00000000
00000000
00000000
,
00001000
00010000
00001000
00100000
,
00010000
01000000
00200000
00000000
,
10300000
01000000
10000000
00000000
00100000
00000000
00100000
00000000
,
01000000
00001000
01000000
00000000
00010000
00000000
00000000
00000000
,
01100000
00000000
00000000
00000000
,
10000000
00000000
10000000
00000000
10000000
01000000
10000000
00000000
,
01000000
00000000
01000000
00000000
01000000
00010000
01000000
00000000
,
00010000
00000000
00010000
00000000
00010000
00001000
00010000
00000000
,
00000010
00001000
00000100
00000000
,
00001000
00000010
00001000
00000100
,
00000010
00000000
00000001
00000010
00000000
00000000
00000000
00000000
,
00000001
00000100
00000010
00001000
,
00000100
00000000
00010000
00010000
00000000
00000000
00000000
00000000
,
00001000
00010000
00000010
00000000
00001000
00000000
00001000
00000000
,
00000001
00000100
00001000
00000000
,
00010000
00001000
01000000
00000000
00010000
00000000
00100000
00000000
,
01000000
00000000
00000000
10010000
00000000
00000000
00000000
00000000
,
10000000
00100000
01000000
00010000
,
00010000
10000000
00100000
00000000
,
01000000
00001000
00010000
00000000
00100000
00000000
00100000
00000000
,
10000000
01000000
00100000
00000000
00001000
00000000
00000000
00000000
,
00010100
00000000
00000000
00000000
,
00000001
00000000
00000100
00000000
00000001
00000100
00000001
00000000
,
00000100
00000000
00001000
00000000
00000100
00001000
00000100
00000000
,
00001000
00000000
00010000
00000000
00001000
00010000
00001000
00000000
,
01000000
00000000
00010000
00000000
00100000
00000000
00010000
10000000
,
00010000
01000000
00010000
10000000
,
01000000
00100000
00000000
01000000
00000000
00000000
00000000
00000000
,
10000000
00100000
01000000
00010000
,
00100000
00000000
00001000
00001000
00000000
00000000
00000000
00000000
,
00010000
00001000
00000100
00000000
00001000
00000000
00001000
00000000
,
00010000
01000000
00010000
00000000
,
00001000
00010000
01000000
00000000
00010000
00000000
00001000
00000000
,
00000100
00000000
00000000
00001001
00000000
00000000
00000000
00000000
,
00000001
00000100
00001000
00000100
,
00000001
00000010
00000100
00000000
,
00000010
00001000
00010000
00000000
00001000
00000000
00010000
00000000
,
00100000
00010000
00001000
00000000
00010000
00000000
00000000
00000000
,
00001000
01000000
00010000
01000000
00100000
00000000
10000000
00000000
,
01000000
00000000
00010000
00001000
00010000
00000000
00000000
00000000
,
00010000
00000100
00001000
00000100
00000010
00000000
00000001
00000000
,
00000100
00000000
00000000
00010010
00000000
00000000
00000000
00000000
,
00010000
00000010
00001000
00000000
00000100
00000000
00000000
00000000
,
00010000
00001000
00100000
00000000
01000000
00000000
00000000
00000000
,
10000000
00100000
10000000
00100000
00010000
00000000
00001000
00000000
,
00010000
00100000
01000000
00001000
00010000
00000000
00001100
00000000
;

//---------------dance-double - J.Casarino----------------
#NOTES:
     dance-double:
     J.Casarino:
     Easy:
     3:
     0.239,0.000,0.083,0.000,0.000,173.000,9.000,0.000,0.000,0.000,0.000:
00000000
00000000
00000000
00000000
,
00000000
00000000
00000000
00000000
,
00000000
00000000
00000000
00000000
,
00000000
00000000
00000000
00000000
,
00010000
10000000
00010000
10000000
,
00100000
00100000
00100000
00000000
,
00010000
00010000
00001000
00010000
,
00000100
00000000
00000000
00000100
00000000
00000000
00000000
00000000
,
00001001
00000000
00000110
00000000
,
00000001
00000100
00001000
00000000
,
00001000
00010000
00001000
00001000
,
01000000
00100000
01000000
00000000
,
10000000
01000000
00100000
00010000
,
01000000
00001000
00001000
00000000
,
00010000
00000100
00001000
00000010
,
00000100
00000000
00000000
00000100
00000000
00000000
00000000
00000000
,
00000001
00000100
00000001
00000100
,
00001000
00000100
00001000
00000000
,
00010000
00001000
00010000
00000000
,
00001000
00010000
00001000
00000000
,
00011000
00000000
00000000
00000000
,
00000100
00000100
00000100
00000000
,
00001000
00001000
00001000
00000000
,
00000001
00000001
00000001
00000000
,
00000010
00000010
00000010
00000000
,
00000001
00000100
00001000
00000000
,
00000100
00001000
00010000
00000000
,
00001000
00010000
01000000
00000000
,
00010000
01000000
10000000
00000000
,
00010000
00100000
00001000
00001000
,
00010000
00000100
00010000
00000000
,
00000100
00001000
00000001
00000000
,
00000100
00000000
00000000
00000100
00000000
00000000
00000000
00000000
,
00000001
00000010
00000001
00000000
,
00001000
00000100
00001000
00000000
,
00000010
00010000
00001000
00001000
,
00010000
00001000
01000000
00000000
,
10010000
00000000
00000000
00000000
,
01000000
01000000
00010000
00000000
,
00010000
00010000
10000000
00000000
,
10000000
10000000
00100000
00000000
,
00100000
00100000
10000000
00000000
,
10000000
01000000
00100000
00000000
,
01000000
00100000
00001000
00000000
,
00010000
00001000
00000010
00000000
,
00001000
00000010
00000001
00000000
,
00001000
00000010
00010000
00010000
,
00001000
00100000
01000000
00000000
,
10000000
00100000
00010000
00000000
,
00100000
00000000
00000000
00100000
00000000
00000000
00000000
00000000
,
10000000
01000000
10000000
00000000
,
00010000
00100000
00010000
00000000
,
01000000
00001000
00010000
00010000
,
00000100
00010000
00000100
00000000
,
00001001
00000000
00000110
00000000
,
00010000
00001000
00010000
00000000
,
01100000
00000000
10010000
00000000
,
00010000
00000000
00000000
01000000
00000000
00000000
00000000
00000000
,
00001000
00010000
00001000
00000000
,
00000010
00000100
00000010
00000000
,
00000001
00000100
00001000
00000000
,
00010000
00001000
00010000
00011000
;

//---------------dance-double - J.Casarino----------------
#NOTES:
     dance-double:
     J.Casarino:
     Challenge:
     9:
     0.638,0.000,0.322,0.147,0.225,435.000,35.000,16.000,26.000,6.000,0.000:
00000000
00000000
00000000
00000000
,
00000000
00000000
00000000
00000000
,
00000000
00000000
00000000
00000000
,
00000000
00000000
00000000
00000000
,
00001000
00000000
00010000
00100000
01000000
00000000
00010000
00100000
01000000
00000000
00010000
00000000
00001000
00000000
00000010
00000000
,
00000001
00000100
00000001
00000010
00000100
00010000
00011000
00000000
,
00001000
00000000
00000100
00000010
00001000
00000000
00000100
00000010
00001000
00000000
00010000
00000000
00100000
00000000
10000000
00000000
,
01000000
00010000
01000000
00110000
00000000
00000000
00010000
00100000
,
00102000
00000000
00000000
00000000
00003200
00000000
00000000
00000302
00000000
00000000
00000023
00000000
00000030
00000000
000000MM
00000000
,
00001001
00000000
00000010
00000100
00000010
00000000
00001000
00000000
00000001
00000000
00000100
00000000
00001000
00000000
00000000
00000000
,
00010000
00000000
01000000
00100000
00010000
00000000
01000000
00100000
00010000
00000000
00100000
00000000
10000000
00000000
01000000
00000000
,
00010000
00000100
00010000
01000000
00100000
00001000
00010010
00000000
,
00001000
00000000
00000010
00001000
00000100
00000000
00010000
00000000
00001000
00000000
00010000
00000000
01000000
00000000
00100000
00000000
,
00010000
00000000
01000000
00010000
00100000
00000000
10000000
00000000
00100000
00000000
01000000
00000000
11000000
00000000
00000000
00000000
,
00100000
00000000
01000000
00010000
00100000
00000000
00001000
00000000
00010000
00000000
00001000
00000000
00000100
00000000
00000010
00000000
,
00000100
00001000
00010000
00000010
00000001
00000010
00000100
00000001
,
00001001
00000000
00000000
00000000
0000M00M
00000000
00000000
00000000
00000110
00000000
00000000
00000MM0
00000000
00000000
00011000
00000000
00000000
000MM000
00000000
00000000
01100000
00000000
00000000
00000000
00000000
00000000
00000000
00000000
0MM00000
00000000
00000000
00000000
,
10010000
00000000
00100000
01000000
00100000
00000000
00010000
00000000
10000000
00000000
01000000
00000000
00010000
00000000
00000000
00000000
,
00001000
00000000
00010000
00000010
00001000
00000000
00000100
00000000
00000001
00000000
00000100
00000000
00001000
00000000
00000010
00000000
,
00010000
00000000
00001000
00100000
00010000
00000000
01000000
00000000
10000000
00000000
01000000
00000000
00100000
00000000
10000000
00000000
,
20020000
00000000
00000000
00100000
00000000
00000000
31030000
00000000
,
10000000
00010000
01000000
00001000
00010000
00010000
00000000
00000010
,
00001000
00000100
00000010
00000001
00000010
00000100
00010000
00000000
,
00000010
00010000
00001000
00000100
00000010
00001000
00000000
00000001
,
00000100
00001000
01000000
10000000
10000000
00000000
00000000
01000000
,
0M001000
00000010
00000100
00000000
00010M00
00100000
01000000
00000000
,
00001000
00000010
00000002
00000200
00000000
00000000
00001313
00000000
,
00000001
00000010
00000100
00001000
00000010
00010000
00001000
01000000
,
00010000
00100000
10000000
00010000
01000000
00100000
00110000
00000000
,
00001000
00000000
00100000
00010000
00100000
00000000
00100000
01000000
00100000
00000000
10000000
00000000
00100000
00000000
01000000
00000000
,
00100000
00010000
00100000
00001000
00000010
00000100
00001100
0000MM00
,
00010000
00000000
00000010
00001000
00000010
00000000
00000010
00000100
00000010
00000000
00000001
00000000
00000010
00000000
00010000
00000000
,
00001000
00100000
00010000
11000000
00000000
00000000
01000000
00100000
,
00020000
00000000
00000000
00000000
00032000
00000000
00000000
00003100
00000000
00000000
00000110
00000000
00000000
00000000
00000MM0
00000000
,
00001001
00000000
00000100
00000010
00000100
00000000
00001000
00000000
00000001
00000000
00000010
00000000
00001000
00000000
00000000
00000000
,
00010000
00000000
00000100
00001000
00000100
00000000
00000100
00000010
00000100
00000000
00000001
00000000
00000100
00000000
00010000
00000000
,
00001000
00010000
00100000
00010000
00001000
00000010
00000001
00001000
,
00002002
00000000
00000000
00000100
00000000
00000000
00003013
00000000
,
00000001
00001000
00000100
01000000
00001000
00010000
00000000
00001000
,
01000000
00010000
10000000
00100000
10000000
00000000
01000000
00100000
,
00001000
00100000
00000010
00010000
00000100
00001000
00000000
00000001
,
00000010
00000001
00000100
00000010
00010000
00000000
00001000
00000100
,
00000001
00000000
00000010
00001000
00100000
00000000
00010000
01000000
,
10000000
01000000
00100000
20200000
00000000
00000000
31310000
00000000
,
10000000
00010000
01000000
00001000
00010000
00000010
00000100
00000001
,
00000100
00001000
00010000
00000010
00001000
00000100
00010100
00000000
,
00010000
00000000
00000010
00001000
00000100
00000000
00000010
00000001
00000100
00000000
00000010
00000000
00001000
00000000
00000010
00000000
,
00010000
00001000
00010000
00000100
01000000
00001000
00101000
00000000
,
00001000
00000000
00100000
00010000
01000000
00000000
00100000
10000000
01000000
00000000
00100000
00000000
00010000
00000000
00100000
00000000
,
00001000
00000010
00000100
00010100
00000000
00000000
00001000
00000001
,
00000200
00000000
00000000
00000000
00002300
00000000
00000000
00103000
00000000
00000000
10100000
00000000
00000000
00000000
M0M00000
00000000
,
10010000
00000000
01000000
00100000
01000000
00000000
00010000
00000000
10000000
00000000
00100000
00000000
00010000
00000000
00000000
00000000
,
00001000
00000000
00100000
00010000
01000000
00000000
01000000
00010000
00100000
00000000
00001000
00000000
00010000
00000000
00001000
00000000
,
00000010
00000100
00000001
00001000
00000001
00000100
00000110
00000000
,
00001001
00000000
00000100
00000001
00000100
00000000
00000010
00001000
00000010
00000000
00010000
00000100
00010000
00000000
00001000
00010000
,
00001000
00010000
00000100
00000010
00000001
00000100
00000010
00010000
,
00001000
00000000
01000000
00001000
01000000
00000000
00010000
00100000
00010000
00000000
00100000
00001000
00100000
00000000
01000000
10000000
,
01000000
10000000
00100000
10000000
00010000
00100000
01000000
00100000
,
10010000
00000000
00000000
00000000
M00M0000
00000000
00000000
00000000
00011000
00000000
00000000
000MM000
00000000
00000000
00001001
00000000
00000000
0000M00M
00000000
00000000
00011000
00000000
00000000
00000000
00000000
00000000
00000000
00000000
000MM000
00000000
00000000
00000000
,
00011000
00000000
00010000
00001000
00010000
00000000
00001000
00000000
01000000
00000000
00010000
00000000
00110000
00000000
00000000
00000000
,
10000000
00000000
01000000
10000000
00010000
00000000
10000000
00010000
00100000
00000000
00010000
00100000
00001000
00000000
00010000
00001000
,
01000000
00001000
00010000
00100000
00010000
00000100
00010100
00000000
;

//---------------dance-single - K. Ward----------------
#NOTES:
     dance-single:
     K. Ward:
     Beginner:
     1:
     0.096,0.000,0.055,0.000,0.000,67.000,6.000,0.000,0.000,0.000,0.000:

0000
0000
0000
0000
,
0000
0000
0000
0000
,
0000
0000
0000
0000
,
0000
0000
0000
0000
,
1000
0000
0000
0000
,
0001
0000
0000
0000
,
0001
0000
0000
0000
,
1000
0000
0000
0000
,
0010
0000
0010
0000
,
0100
0000
0100
0000
,
0001
0000
0000
0000
,
1000
0000
0000
0000
,
0100
0000
0000
0000
,
1000
0000
0000
0000
,
0010
0000
0000
0000
,
0001
0000
0000
0000
,
1000
0000
0001
0000
,
1000
0000
0001
0000
,
1000
0000
0000
0000
,
0001
0000
0000
0000
,
1001
0000
0000
0000
,
1000
0000
0000
0000
,
0001
0000
0000
0000
,
0010
0000
0000
0000
,
0001
0000
0000
0000
,
1000
0000
1000
0000
,
1000
0000
0000
0000
,
0001
0000
0001
0000
,
0001
0000
0000
0000
,
0100
0000
0000
0000
,
0100
0000
0000
0000
,
0001
0000
0000
0000
,
0001
0000
0000
0000
,
0100
0000
0000
0000
,
1000
0000
0000
0000
,
0010
0000
0000
0000
,
0001
0000
0000
0000
,
1001
0000
0000
0000
,
0010
0000
0000
0000
,
0100
0000
0000
0000
,
0010
0000
0000
0000
,
1000
0000
0001
0000
,
1000
0000
0000
0000
,
0100
0000
0000
0000
,
1000
0000
0000
0000
,
1001
0000
0000
0000
,
0110
0000
0000
0000
,
0000
0000
0000
0000
,
0110
0000
0000
0000
,
0000
0000
0000
0000
,
0001
0000
0000
0000
,
1000
0000
0000
0000
,
0010
0000
0010
0000
,
0100
0000
0000
0000
,
0001
0000
0000
0000
,
1000
0000
0000
0000
,
1000
0000
0000
0000
,
0001
0000
0000
0000
,
0010
0000
0010
0000
,
0001
0000
0000
0000
,
1000
0000
1000
0000
,
0100
0000
0000
1001
;
