#TITLE:D-Code;
#SUBTITLE:;
#ARTIST:Dust Devil;
#TITLETRANSLIT:;
#SUBTITLETRANSLIT:;
#ARTISTTRANSLIT:;
#GENRE:Electronic Score;
#CREDIT:;
#BANNER:D-Code-banner.png;
#BACKGROUND:D-Code-bg.png;
#LYRICSPATH:;
#CDTITLE:;
#MUSIC:D-Code.ogg;
#OFFSET:0.004;
#SAMPLESTART:62.400;
#SAMPLELENGTH:11.960;
#SELECTABLE:YES;
#BPMS:0.000=100.000;
#STOPS:;
#BGCHANGES:0.000=D-Code-bg.png=1.000=0=0=1=====,
8.000=In The Groove 2/431_JumpBack.mpg=1.000=0=0=1=====,
16.000=-random-=1.000=0=0=1=====,
24.000=In The Groove 2/461_JumpBack.mpg=1.000=0=0=1===SlideLeft==,
32.000=In The Groove 2/627_JumpBack.mpg=1.000=0=0=1===SlideRight==,
40.000=In The Groove 2/449_JumpBack.mpg=1.000=0=0=1===SlideUp==,
48.000=In The Groove 2/429_JumpBack.mpg=1.000=0=0=1===SlideDown==,
56.000=In The Groove 2/431_JumpBack.mpg=1.000=0=0=1=====,
64.000=In The Groove 2/620_JumpBack.mpg=1.000=0=0=1=====,
70.000=In The Groove 2/620_JumpBack.mpg=1.000=0=0=1=SongBgWithMovieViz====,
70.500=In The Groove 2/620_JumpBack.mpg=1.000=0=0=1=====,
71.000=In The Groove 2/620_JumpBack.mpg=1.000=0=0=1=SongBgWithMovieViz====,
71.500=In The Groove 2/620_JumpBack.mpg=1.000=0=0=1=====,
72.000=-random-=1.000=0=0=1=====,
80.000=-random-=1.000=0=0=1=====,
88.000=-random-=1.000=0=0=1===FadeLeft==,
96.000=-random-=1.000=0=0=1===FadeRight==,
104.000=-random-=1.000=0=0=1===FadeUp==,
112.000=-random-=1.000=0=0=1===FadeDown==,
120.000=In The Groove 2/464_JumpBack.mpg=0.500=0=0=1=Checkerboard2File2x2=D-Code-bg.png===,
128.000=D-Code-bg.png=0.500=0=0=1=Checkerboard2File2x2=In The Groove 2/920_JumpBack.mpg=FadeLeft==,
136.000=In The Groove 2/620_JumpBack.mpg=0.500=0=0=1=Checkerboard2File2x2=D-Code-bg.png=FadeRight==,
144.000=D-Code-bg.png=0.500=0=0=1=Checkerboard2File2x2=In The Groove 2/431_JumpBack.mpg=FadeUp==,
152.000=In The Groove 2/429_JumpBack.mpg=1.000=0=0=1=====,
160.000=-random-=1.000=0=0=1=====,
168.000=In The Groove 2/620_JumpBack.mpg=1.000=0=0=1=====,
172.000=D-Code-bg.png=1.000=1=0=1===CrossFade==,
99999=-nosongbg-=1.000=0=0=0 // don't automatically add -songbackground-
;
#BGCHANGES2:72.000=white flash=1.000=0=0=1=====,
166.000=yellow flash=1.000=0=0=1=====,
167.000=yellow flash=1.000=0=0=1=====,
168.000=white flash=1.000=0=0=1=====,
;
#KEYSOUNDS:;
// cache tags:
#FIRSTBEAT:6.000;
#LASTBEAT:172.750;
#SONGFILENAME:/Songs/In The Groove 2/D-Code/D-Code.sm;
#HASMUSIC:1;
#HASBANNER:1;
#MUSICLENGTH:105.599;
// end cache tags

//---------------dance-single - R. McKanna----------------
#NOTES:
     dance-single:
     R. McKanna:
     Challenge:
     10:
     0.616,0.139,0.540,0.038,0.824,394.000,57.000,4.000,64.000,0.000,0.000:
0000
0000
0000
0000
,
0000
0000
0000
0000
0000
0000
0000
0000
0001
0010
0001
0010
0000
0100
1000
0100
,
1000
0000
0001
0000
1001
0000
000M
0000
0010
0000
M000
0001
0000
0000
0010
0000
,
1010
0000
1000
0000
1001
0000
M000
0000
0100
0000
000M
1000
0000
0000
0100
0000
,
1100
0000
1000
0000
1001
0000
M000
0000
0010
0000
000M
1000
0000
0000
0010
0000
,
0011
0000
0001
0000
1001
0000
000M
0000
0100
0000
M000
0001
0000
0000
0100
0000
,
1000
0000
0001
1000
0000
0000
0010
0000
0100
0000
0001
0010
0000
0000
0100
0000
,
1000
0000
0100
0000
1000
0000
0100
0000
0000
0000
0000
0000
1000
0000
0000
0000
0000
0000
0010
0000
0000
0100
0000
0000
0001
0000
0000
0000
0000
0000
0001
0000
0000
0000
0000
0000
1000
0000
0000
0000
0000
0000
0010
0000
0000
0100
0000
0000
,
0001
0000
1000
0001
0000
0000
0100
0000
0010
0000
1000
0100
0000
0000
0010
0000
,
0001
0000
0010
0000
0001
0000
0010
0000
0000
0000
0000
0000
0001
0000
0000
0000
0000
0000
0100
0000
0000
0010
0000
0000
1000
0000
0000
0000
0000
0000
1000
0000
0000
0000
0000
0000
0001
0000
0000
0000
0000
0000
0100
0000
0000
0010
0000
0000
,
1000
0000
0001
1000
0000
0000
0100
0000
0010
0000
0001
0100
0000
0000
0010
0000
,
1000
0000
0010
0000
1000
0000
0010
0000
0000
0000
0000
0000
1000
0000
0000
0000
0000
0000
0100
0000
0000
0010
0000
0000
0001
0000
0000
0000
0000
0000
0001
0000
0000
0000
0000
0000
1000
0000
0000
0000
0000
0000
0100
0000
0000
0010
0000
0000
,
0001
0000
1000
0001
0000
0000
0010
0000
0100
0000
1000
0010
0000
0000
0100
0000
,
0001
0000
0100
0000
0001
0000
0100
0000
0000
0000
0000
0000
0001
0000
0000
0000
0000
0000
0010
0000
0000
0100
0000
0000
1000
0000
0000
0000
0000
0000
1000
0000
0000
0000
0000
0000
0001
0000
0000
0000
0000
0000
0010
0000
0000
0100
0000
0000
,
1000
0000
1010
0000
0000
1010
0000
1001
0000
1100
0000
0100
1000
0000
1001
0000
,
1010
0000
0101
0000
0000
0101
0000
1001
0000
0011
0000
0010
0001
0000
1001
0000
,
1M1M
0000
0000
0000
1M1M
0000
0000
0000
0000
0000
1M1M
0000
0000
0000
1MM1
0000
0000
0000
11MM
0000
0000
0000
1000
00MM
0100
0000
0000
0000
1MM1
0000
0000
0000
,
1M1M
0000
0000
0000
M1M1
0000
0000
0000
0000
0000
M1M1
0000
0000
0000
1MM1
0000
0000
0000
MM11
0000
0000
0000
0010
MM00
0001
0000
0000
0000
1MM1
0000
0000
0000
,
1000
0000
0000
0000
0201
0000
0000
0000
0000
0000
0000
1000
0000
0000
0310
0000
,
0001
0000
0000
0000
1020
0000
0000
0000
0000
0000
0000
0001
0000
0000
0130
0000
,
1000
0000
0000
0000
2000
0000
0000
0000
0000
0000
0000
0010
0000
0000
3100
0000
,
0001
0000
0000
0000
1002
0000
0000
0000
0000
0000
0000
0010
0000
0000
0103
0000
,
1000
0000
0100
0010
0000
0001
0010
0000
0100
0010
0000
0001
0010
0000
0100
0010
0000
0001
0010
0000
0100
0010
0000
0000
,
0001
0000
0100
0010
0000
1000
0010
0000
0100
0010
0000
1000
0010
0000
0100
0010
0000
1000
0010
0000
0100
0010
0000
1000
,
0001
0010
0100
1000
0000
0000
0000
0000
0001
1000
0100
0010
0001
0000
0000
0000
0000
1000
0001
0010
0100
1000
0000
0000
,
0001
0010
0100
1000
0000
0000
0000
0000
0001
1000
0100
0010
0001
0000
0000
0000
0000
1000
0001
0010
0100
1000
0000
0000
,
0001
0000
0100
0010
0000
1000
0010
0000
0100
0010
0000
1000
0010
0000
0100
0010
0000
1000
0010
0000
0100
0010
0000
0000
,
1000
0000
0100
0010
0000
0001
0010
0000
0100
0010
0000
0001
0010
0000
0100
0010
0000
0001
0010
0000
0100
0010
0000
0001
,
1000
0010
0100
0001
0000
0000
0000
0000
1000
0001
0100
0010
1000
0000
0000
0000
0000
0001
1000
0010
0100
0001
0000
0000
,
1000
0010
0100
0001
0000
0000
0000
0000
1000
0001
0100
0010
1000
0000
0000
0000
0000
0001
1000
0010
0100
0001
0000
0000
,
1000
0100
1000
0000
0000
0001
0010
0001
0000
0000
0000
1000
0100
1000
0100
0000
,
0010
0100
0010
0000
0000
0000
0001
0010
0001
0000
0000
0000
0100
0001
0100
0010
,
0100
0000
0001
0000
0000
1000
0100
0010
0000
0010
0100
1000
0010
0100
0000
0000
,
0001
0010
0001
0000
0000
1000
0010
1000
0100
1000
0001
1000
0010
1000
0000
0000
,
0001
0010
0001
0000
0000
1000
0100
1000
0000
0000
0000
0001
0010
0001
0010
0000
,
0100
0010
0100
0000
0000
0000
1000
0100
1000
0000
0000
0000
0010
1000
0010
0100
,
0010
0000
1000
0000
0000
0001
0010
0100
0000
0100
0010
0001
0100
0010
0000
0000
,
1000
0100
1000
0000
0000
0001
0100
0001
0010
0001
1000
0001
0100
0001
0000
0000
,
0001
0000
0101
0000
0000
0101
0000
1001
0000
0011
0000
0010
0001
0000
1001
0000
,
0101
0000
1010
0000
0000
1010
0000
1001
0000
1100
0000
0100
1000
0000
1001
0000
,
M1M1
0000
0000
0000
M1M1
0000
0000
0000
0000
0000
M1M1
0000
0000
0000
1MM1
0000
0000
0000
MM11
0000
0000
0000
0001
MM00
0010
0000
0000
0000
1MM1
0000
0000
0000
,
M1M1
0000
0000
0000
1M1M
0000
0000
0000
0000
0000
1M1M
0000
0000
0000
1MM1
0000
0000
0000
11MM
0000
0000
0000
0100
00MM
1000
0000
0000
0000
1MM1
0000
0000
0000
,
1001
0000
0000
0000
;

//---------------dance-single - K.W----------------
#NOTES:
     dance-single:
     K.W:
     Hard:
     8:
     0.448,0.000,0.313,0.095,0.436,288.000,33.000,10.000,2.000,0.000,0.000:
0000
0000
0000
0000
,
0000
0000
0000
0000
,
1000
0000
0000
0000
0110
0000
0000
0000
0000
0000
0000
0001
0000
0000
0010
0000
,
0100
0000
0000
0000
0011
0000
0000
0000
0000
0000
0000
1000
0000
0000
0010
0000
,
0100
0000
0000
0000
1001
0000
0000
0000
0000
0000
0000
0010
0000
0000
0100
0000
,
0001
0000
1100
0000
0010
0100
0201
0000
,
0301
0000
0010
0000
0001
0000
0100
0000
0010
0000
0100
0001
0000
0000
0000
0000
,
1000
0000
0100
0000
0010
0000
0100
0000
0010
0000
0001
1000
0000
0000
0000
0000
,
0010
0000
0100
0000
0001
0000
0010
0000
0100
0000
0100
1000
0000
0000
0000
0000
,
0010
0000
0100
0000
0001
0000
0010
0000
0001
0000
0001
0010
0000
0000
0000
0000
,
0001
0000
1000
0000
0100
0000
0010
0000
0002
0000
0000
0013
0000
0000
0000
0000
,
0001
0000
0100
0000
1000
0000
0100
0000
0020
0000
0000
0130
0000
0000
0000
0000
,
0001
0000
0001
0000
0100
0000
1000
0000
0200
0000
0000
0301
0000
0000
0000
0000
,
0010
0010
0100
1000
0100
0010
1001
0000
,
1000
0000
0110
0000
0000
0001
0000
0110
0000
1000
0000
0100
1000
0000
1001
0000
,
0010
0000
0110
0000
0000
0001
0000
0011
0000
0100
0000
0010
1000
0000
1100
0000
,
0010
0000
0110
0000
0000
0001
0000
1010
0000
0100
0000
0010
0001
0000
1000
0000
,
0010
0000
1100
0000
0000
0010
0000
0001
2000
0000
0000
0000
3100
0000
MM00
0000
,
0100
1000
0010
0001
,
0010
0001
0100
1000
,
0100
1000
0010
0001
,
0010
0000
0001
0000
0100
1000
0200
0000
,
0301
0000
0010
0001
0000
0100
0000
0010
0000
0100
0001
0000
0011
0000
0000
0000
,
1000
0000
0100
1000
0000
0010
0000
0100
0000
0001
1000
0000
1001
0000
0000
0000
,
1000
0000
0100
1000
0000
0010
0000
0100
0000
0010
1000
0000
1100
0000
0000
0000
,
0001
0000
0010
0001
0000
0100
0000
0010
0000
1000
0001
0000
1001
0000
0000
0000
,
1000
0000
0100
0000
0010
0000
0100
0000
1000
0001
0000
0001
1000
0000
0000
0000
,
0010
0000
0100
0000
0010
0000
1000
0000
0001
0010
0000
0010
0001
0000
0000
0000
,
1000
0000
0010
0000
0001
0000
0010
0000
0001
0010
0000
0010
0100
0000
0000
0000
,
0001
0000
0100
0000
1000
0000
0100
0000
1000
0100
0000
0100
0010
0000
0000
0000
,
1000
0001
1000
0000
0000
0010
0100
0010
0000
0000
0000
1000
0100
1000
0100
0000
,
0010
0001
0010
0000
0000
0000
0001
1000
0001
0000
0000
0000
0010
0100
0010
0100
,
1000
0000
1001
0000
0000
0010
0100
0010
0000
0100
0001
0000
0001
0000
0000
0000
,
1000
0100
1000
0000
0000
0010
0100
0010
0100
0000
0001
0000
0001
0000
1000
0000
,
0001
1000
0001
0000
0000
0100
0010
0100
0000
0000
0000
0001
0010
0001
0010
0000
,
0100
1000
0100
0000
0000
0000
1000
0001
1000
0000
0000
0000
0010
0100
0010
0100
,
0010
0000
1001
0000
0000
0100
0010
0100
0000
0010
1000
0000
2000
0000
0000
0000
,
3001
0010
0001
0000
0000
0100
0010
0100
0010
0000
1000
0000
0002
0000
0000
0000
,
1003
0000
0110
0000
0000
0001
0000
0110
0000
1000
0000
0100
1000
0000
1001
0000
,
0010
0000
0110
0000
0000
1000
0000
1100
0000
0010
0000
0100
0001
0000
0011
0000
,
0100
0000
0110
0000
0000
0010
0000
1010
0000
1000
0000
0100
1000
0000
0100
0000
,
0010
0000
1001
0000
0000
0010
0000
0100
0001
0000
0000
0000
0110
0000
1001
0000
,
0220
0000
0000
0000
,
0000
0330
0000
0000
0000
0000
0000
0000
;

//---------------dance-single - K.W----------------
#NOTES:
     dance-single:
     K.W:
     Easy:
     3:
     0.168,0.000,0.123,0.047,0.000,106.000,13.000,5.000,0.000,0.000,0.000:
0000
0000
0000
0000
,
0000
0000
0000
0000
,
1000
0011
0000
0000
,
0001
1100
0000
0000
,
0010
0110
0000
0000
,
0100
1001
0000
0000
,
0001
0001
0100
0000
,
0001
0001
1000
0000
,
1000
1000
0100
0000
,
0100
0100
0010
0000
,
0001
1000
0010
0000
,
1000
0100
0010
0000
,
0100
0100
1000
0000
,
0010
0100
0001
0001
,
1000
0000
0000
0010
,
0010
0000
0000
0100
,
0100
0000
0000
0001
,
0001
0000
1000
1001
,
0000
1100
0000
0000
,
0000
0011
0000
0000
,
0000
0110
0000
0000
,
0000
1001
0000
2002
,
3003
1000
1000
1000
,
0000
0001
0001
0001
,
0000
1000
1000
1000
,
0000
0001
0001
0001
,
0100
0000
0100
0100
,
0010
0000
0010
0010
,
1000
1000
0000
0001
,
0010
0010
0000
0001
,
1000
0100
0010
0001
,
0010
0100
1000
1000
,
0010
0001
0010
1000
,
0100
0010
0100
1000
,
2000
0000
3001
0000
,
0020
0000
0130
0000
,
1000
1000
0000
0000
,
0001
0001
0000
0000
,
1000
0000
0001
0000
,
0100
0000
0010
0000
,
1000
1000
0000
1001
,
0001
0000
0110
1001
,
2000
0000
0000
0000
,
0000
3000
0000
0000
0000
0000
0000
0000
;

//---------------dance-single - K. Ward----------------
#NOTES:
     dance-single:
     K. Ward:
     Medium:
     5:
     0.298,0.000,0.322,0.057,0.000,180.000,34.000,6.000,0.000,0.000,0.000:
0000
0000
0000
0000
,
0000
0000
0000
0000
,
1000
1100
0000
0000
,
0001
0011
0000
0000
,
0100
1001
0000
0000
,
0010
1001
0000
0000
,
0010
0011
1000
1100
,
0001
0101
0100
1010
,
0010
0100
0001
0000
0100
0010
1000
0000
,
0001
0000
0011
0000
0100
1000
1100
0000
,
0010
0100
0010
0001
,
0010
0100
1000
0100
,
0010
0001
0100
0000
0010
0100
0001
0000
,
0010
0100
0010
0010
0100
0000
1100
0000
,
0010
0100
0001
0000
1000
0000
1100
0000
,
0010
0100
0010
0000
0100
0000
0011
0000
,
1000
0100
0010
0000
0100
0000
1100
0000
,
0010
0100
0001
0000
1000
0000
1100
0000
,
0000
0000
0011
0000
0000
0000
0100
1000
,
0100
0000
1001
0000
0000
0000
0010
0100
,
0001
0011
0000
1100
,
0010
0100
0001
0000
0020
0000
0000
0030
,
0100
1000
0100
0000
0100
0010
0100
0000
,
0100
1000
0100
0000
0010
0001
0010
0000
,
0100
1000
0000
1000
0010
0000
0000
0000
,
0100
0001
0000
0001
0010
0000
0001
0000
,
1000
0010
0100
0000
0010
1000
0010
0000
,
0010
0001
0010
0000
0100
1000
0100
0000
,
0001
1000
0000
1000
0100
0000
0000
0000
,
0010
0100
0000
0100
1000
0000
1001
0000
,
0100
0100
0000
0000
0020
0000
0130
0000
,
0001
0001
0000
0000
0020
0000
0031
0000
,
1000
1000
0000
0000
1001
0000
0110
0000
,
0001
0001
0000
0000
1001
0000
0110
0000
,
1000
0100
1000
0100
1000
0000
0110
0000
,
0001
0010
0001
0010
0001
0000
0110
0000
,
0000
0011
0000
1000
0200
0000
1300
0000
,
0000
0110
0000
0000
0001
0010
0010
0000
,
0001
1000
1000
0000
0010
0000
0110
0000
,
0010
0100
0100
0000
0010
0000
1100
0000
,
0010
0001
0100
0000
0010
0000
1100
0000
,
0010
0100
0001
0000
0011
0000
1100
0000
,
2002
0000
0000
0000
,
0000
3003
0000
0000
0000
0000
0000
0000
;

//---------------dance-single - ----------------
#NOTES:
     dance-single:
     :
     Beginner:
     1:
     0.080,0.000,0.000,0.000,0.000,59.000,0.000,0.000,0.000,0.000,0.000:

0000
0000
0000
0000
,
0000
0000
0000
0000
,
1000
0000
0000
0000
,
0010
0000
0000
0000
,
1000
0000
0000
0000
,
0001
0000
0000
0000
,
0010
0000
0010
0000
,
0001
0000
0001
0000
,
1000
0000
1000
0000
,
0100
0000
0100
0000
,
1000
0000
1000
0000
,
0001
0000
0001
0000
,
0010
0000
0000
0000
,
0001
0000
0000
0000
,
1000
0000
0000
0000
,
0001
0000
0000
0000
,
1000
0000
0000
0000
,
0001
0000
0000
0000
,
0100
0000
0000
0000
,
0010
0000
0000
0000
,
0100
0000
0000
0000
,
0001
0000
1000
0000
,
0001
0000
0001
0000
,
0001
0000
0001
0000
,
1000
0000
1000
0000
,
1000
0000
1000
0000
,
0010
0000
0010
0000
,
0100
0000
0100
0000
,
0001
0000
1000
0000
,
0010
0000
1000
0000
,
0001
0000
0000
0000
,
1000
0000
0000
0000
,
0100
0000
0000
0000
,
1000
0000
0010
0000
,
0100
0000
0000
0000
,
0001
0000
0000
0000
,
0010
0000
0000
0000
,
0001
0000
1000
0000
,
0001
0000
0000
0000
,
0001
0000
0000
0000
,
0010
0000
0000
0000
,
0010
0000
0000
0000
,
0100
0000
0000
0000
,
0000
0100
0000
0000
0000
0000
0000
0000
;

//---------------dance-double - M.Emirzian----------------
#NOTES:
     dance-double:
     M.Emirzian:
     Easy:
     2:
     0.123,0.000,0.009,0.019,0.000,88.000,1.000,2.000,0.000,0.000,0.000:
00000000
00000000
00000000
00000000
,
00000000
00000000
00000000
00000000
,
00000000
00000000
00000000
00000000
,
00000000
00000000
00000000
00000000
,
00100000
10000000
00000000
00000000
,
00001000
00010000
00000000
00000000
,
00000001
00001000
00000000
00000000
,
00000100
00010000
00000000
00000000
,
00001000
01000000
00000000
00000000
,
00100000
10000000
00000000
00000000
,
01000000
00010000
00000000
00000000
,
00001000
00010000
00000000
00000000
,
00001000
00000010
00000000
00000000
,
00000001
00001000
00000000
00000000
,
00000000
00000010
00000000
00010000
,
00000000
00001000
00000000
00010000
,
00000000
00100000
00000000
10000000
,
00000000
00010000
00000000
10000000
,
01000000
00000000
00000000
00100000
,
00010000
00000000
00000000
00001000
,
00010000
00000000
00000000
00001000
,
00000100
00000000
00000000
00000001
,
00001000
00000000
00010000
00000000
,
00001000
00000000
00010000
00000000
,
01000000
00000000
00010000
00000000
,
00001000
00000000
00000100
00000000
,
00001000
00000000
00010000
00000000
,
00100000
00000000
10000000
00000000
,
00100000
00000000
01000000
00000000
,
10000000
00000000
01000000
00000000
,
10000000
01000000
00000000
00010000
,
01000000
00010000
00000000
00000100
,
00001000
00000100
00000000
01000000
,
00010000
01000000
00000000
00000010
,
00001000
00000010
00000000
00100000
,
00010000
00100000
00000000
00001000
,
00000100
00001000
00000000
00000001
,
00001000
00000001
00000000
00000010
,
00000001
00000010
00000000
00000000
,
00000010
00000001
00000000
00001000
,
00000100
00000000
00000000
00010000
,
00001000
01000000
00010000
10000000
,
20020000
00000000
00000000
00000000
,
00000000
30030000
00000000
00000000
00000000
00000000
00000000
00000000
;

//---------------dance-double - M.Emirzian----------------
#NOTES:
     dance-double:
     M.Emirzian:
     Medium:
     5:
     0.296,0.000,0.256,0.019,0.000,190.000,27.000,2.000,0.000,0.000,0.000:
00000000
00000000
00000000
00000000
,
00000000
00000000
00000000
00000000
,
00000000
00000000
00000000
00000000
,
00000000
00000000
00000000
00000000
,
00100000
10010000
00000000
00000000
,
01000000
00011000
00000000
00000000
,
00000010
00010010
00000100
00001000
,
00000001
00000101
00000010
00001000
,
00000001
00001100
00010000
00001000
,
01000000
01010000
00100000
10000000
,
00010000
11000000
00100000
00010000
,
01000000
01010000
00001000
00010000
,
00000100
00001010
00000001
00000100
,
00000010
00001010
00000100
00010000
,
00001000
01000000
00010000
00000000
10000000
00000000
11000000
00000000
,
00010000
01000000
00001000
00000000
00010000
00000000
00001010
00000000
,
00000001
00000100
00000010
00000000
00001000
00000000
00001100
00000000
,
00000001
00001000
00000100
00000000
00010000
00000000
00011000
00000000
,
00001000
01000000
01010000
10010000
,
01000000
00100000
10010000
01010000
,
00001000
00010000
00010100
00001100
,
00000001
00000100
00001010
00010010
,
00001000
00010000
00001000
00000000
01000000
00010000
01000000
00000000
,
00000100
00001000
00000100
00000000
00100000
00010000
00100000
00000000
,
00010000
10000000
00000000
00001000
00010000
00000000
00000001
00001000
,
00000001
00000100
00000000
00000001
00001000
00000000
00010000
00001000
,
01000000
00010000
01000000
00000000
00000010
00001000
00000010
00000000
,
00100000
00010000
00100000
00000000
00000100
00001000
00000100
00000000
,
00001000
00000001
00000000
00010000
00001000
00000000
10000000
00010000
,
10000000
01000000
00000000
00100000
00010000
00000000
10000000
00010000
,
01000000
00001000
00000000
00010000
00000100
00000000
00001000
00000001
,
00000100
00000010
00000000
00001000
00000100
00000000
00010000
00001000
,
01000000
00010000
00000000
10000000
01000000
00000000
00100000
00010000
,
10000000
00100000
00000000
01000000
00010000
00000000
10000000
01000000
,
00100000
00010000
00000000
01000000
00001000
00000000
00010000
00000100
,
00001000
00000001
00000000
00000010
00000100
00000000
00001000
00000001
,
00000100
00000010
00000000
00001000
00000100
00000000
00010000
00001000
,
01000000
00010000
00000000
10000000
01000000
00000000
10000000
00100000
,
01000000
00010000
10000000
00000000
01000000
00000000
00110000
00000000
,
01000000
00001000
00010000
00000000
00000100
00000000
00001100
00000000
,
00000001
00000100
00000010
00000000
00001000
00000100
00010000
00000000
,
00001000
01000000
00010000
00000000
00110000
00000000
00101000
00000000
,
00020200
00000000
00000000
00000000
,
00000000
00030300
00000000
00000000
00000000
00000000
00000000
00000000
;

//---------------dance-double - M.Emirzian----------------
#NOTES:
     dance-double:
     M.Emirzian:
     Challenge:
     9:
     0.626,0.000,0.701,0.019,0.819,387.000,74.000,2.000,0.000,1.000,0.000:
00000000
00000000
00000000
00000000
,
00000000
00000000
00000000
00000000
,
00000000
00000000
00000000
00000000
,
00000000
00000000
00000000
00000000
,
00010000
10000000
01000000
00000000
00100000
00000000
00000000
10010000
00000000
00011000
00000000
00001001
00000000
00000000
00000001
00000000
,
00001000
00000100
00000010
00000000
00000001
00000000
00000100
00000000
00000110
00000000
00011000
00000000
01100000
00000000
10000000
00000000
,
00010000
00000000
01000000
00010000
00000000
10000000
00100000
00000000
01000000
00000000
00010000
10000000
00000000
01000000
00100000
00000000
,
00001000
00000000
01000000
00001000
00000000
00010000
00000100
00000000
00001000
00000000
00000001
00000100
00000000
00000010
00001000
00000000
,
00000100
00000000
00000010
00000001
00000100
00000000
00000010
00010000
00001000
00000000
00000100
00001000
00010000
00000000
00100000
00000000
,
10000000
00000000
00100000
10000000
01000000
00000000
00010000
01000000
10000000
00000000
01000000
00010000
00001000
00000000
01000000
00000000
,
00010000
00000000
00100000
01000000
00000000
10000000
00010000
00000000
01000000
00000000
00001000
00010000
00000000
00100000
10000000
00000000
,
01000000
00000000
00100000
00001000
00000000
00010000
00000100
00000000
00000010
00000000
00000001
00000100
00000000
00000010
00001000
00000000
,
00000100
00000000
00000010
00000001
00000100
00000000
00000010
00001000
00000100
00000000
00010000
00001000
00000010
00000000
00001000
00000000
,
01000000
00000000
00100000
01000000
00001000
00000000
00100000
01000000
10000000
00000000
00010000
01000000
00100000
00000000
10000000
00000000
,
01000000
00000000
00100000
00000000
00000000
01010000
00000000
01001000
00000000
00011000
00000000
00010010
00000100
00000000
00001000
00000000
,
00000100
00000000
00000010
00000000
00000000
00001001
00000000
00000110
00000000
00010010
00000000
00001010
00001000
00000000
00000100
00000000
,
00010000
00000000
00001000
00000000
00000000
01001000
00000000
00011000
00000000
00101000
00000000
00110000
01000000
00000000
10000000
00000000
,
00100000
00000000
01000000
00000000
00000000
01010000
00000000
01001000
00000000
00011000
00000000
00010010
00001000
00000000
00000100
00000000
,
00000010
00000001
00000010
00000000
00000100
00000000
00000000
00001001
00000000
00011000
00000000
10010000
00000000
00000000
00100000
00000000
,
01000000
00010000
10000000
00000000
01000000
00000000
00100000
00000000
01100000
00000000
00011000
00000000
00000110
00000000
00000001
00000000
,
00000010
00000100
00001000
00000000
00000001
00000000
00000000
00001001
00000000
00011000
00000000
01000100
00000000
00000000
00010000
00000000
,
00001000
01000000
00010000
00000000
00100000
00000000
01000000
00000000
10010000
00000000
00011000
00000000
00100010
00000000
00001000
00000000
,
00001000
00000000
00000000
00010000
00000000
00000000
00000100
00000000
00000000
00000000
00010000
00000000
00000000
00000000
00000000
00000000
01001000
00000000
00000000
00000000
00000000
00000000
00010000
00000000
00000000
00000000
00000000
00000000
01010000
00000000
00000000
00000000
00000000
00000000
10000000
00000000
00000000
00000000
00000000
00000000
11000000
00000000
00000000
00000000
00000000
00000000
00000000
00000000
,
00100000
00000000
00000000
10000000
00000000
00000000
01000000
00000000
00000000
00000000
00100000
00000000
00000000
00000000
00000000
00000000
00110000
00000000
00000000
00000000
00000000
00000000
00001000
00000000
00000000
00000000
00000000
00000000
00011000
00000000
00000000
00000000
00000000
00000000
00000100
00000000
00000000
00000000
00000000
00000000
00001010
00000000
00000000
00000000
00000000
00000000
00000000
00000000
,
00000100
00001000
00000100
00000010
00000000
00000000
00000001
00000000
00000000
00000100
00000001
00001000
00000100
00000000
00000000
00001000
00000000
00000000
00000100
00010000
00001000
00010000
00000000
00000000
,
00100000
01000000
00100000
10000000
00000000
00000000
00010000
00000000
00000000
10000000
01000000
00100000
00010000
00000000
00000000
01000000
00000000
00000000
00100000
10000000
01000000
00010000
00000000
00000000
,
01000000
00000000
00000000
00100000
00000000
00000000
00010000
00000000
00000000
00000000
10000000
00000000
00000000
00000000
00000000
00000000
10100000
00000000
00000000
00000000
00000000
00000000
01000000
00000000
00000000
00000000
00000000
00000000
01010000
00000000
00000000
00000000
00000000
00000000
00001000
00000000
00000000
00000000
00000000
00000000
00011000
00000000
00000000
00000000
00000000
00000000
00000000
00000000
,
00000100
00000000
00000000
00010000
00000000
00000000
00001000
00000000
00000000
00000000
00010000
00000000
00000000
00000000
00000000
00000000
00010010
00000000
00000000
00000000
00000000
00000000
00001000
00000000
00000000
00000000
00000000
00000000
00001100
00000000
00000000
00000000
00000000
00000000
00000001
00000000
00000000
00000000
00000000
00000000
00000011
00000000
00000000
00000000
00000000
00000000
00000000
00000000
,
00000100
00001000
00000100
00000001
00000000
00000000
00000010
00000000
00000000
00000100
00010000
00001000
01000000
00000000
00000000
00100000
00000000
00000000
10000000
01000000
00100000
00010000
00000000
00000000
,
01000000
00100000
10000000
01000000
00000000
00000000
00100000
00000000
00000000
00010000
00100000
00001000
00010000
00000000
00000000
00000100
00000000
00000000
00000010
00000100
00010000
00001000
00000000
00000000
,
00001000
00010000
01001000
00000000
00000000
00010000
01000000
10010000
00000000
00000000
00000000
10000000
01000000
00100000
00010000
01000000
,
00100000
10000000
10010000
00000000
00000000
00000000
00010000
01000000
01001000
00000000
00000000
00000000
00100000
00001000
00010000
00000100
,
00001000
00000000
01000100
00000000
00000000
00010000
00001000
00000100
00000000
00000001
00000010
00000100
00001000
00000100
00000010
00000001
,
00000100
00000010
00001000
00000000
00000000
00000001
00000100
00001000
00000100
00001000
00010000
00001000
00010000
01000000
10000000
00100000
,
01000000
00010000
10010000
00000000
00000000
01000000
00100000
00110000
00000000
00000000
00000000
01000000
10000000
00100000
00010000
00100000
,
10000000
01000000
10010000
00000000
00000000
00000000
00100000
00010000
10010000
00000000
00000000
00000000
01000000
00100000
00001000
00010000
,
00000100
00000000
00011000
00000000
00000000
00000100
00010000
00001000
00000000
00000010
00000001
00000100
00001000
00000100
00000001
00000010
,
00000100
00001000
00000100
00000000
00000000
00000001
00000100
00000010
00010000
00001000
01000000
00100000
00010000
00001000
01000000
00010000
,
00100000
00000000
01000000
00000000
00000000
11000000
00000000
10010000
00000000
00110000
00000000
00101000
00010000
00000000
00001000
00000000
,
01000000
00000000
00001000
00000000
00000000
00011000
00000000
00010010
00000000
00001010
00000000
00001100
00000001
00000000
00000100
00000000
,
00001000
00000000
00000100
00000000
00000000
00000101
00000000
00001100
00000000
00011000
00000000
01010000
10000000
00000000
00100000
00000000
,
01000000
00000000
00010000
00000000
00000000
11000000
00000000
00110000
00000000
00011000
00000000
00001010
00000001
00000000
00001000
00000000
,
00000220
00000000
00000000
00000000
,
00000000
00000000
00001001
00000330
00000000
00000000
00000000
00000000
00000000
00000000
00000000
00000000
00000000
00000000
00000000
00000000
;

//---------------dance-double - J.Casarino----------------
#NOTES:
     dance-double:
     J.Casarino:
     Hard:
     7:
     0.457,0.000,0.398,0.019,0.341,294.000,42.000,2.000,0.000,1.000,0.000:
00000000
00000000
00000000
00000000
,
00000000
00000000
00000000
00000000
,
00000110
00000000
00000000
00000000
00001001
00000000
00000000
00000000
00000100
00000000
00000000
00000010
00000000
00000000
00001000
00000000
,
00011000
00000000
00000000
00000000
01010000
00000000
00000000
00000000
00100000
00000000
00000000
10000000
00000000
00000000
00010000
00000000
,
01100000
00000000
00000000
00000000
10010000
00000000
00000000
00000000
10000000
00000000
00000000
01000000
00000000
00000000
00100000
00000000
,
00010000
00000000
00000000
00000000
00011000
00000000
00000000
00000000
00001000
00000000
00000000
00000010
00010000
00000010
00010000
00000010
,
00001000
00000000
00000001
00001000
00000000
00000000
00000000
00000000
00000001
00000000
00001000
00000000
00001000
00000000
00000001
00000100
,
00000010
00000100
00000001
00000000
00001000
00000000
00000000
00000000
00000010
00000000
00000010
00000000
00000110
00000000
00000000
00000000
,
00000100
00000000
00000100
00001000
00000000
00000000
00000000
00000000
00010000
00000000
00000100
00000000
00010000
00000000
00001000
00010000
,
00001000
00010000
00001000
00000000
00100000
00000000
00000000
00000000
00010000
00000000
00010000
00000000
01010000
00000000
00000000
00000000
,
00100000
00000000
10000000
00100000
00000000
00000000
00000000
00000000
10000000
00000000
01000000
00000000
01000000
00000000
00100000
00010000
,
00100000
00010000
00100000
00000000
00001000
00000000
00000000
00000000
00010000
00000000
00010000
00000000
00101000
00000000
00000000
00000000
,
00010000
00000000
00010000
00001000
00000000
00000000
00000000
00000000
00000100
00000000
00000001
00000000
00001000
00000000
00000100
00000010
,
00000100
00000010
00000100
00000000
00001000
00000000
00000000
00000000
00000001
00000000
00000100
00000000
00001000
00000000
00010000
00000000
,
00011000
00000000
00101000
00000000
00000000
00100000
00000000
00100000
00000000
00100000
00000000
00010000
00100000
00000000
01000000
00000000
,
11000000
00000000
10010000
00000000
00000000
10000000
00000000
10000000
00000000
10000000
00000000
00100000
01000000
00000000
00001000
00000000
,
01001000
00000000
00011000
00000000
00000000
00010000
00000000
00010000
00000000
00010000
00000000
00000100
00010000
00000000
00001000
00000000
,
00000110
00000000
00000101
00000000
00000000
00000001
00000000
00000001
00000000
00000001
00000000
00001000
00000001
00000000
00000100
00000000
,
00000110
00000000
00001000
00000000
00000100
00000000
00000000
00000000
00010100
00000000
00000000
00011000
00000000
00000000
00010010
00000000
,
00001000
00000000
00000010
00000000
00000001
00000000
00000000
00000000
00001000
00000000
00000000
00010100
00000000
00000000
00101000
00000000
,
00010000
00000000
01000000
00000000
10000000
00000000
00000000
00000000
00100000
00000000
00000000
00110000
00000000
00000000
00011000
00000000
,
01000000
00000000
00100000
00000000
01000000
00000000
00000000
00000000
00001000
00000000
00000000
00010100
00000000
00000000
00001010
00000000
,
00000100
00000000
00001001
00000000
00000100
00001000
00010000
00000000
,
00001000
00000010
00000001
00000100
00000001
00000010
00001000
00000000
,
00010000
00101000
00000000
01000000
10010000
00000000
00100000
00100000
,
01000000
10100000
00000000
10000000
01100000
00000000
00100000
00011000
,
00000010
00000000
00010100
00000000
00000001
00000010
00001000
00000000
,
00010000
00100000
10000000
01000000
10000000
00100000
00010000
00000000
,
00000100
00001010
00000000
00000100
00000011
00000000
00010000
00010000
,
00001000
00010010
00000000
00010000
00101000
00000000
01000000
01000000
,
10000000
01000000
10000000
00000000
00000000
00010000
00100000
00010000
00000000
00000000
00000000
01000000
00001000
01000000
00001000
00000000
,
00010000
00000100
00010000
00000000
00000000
00000000
00000010
00001000
00000010
00000000
00000000
00000000
00000100
00000001
00000100
00000001
,
00000100
00000010
00001000
00000100
00010000
00001000
01000000
00100000
,
10000000
01000000
00100000
00010000
01000000
00001000
00100000
00001000
,
00010000
00001000
00010000
00000000
00000000
00001000
00000010
00001000
00000000
00000000
00000000
00000010
00000001
00000010
00000001
00000000
,
00000100
00000001
00000100
00000000
00000000
00000000
00001000
00000100
00001000
00000000
00000000
00000000
00010000
00000100
00010000
00000100
,
00010000
00001000
01000000
00010000
00100000
01000000
10000000
00100000
,
01000000
00100000
00010000
00001000
00010000
00000010
00010000
00001000
,
00000100
00000000
00001000
00000000
00000000
00010000
00000000
00100000
00000000
00010000
00000000
00100000
00010000
00000000
00010000
00000000
,
00001000
00000000
00000010
00000000
00000000
00001000
00000000
00000010
00000000
00001000
00000000
00000010
00001000
00000000
00001000
00000000
,
00010000
00000000
00000100
00000000
00000000
00001000
00000000
00001000
00000000
00000001
00000000
00000001
00001000
00000000
00000100
00000000
,
00010000
00000000
00001000
00000000
00000000
01000000
00000000
01000000
00000000
00100000
00000000
00100000
10000000
00000000
01100000
00000000
,
20020000
00000000
00000000
00000000
,
00000000
00000000
01100000
30030000
00000000
00000000
00000000
00000000
00000000
00000000
00000000
00000000
00000000
00000000
00000000
00000000
;
