#TITLE:Know Your Enemy;
#SUBTITLE:;
#ARTIST:Hybrid;
#TITLETRANSLIT:;
#SUBTITLETRANSLIT:;
#ARTISTTRANSLIT:;
#GENRE:Techno;
#CREDIT:;
#BANNER:Know Your Enemy-banner.png;
#BACKGROUND:Know Your Enemy-bg.png;
#LYRICSPATH:;
#CDTITLE:;
#MUSIC:Know Your Enemy.ogg;
#OFFSET:0.005;
#SAMPLESTART:66.450;
#SAMPLELENGTH:11.880;
#SELECTABLE:YES;
#BPMS:0.000=130.030;
#STOPS:;
#BGCHANGES:0.000=Know Your Enemy-bg.png=1.000=0=0=1=====,
16.000=In The Groove 2/453_JumpBack.mpg=1.000=0=0=1=====,
32.000=In The Groove 2/452_JumpBack.mpg=1.000=0=0=1===FadeLeft==,
48.000=-random-=1.000=0=0=1=====,
64.000=-random-=1.000=0=0=1===FadeUp==,
80.000=-random-=1.000=0=0=1===FadeDown==,
96.000=In The Groove 2/586_JumpBack.mpg=0.300=0=0=1=Kaleidoscope2x2====,
112.000=-random-=1.000=0=0=1=====,
128.000=-random-=1.000=0=0=1=====,
144.000=-random-=1.000=0=0=1=====,
160.000=-random-=1.000=0=0=1=====,
176.000=-random-=1.000=0=0=1=====,
192.000=-random-=1.000=0=0=1=====,
204.000=In The Groove 2/956_JumpBack.mpg=1.000=1=0=1=SongBgWithMovieViz==CrossFade==,
208.000=-random-=1.000=0=0=1=====,
224.000=Know Your Enemy-bg.png=1.000=0=0=1=====,
99999=-nosongbg-=1.000=0=0=0 // don't automatically add -songbackground-
;
#BGCHANGES2:16.000=yellow flash=1.000=0=0=1=====,
48.000=yellow flash=1.000=0=0=1=====,
96.000=yellow flash=1.000=0=0=1=====,
112.000=yellow flash=1.000=0=0=1=====,
128.000=yellow flash=1.000=0=0=1=====,
144.000=yellow flash=1.000=0=0=1=====,
160.000=yellow flash=1.000=0=0=1=====,
176.000=yellow flash=1.000=0=0=1=====,
192.000=yellow flash=1.000=0=0=1=====,
208.000=white flash=1.000=0=0=1=====,
224.000=white flash=1.000=0=0=1=====,
;
#KEYSOUNDS:;
// cache tags:
#FIRSTBEAT:12.000;
#LASTBEAT:227.000;
#SONGFILENAME:/Songs/In The Groove 2/Know Your Enemy/Know Your Enemy.sm;
#HASMUSIC:1;
#HASBANNER:1;
#MUSICLENGTH:105.790;
// end cache tags

//---------------dance-double - M.Emirzian----------------
#NOTES:
     dance-double:
     M.Emirzian:
     Easy:
     3:
     0.189,0.000,0.142,0.170,0.000,107.000,15.000,18.000,0.000,0.000,0.000:
00000000
00000000
00000000
00000000
,
00000000
00000000
00000000
00000000
,
00000000
00000000
00000000
00000000
,
00000000
00000000
00000000
00000000
,
00100000
00000000
00000000
10000000
,
10000000
00000000
00000000
00010000
,
00010000
00000000
00000000
01000000
,
01000000
00000000
00000000
00001000
,
00001000
00000000
00000000
00010000
,
00010000
00000000
00000000
00000010
,
00000010
00000000
00000000
00001000
,
00001000
00000000
00000001
00001000
,
00000100
00000000
00002000
00000000
,
00003002
00000000
00000203
00000000
,
00002300
00000000
00003000
00000000
,
00011000
00000000
01001000
00000000
,
00010000
00000000
20000000
00000000
,
32000000
00000000
03200000
00000000
,
00320000
00000000
00030000
00000000
,
01001000
00000000
00011000
00000000
,
00000100
00000000
00002000
00000000
,
00003020
00000000
00000230
00000000
,
00000302
00000000
00000003
00000000
,
00001100
00000000
00010100
00000000
,
00010000
00000000
00002000
00000000
,
00023000
00000000
00230000
00000000
,
20300000
00000000
30000000
00000000
,
02020000
00000000
00000000
03030000
,
00010000
00010000
00000000
00000000
,
00100000
00100000
00000000
00000000
,
00001000
00001000
00000000
00000000
,
00010000
00010000
00000000
00000000
,
00000100
00000100
00000000
00000000
,
00000010
00000010
00000000
00000000
,
00000001
00000001
00000000
00000000
,
00001000
00001000
00000000
00000000
,
00000100
00000000
00010000
00000000
,
00001000
00000000
01001000
00000000
,
01010000
00000000
00000000
00000000
,
00010000
01000000
00100000
10000000
,
00010000
00000000
00100000
00000000
,
01000000
00000000
00110000
00000000
,
00101000
00000000
00000000
00000000
,
00010000
00000100
00001000
00000100
,
00000010
00000000
00000001
00000000
,
00000010
00000000
00001100
00000000
,
00001001
00000000
00000000
00000000
,
00000010
00001000
00000010
00010000
,
00001000
00000000
01000000
00000000
,
00010000
00000000
00110000
00000000
,
10010000
00000000
00000000
00000000
,
01000000
00100000
00010000
00100000
,
00001000
00000000
00010000
00000000
,
00000100
00000000
00001000
00000000
,
00000010
00000000
00000100
00000000
,
00000001
00001000
00000100
00001000
,
00000001
00000000
00000000
00000000
;

//---------------dance-double - M.Emirzian----------------
#NOTES:
     dance-double:
     M.Emirzian:
     Medium:
     6:
     0.334,0.000,0.104,0.123,0.000,223.000,11.000,13.000,0.000,0.000,0.000:
00000000
00000000
00000000
00000000
,
00000000
00000000
00000000
00000000
,
00000000
00000000
00000000
00000000
,
00000000
00000000
00000000
00000000
,
00100000
00000000
00000000
00010000
00000000
10000000
00000000
01000000
,
00100000
00000000
00000000
01000000
00000000
10000000
00000000
01000000
,
00010000
00000000
00000000
00001000
00000000
00000100
00000000
00000001
,
00001000
00000000
00000000
00000010
00000000
00000100
00000000
00000001
,
00000100
00000000
00000000
00001000
00000000
00010000
00000000
00100000
,
01000000
00000000
00000000
00010000
00000000
10000000
00000000
01000000
,
00100000
00000000
00000000
00001000
00000000
00010000
00000000
00000100
,
00001000
00000000
00000010
00000000
00000100
00000001
00000010
00000100
,
00001000
00000000
00000000
00000001
00000200
00000000
00000300
00000010
,
00002000
00000000
00003000
00000100
00020000
00000000
00031000
00000000
,
01000000
00000000
00010000
00100000
,
01000000
10000000
00010000
01000000
,
00100000
00000000
00000000
10000000
02000000
00000000
03000000
00100000
,
00020000
00000000
00030000
01000000
00002000
00000000
00013000
00000000
,
00000100
00000000
00001000
00000010
,
00000100
00000001
00001000
00000100
,
00000001
00000000
00000000
00000100
00002000
00000000
00003000
00000010
,
00020000
00000000
00030000
00001000
02000000
00000000
03010000
00000000
,
10000000
00000000
01000000
10000000
,
01000000
00100000
00010000
01000000
,
00100000
00000000
00000000
00010000
00002000
00000000
00003000
00010000
,
02000000
00000000
03000000
00010000
00001000
00000000
00010100
00000000
,
00002200
00000000
00000000
00003300
,
00000010
00000000
00000000
00000000
00000000
00000100
00000001
00000100
,
00000010
00000000
00001000
00000100
00001000
00000000
00000010
00000000
,
00010000
00000000
00001000
01000000
00001000
00010000
00001000
00000000
,
01000000
00000000
00010000
00100000
00010000
00000000
01000000
00000000
,
00100000
00000000
01000000
00001000
01000000
00010000
10000000
00000000
,
01000000
00100000
00010000
00000000
01000000
00001000
00010000
00000000
,
00001000
01000000
00010000
00000000
00100000
00000000
00001000
00000000
,
00010000
00000010
00001000
00000000
00000100
00010000
00001000
00000000
,
00010000
00000100
00001000
00000100
00000010
00000000
00000001
00000000
,
00001000
00000000
00000000
00000010
00000000
00000100
00000001
00000100
,
00000010
00000000
00000000
00001100
00000000
00000000
00010100
00000000
,
00001000
00000000
00000000
00010000
00000000
00000100
00010000
00001000
,
01000000
00010000
00100000
01000000
,
10000000
00000000
00000000
00100000
00000000
01000000
00010000
01000000
,
00001000
00000000
00000000
00011000
00000000
00000000
00010010
00000000
,
00001000
00000000
00000000
00000100
00000000
00000010
00000001
00000100
,
00000010
00001000
00000100
00010000
,
00001000
00000000
00000000
00010000
00000000
00000100
00010000
00001000
,
01000000
00000000
00000000
00110000
00000000
00000000
10010000
00000000
,
01000000
00000000
00000000
00100000
00000000
00010000
01000000
00001000
,
00010000
00000100
00001000
00000010
,
00000100
00000000
00000000
00000001
00000000
00000010
00000100
00001000
,
00000100
00000000
00000000
00010100
00000000
00000000
00011000
00000000
,
00010000
00000000
00000000
00100000
00000000
01000000
00010000
10000000
,
01000000
00100000
00010000
01000000
,
00001000
00000000
00000000
00000000
00000000
00010000
00001000
00010000
,
00000000
00000100
00001000
00000010
,
00000100
00000000
00000000
00000000
00000000
00000001
00001000
00000100
,
00001000
00000000
00000010
00000000
00010000
00001000
00010000
00001000
,
01001000
00000000
00000000
00000000
;

//---------------dance-double - M.Emirzian----------------
#NOTES:
     dance-double:
     M.Emirzian:
     Hard:
     9:
     0.631,0.000,0.255,0.000,0.416,440.000,27.000,0.000,4.000,0.000,0.000:
00000000
00000000
00000000
00000000
,
00000000
00000000
00000000
00000000
,
00000000
00000000
00000000
00000000
,
00000000
00000000
00000000
00000000
,
00000100
00000000
00001000
00000001
00001000
00000000
00000100
00000000
00010000
00000000
00000100
00001000
00000100
00000000
00010000
00000000
,
00001000
00000000
01000000
00010000
01000000
00000000
00001000
00000000
00010000
00000000
00001000
00100000
00001000
00000000
00010000
00000000
,
01000000
00000000
00100000
01000000
00100000
00000000
01000000
00000000
10000000
00000000
00010000
01000000
00010000
00000000
01000000
00000000
,
00100000
00000000
01000000
00010000
01000000
00000000
00001000
00000000
00010000
00000000
00000010
00001000
00000010
00000000
00000100
00000000
,
00000001
00000000
00001000
00000100
00001000
00000000
00000010
00000000
00001000
00000000
00000100
00010000
00000100
00000000
00010000
00000000
,
00001000
00000000
00000100
00001000
00000100
00000000
00001000
00000000
00010000
00000000
00100000
00010000
00100000
00000000
10000000
00000000
,
00010000
00000000
00100000
01000000
00100000
00000000
00010000
00000000
01000000
00000000
00001000
00010000
00001000
00000000
00100000
00000000
,
01000000
00000000
00000000
10000000
00010000
00000000
01000000
00000000
00001000
00010000
00000100
00001000
00000100
00000010
00000001
00001000
,
00000010
00000000
00000000
00001000
00000100
00000000
00000100
00001000
00000001
00000100
00000000
00000010
00001000
00000000
00000100
00000000
,
00010000
00000000
00000000
00001000
00010000
00000000
00010000
00000100
00010000
00001000
00000000
00010000
00100000
00000000
10000000
00000000
,
00010000
00100000
01000000
10000000
00001000
00010000
00100000
10000000
,
00010000
01000000
00001000
00010000
00100000
00010000
00001000
00000100
,
00000001
00000000
00000000
00000010
00000100
00000000
00000100
00001000
00000010
00000100
00000000
00000001
00001000
00000000
00000100
00000000
,
00000010
00000000
00000000
00000100
00001000
00000000
00001000
00000010
00010000
00001000
00000000
00000100
00001000
00000000
00010000
00000000
,
00000100
00010000
01000000
10000000
00001000
00010000
00100000
10000000
,
00100000
01000000
00001000
00010000
01000000
00100000
00001000
00010000
,
00000100
00000000
00000000
00001000
00000010
00000000
00000010
00000100
00000001
00001000
00000000
00000100
00000010
00000000
00000100
00000000
,
00001000
00000000
00000000
00000001
00000100
00000000
00000100
00001000
00010000
00000100
00000000
00010000
00001000
00000000
00000010
00000000
,
00001000
00100000
01000000
00010000
01000000
10000000
00010000
01000000
,
00100000
00010000
00001000
00000100
00001000
00010000
00000100
00000010
,
00000001
00000000
00000000
00000001
00000100
00000000
00000100
00000001
00000010
00000001
00000000
00001000
00000010
00000000
00000100
00000000
,
00000001
00000000
00000000
00000100
00000010
00000000
00000010
00001000
00000100
00010000
00000000
00001000
01000000
00000000
00010000
00000000
,
00100000
00000000
00000000
10010000
00000000
11000000
00000000
00010000
,
10100000
00000000
M0M00000
00000000
00000000
01000000
00010000
01000000
,
00100000
00000000
01000000
00010000
01000000
00000000
00001000
00000000
00010000
00000000
01000000
00000000
00100000
00000000
00010000
00000000
,
01000000
00000000
00001000
00010000
00001000
00000000
00000010
00000000
00000100
00000000
00010000
00000000
00001000
00000000
00000100
00000000
,
00000001
00000000
00001000
00000100
00001000
00000000
00000010
00000000
00010000
00000000
00001000
00000000
00000010
00000000
00000001
00000000
,
00000100
00000000
00000010
00001000
00000010
00000000
00010000
00000000
00001000
00000000
10000000
00000000
00100000
00000000
00010000
00000000
,
00001000
00000000
01000000
00010000
01000000
00000000
00001000
00000000
00010000
00000000
01000000
00000000
10000000
00000000
00010000
00000000
,
01000000
00000000
00100000
10000000
00100000
00000000
01000000
00000000
00010000
00000000
10000000
00000000
01000000
00000000
00010000
00000000
,
00001000
00000000
00000010
00001000
00000010
00000000
00001000
00000000
00010000
00000000
00100000
00000000
00010000
00000000
00001000
00000000
,
00000100
00001001
00000011
00000110
,
00000010
00000000
00000000
00001000
00000100
00000000
00001000
00000000
00000010
00000000
00010000
00000000
00001000
00010000
00001000
00000000
,
01001000
00000000
00000000
00011000
00000000
00000000
00010010
00000000
00000000
00011000
00000000
00000000
01001000
00000000
00000000
00000000
,
00100000
00000000
00000000
00010000
01000000
00000000
00100000
00000000
10000000
00000000
01000000
00000000
00100000
00010000
00100000
00000000
,
10000000
00100000
00001000
00010000
01000000
10000000
00100000
00010000
,
00001000
00000000
00000000
01000000
00001000
00000000
00010000
00000000
00100000
00000000
00010000
00000000
00001000
00010000
00001000
00000000
,
00010010
00000000
00000000
00011000
00000000
00000000
00001010
00000000
00000000
00001100
00000000
00000000
00010100
00000000
00000000
00000000
,
00001000
00000000
00000000
00000010
00000100
00000000
00000001
00000000
00001000
00000000
00000100
00000000
00000010
00000100
00000010
00000000
,
00000001
00010000
00001000
00000100
00000001
00000010
00000100
00010000
,
00001000
00000000
00000000
01000000
00100000
00000000
01000000
00000000
00010000
00000000
10000000
00000000
01000000
00100000
01000000
00000000
,
10010000
00000000
00000000
00110000
00000000
00000000
00101000
00000000
00000000
00011000
00000000
00000000
01001000
00000000
00000000
00000000
,
00100000
00000000
00000000
00001000
00010000
00000000
00001000
00000000
00000100
00000000
00000001
00000000
00000010
00000100
00000010
00000000
,
00000001
00000100
00000010
00010000
00001000
00000100
00000001
00001000
,
00000100
00000000
00000000
00010000
00001000
00000000
01000000
00000000
00100000
00000000
01000000
00000000
00010000
10000000
00010000
00000000
,
01010000
00000000
00000000
00110000
00000000
00000000
00101000
00000000
00000000
00011000
00000000
00000000
00010100
00000000
00000000
00000000
,
00001000
00000000
00000000
00000010
00000100
00000000
00001000
00000000
00000100
00000000
00000010
00000000
00001000
00000100
00001000
00000000
,
00000001
00000000
00000100
00000010
00000100
00000000
00001000
00000000
00000100
00000000
00000010
00000001
00001000
00000010
00000100
00000010
,
00001000
00000000
00000000
00000000
00000001
00000000
00000000
00000000
00000100
00000000
00000010
00000000
00001000
00000100
00001000
00000000
,
00000010
00010000
10000000
01000000
,
00010000
00000000
00000000
00000000
00100000
00000000
00000000
00000000
00001000
00000000
00010000
00000000
00000100
00001000
00000100
00000000
,
00010000
00001000
00000010
00000001
00010000
00001000
00000100
00000001
,
00001001
0000M00M
00000000
00000000
00000000
00000000
00000000
00000000
;

//---------------dance-single - ----------------
#NOTES:
     dance-single:
     :
     Easy:
     4:
     0.277,0.000,0.340,0.076,0.000,161.000,36.000,8.000,0.000,0.000,0.000:
0000
0000
0000
0000
,
0000
0000
0000
0000
,
0000
0000
0000
0000
,
2002
0000
0000
3003
,
1000
0010
0101
0010
,
1000
0010
1100
1000
,
0001
0010
1010
0100
,
0100
0010
0010
1001
,
0001
0010
1010
0100
,
0001
1000
0011
0001
,
1000
0010
0101
0010
,
0010
0100
0100
1001
,
1000
0001
0100
0010
,
1000
0010
0100
0001
,
1010
0000
0101
0000
,
0011
0000
1100
0000
,
1000
0100
0001
0010
,
1000
0001
0010
0100
,
1010
0000
0101
0000
,
0011
0000
1100
0000
,
1000
0000
0100
0000
,
0010
0000
1010
0000
,
1000
0000
0010
0000
,
0100
0000
0101
0000
,
1000
0000
0001
0000
,
0100
0000
0110
0000
,
2002
0000
0000
3003
,
0220
0000
0000
0330
,
1000
0100
0010
0001
,
0000
0000
1001
0000
0001
1000
0001
0000
,
0010
0010
0101
0000
,
1000
0100
0001
0000
,
0100
0010
0100
1000
,
0000
0000
1001
0000
1000
0001
1000
0000
,
0100
0100
1010
0000
,
0010
0100
0001
0000
,
1001
1000
0001
0100
,
0010
0010
1000
0000
,
1000
0001
0100
0000
,
0010
1000
0100
0000
,
1001
0001
0100
0010
,
1000
0100
0010
0000
,
0001
0100
0010
0000
,
1000
0001
1000
0001
1000
0000
0000
0000
,
0101
0000
0100
0010
,
0010
0000
0011
0000
,
0010
0100
0000
1000
,
0010
0100
0001
0000
,
1001
0000
1100
0000
,
0010
0001
0010
0000
,
1000
0010
0000
0100
,
0001
0000
1001
0000
,
0100
0000
0010
0000
,
1000
0000
0001
0000
,
1001
0000
0110
0000
,
1000
0001
1000
0000
0100
0010
0100
0000
,
2002
0000
0000
3003
;

//---------------dance-single - ----------------
#NOTES:
     dance-single:
     :
     Medium:
     6:
     0.392,0.000,0.369,0.076,0.028,243.000,39.000,8.000,0.000,0.000,0.000:
0000
0000
0000
0000
,
0000
0000
0000
0000
,
0000
0000
0000
0000
,
2002
0000
0000
3003
,
1000
0000
0100
0010
0000
0101
0000
0010
,
1000
0000
0001
0010
0000
1100
0000
1000
,
0001
0000
0100
0010
0000
1010
0000
0100
,
0100
0000
0010
0100
0010
0000
1001
0000
,
0001
0000
0010
0100
0000
1010
0000
0100
,
0001
0000
1000
0100
0000
0011
0000
0001
,
1000
0000
0010
0100
0000
0101
0000
0010
,
0010
0000
0100
0010
0100
0000
1001
0000
,
1000
0001
0100
0010
,
1000
0010
0100
0001
,
1000
0001
1000
0001
,
0010
0100
0010
0100
,
1000
0100
0001
0010
,
1000
0001
0010
0100
,
1000
0010
0001
0010
,
1000
0100
0001
0100
,
1000
0100
0001
0010
,
1000
0000
0110
0000
,
0010
0001
1000
0100
,
0010
0000
1001
0000
,
0001
0010
0100
1000
,
0001
0000
0110
0000
,
2002
0000
0000
3003
,
0220
0000
0000
0330
,
1000
0100
0010
0001
0000
1001
0000
1000
,
0010
0000
0101
0000
1000
0100
0001
0000
,
0100
0010
0100
1000
0000
1001
0000
0001
,
0100
0000
1010
0000
0010
0100
0001
0000
,
1000
0001
0010
0100
0000
1010
0000
0100
,
0010
0000
1100
0000
1000
0001
1000
0000
,
0001
0100
0010
1000
0000
1001
0000
0010
,
0100
0000
0101
0000
1000
0100
1000
0000
,
1001
0000
0001
0100
0010
0010
1000
0000
,
0001
0000
0000
0010
0000
0000
1000
0000
0000
0100
0000
0000
0001
0000
0000
0000
,
1001
0000
0100
0010
0001
0000
1010
0000
,
0010
0100
1000
0000
0100
0001
0010
0000
,
1001
0000
1000
0010
0100
0100
0001
0000
,
1000
0000
0000
0100
0000
0000
0001
0000
0000
0010
0000
0000
1000
0000
0000
0000
,
1001
0000
0010
0100
1000
0000
0101
0000
,
0100
0010
0001
0000
0010
1000
0100
0000
,
0101
0000
0100
0010
0010
0000
0011
0000
,
0010
0000
0000
0100
0000
0000
1000
0000
0010
0000
0100
0000
0001
0000
0000
0000
,
1001
0000
1100
0000
0010
0001
0010
0000
,
1000
0010
0000
0100
0001
0000
1001
0000
,
0110
0000
0010
0001
0100
0000
1010
0000
,
0010
0000
0000
1000
0000
0000
0100
0000
0010
0000
0001
0000
0100
0000
0000
0000
,
1001
0000
0011
0000
0100
1000
0100
0000
,
0010
0001
0000
1000
0010
0000
0101
0000
,
1000
0100
0010
0001
,
1000
0010
0100
0001
,
1000
0001
0100
0010
,
1000
0100
0010
0100
0001
0100
0010
0000
,
2002
0000
0000
3003
;

//---------------dance-single - ----------------
#NOTES:
     dance-single:
     :
     Hard:
     9:
     0.605,0.000,0.378,0.095,0.232,398.000,40.000,10.000,0.000,0.000,0.000:
0000
0000
0000
0000
,
0000
0000
0000
0000
,
0000
0000
0000
0000
,
2002
0000
0000
3003
,
1000
0000
0010
0000
0010
0000
0100
0001
0100
0000
0001
0000
0010
0100
0010
0000
,
0100
1000
0010
0001
0010
1000
0100
0010
,
0001
0100
0001
0000
1000
0000
0100
0000
0010
0000
0010
0000
0001
1000
0001
0000
,
1000
0010
1000
0000
0010
0000
0100
0001
0100
0000
0001
0000
1000
0100
0010
0000
,
0001
0000
0100
0000
0100
0000
0010
1000
0010
0000
1000
0000
0001
0010
0001
0000
,
0010
0100
1000
0001
0100
1000
0100
0001
,
1000
0100
1000
0000
0010
0000
0100
0000
0100
0000
0001
0000
0010
0100
0010
0000
,
0100
1000
0100
0000
1000
0000
0010
0100
0010
0000
0100
0000
0001
0010
0100
1000
,
0001
1000
0010
0000
1000
0100
0010
0100
,
0000
1001
0000
1010
0000
0101
0000
0001
,
0010
0100
1000
0000
0001
0100
1000
0100
,
0000
1010
0000
1001
0000
0011
0000
0100
,
1000
0010
0100
0000
0001
0010
1000
0010
,
0000
1100
0000
1001
0000
0101
0000
0010
,
1000
0100
0010
0001
1000
0100
0010
0000
,
0001
0100
1000
0000
0100
0010
1000
0100
,
0010
0000
0101
0000
0100
0100
0100
0000
,
0010
1000
0000
1001
0000
0011
0000
0010
,
0100
0000
1001
0000
0010
0010
0010
0000
,
0100
0001
0000
1100
0000
1010
0000
1000
,
0001
0000
0110
0000
1000
0010
0100
0000
,
0001
0010
0000
1010
0000
0101
0000
1000
,
2100
0010
0010
3100
,
0012
0100
0100
0013
,
1000
0010
0100
1000
0100
0001
1000
0100
,
0010
0000
0001
0000
0100
0000
0010
0000
1000
0001
1000
0000
1100
0000
0000
0000
,
0010
0001
0100
1000
0100
0001
1000
0100
,
0010
0000
0001
0000
1000
0000
0010
0000
0100
0001
0100
0000
1001
0000
0000
0000
,
0001
0100
0010
0001
0010
1000
0001
0010
,
0100
0000
1000
0000
0010
0000
0100
0000
0001
1000
0001
0000
0011
0000
0000
0000
,
0100
1000
0010
0001
0010
1000
0001
0010
,
0100
0000
1000
0000
0001
0000
0100
0000
0010
1000
0010
0000
1001
0000
0000
0000
,
0011
0000
0000
0000
0001
0000
0010
0000
0100
0000
1000
0000
1000
0001
1000
0000
,
0001
0000
0100
0010
0000
1000
0100
0000
0010
0001
0000
1000
0010
0000
0100
0000
,
0001
0000
0000
0000
1000
0000
0100
0000
0010
0000
0001
0000
0100
0010
0100
0000
,
0001
0100
0001
0000
1000
0000
0001
0000
0001
0100
0001
0000
0010
0100
0010
0000
,
1100
0000
0000
0000
1000
0000
0001
0000
0100
0000
0010
0000
1000
0100
1000
0000
,
0001
0000
0100
0010
0000
1000
0100
0000
0010
0001
0000
0100
0010
0000
1000
0000
,
0001
0000
0000
0000
0010
0000
0100
0000
1000
0000
0010
0000
0100
0001
0100
0000
,
0001
1000
0001
0000
1000
0000
0100
0000
0010
0001
0010
0000
0001
1000
0001
0000
,
1000
0000
0010
0100
0010
0000
1000
0000
0001
0000
0010
0000
0100
1000
0100
0000
,
1001
0000
0000
0101
0000
0000
1010
0000
0000
1100
0000
0000
0010
0000
0001
0000
,
0200
0010
0010
0300
2000
0001
0001
3010
,
0100
1000
0010
0000
0100
0000
0001
0000
1000
0000
0100
0000
0010
0001
0010
0000
,
0001
0000
1000
0010
1000
0000
0010
0000
0100
0000
0001
0000
1000
0100
1000
0000
,
1010
0000
0000
0101
0000
0000
0011
0000
0000
1100
0000
0000
1000
0000
0010
0000
,
0200
0001
0001
0300
0200
0010
0010
0301
,
1000
0010
0100
0000
0100
0000
0001
0000
0010
0000
0100
0000
1000
0001
1000
0000
,
0001
0010
1000
0010
0001
0100
0010
0010
,
1000
0100
0001
0100
1000
0010
0100
0100
,
1001
1010
0011
0101
,
0001
1000
0100
0010
0001
1000
0010
0100
,
2002
0000
0000
3003
;

//---------------dance-single - M.Emirzian----------------
#NOTES:
     dance-single:
     M.Emirzian:
     Challenge:
     10:
     0.897,0.000,0.718,0.038,1.000,584.000,76.000,4.000,2.000,3.000,0.000:
0000
0000
0000
0000
,
0000
0000
0000
0000
,
0000
0000
0000
0000
,
0000
0000
0000
0000
,
0100
0010
0100
0001
1000
0000
0010
1000
0100
0010
0001
0100
0010
1000
0100
0000
,
0010
0001
1000
0001
0010
0000
0100
1000
0010
0100
0001
0010
0100
1000
0100
0000
,
0010
0001
1000
0010
0100
0000
0010
1000
0100
0001
0100
1000
0010
0100
0001
0000
,
0100
0010
1000
0100
1000
0000
0001
0100
0010
1000
0100
0010
0001
0010
0100
0000
,
1000
0001
0100
1000
0100
0000
0001
0010
0100
1000
0010
1000
0100
0010
0001
0000
,
0010
0100
1000
0001
0100
0000
0010
1000
0010
0100
0001
0010
0100
1000
0100
0000
,
0010
0001
0100
0010
1000
0000
0100
0010
0001
0100
0010
1000
0001
0100
0010
0000
,
0001
0100
0010
1000
1010
0000
0110
0000
0001
0100
0010
1000
0100
0010
0001
0100
,
0110
0000
0000
0010
1000
0000
0100
0010
0001
0100
0000
0100
0010
1000
0100
0000
,
0011
0000
0000
0010
0001
0000
1000
0010
0100
0001
0000
0001
0100
0010
1000
0000
,
1001
0000
0000
0001
0010
0000
0100
1000
0010
0100
0000
0100
0001
0010
0100
0000
,
1001
0000
0000
1000
0100
0000
0010
0001
0100
1000
0000
1000
0100
0001
0010
0000
,
1100
0000
0000
0100
1000
0000
0001
0100
0010
1000
0000
1000
0100
0010
0001
0000
,
0110
0000
0000
0010
0100
0000
1000
0001
0010
1000
0000
1000
0010
0001
0100
0000
,
1010
0000
0000
0010
1000
0000
0100
0010
0001
1000
0000
1000
0010
0100
0001
0000
,
0011
0000
0000
0010
0001
0000
0100
0010
1000
0100
0000
0100
0010
0001
0100
0000
,
1010
0000
0000
0010
0001
0000
0010
0100
1000
0001
0000
0001
0100
1000
0100
0000
,
1001
0000
0000
0001
1000
0000
0100
0010
0100
1000
0000
0001
0100
0010
1000
0000
,
0101
0000
0000
0001
0010
0000
0100
1000
0010
0100
0000
0100
0001
0010
1000
0000
,
0110
0000
0000
0010
0001
0000
1000
0010
0001
0010
0000
0010
1000
0100
1000
0000
,
0110
0000
0000
0010
0100
0000
0001
0010
0100
0010
0000
0001
0100
0010
1000
0000
,
0101
0000
0000
0100
0001
0000
0100
1000
0010
0100
0000
0100
0001
0010
0001
0000
,
2002
0000
0000
0010
0000
3103
0000
M00M
,
1001
0000
0000
0000
0000
1010
0110
0101
,
1000
0001
0100
0010
1000
0100
0010
0001
1000
0010
0100
0001
0010
0100
1000
0010
,
0100
0001
1000
0100
0001
0100
1000
0100
0001
0100
1000
0010
0100
0001
0010
0100
,
1000
0010
0100
0001
0010
1000
0010
0001
0010
1000
0010
0001
0100
0010
1000
0100
,
0010
0001
0100
0010
1000
0100
0010
0001
1000
0100
0010
0001
1000
0010
0100
0001
,
1000
0000
0100
0010
0001
0000
1100
0000
1001
0000
0010
1000
0100
0000
1100
0000
,
0011
0000
0100
0001
0010
0000
1010
0000
1100
0000
0010
0001
0100
0000
1001
0000
,
0110
0000
0001
1000
0100
0000
0110
0000
1001
0000
0010
0100
0001
0000
1100
0000
,
0011
0000
1000
0010
0100
0001
0010
0000
2002
0000
0000
0000
0110
3003
0000
0000
,
1000
0000
0000
1000
0100
0000
0010
0001
0100
0010
0000
0010
1000
0100
0010
0000
,
1001
0000
0000
1100
0000
0000
0011
0000
0000
1001
0000
0000
0110
0000
0101
0000
,
1001
0000
0000
0001
0010
0000
0100
1000
0010
0100
0000
0100
0001
1000
0100
0000
,
1001
0000
0100
1000
0010
1000
0100
0000
0011
0000
0001
0100
0001
0010
0001
0000
,
0110
0000
0000
0100
0010
0000
1000
0010
0001
0010
0000
0010
1000
0001
0100
0000
,
1010
0000
0000
1100
0000
0000
0110
0000
0000
1001
0000
0000
0110
0000
0101
0000
,
1100
0000
0000
0100
1000
0000
0010
0100
0001
0010
0000
0010
1000
0010
0001
0000
,
1001
0000
0010
0100
0001
0010
0001
0000
1100
0000
0010
1000
0100
1000
0010
0000
,
0101
0000
0000
0100
0001
0000
1000
0100
0010
0001
0000
0001
0100
0010
1000
0000
,
1100
0000
0000
0110
0000
0000
1001
0000
0000
0110
0000
0000
0101
0000
1010
0000
,
1100
0000
0000
1000
0100
0000
0010
0001
1000
0100
0000
0100
1000
0010
1000
0000
,
1001
0000
0100
0010
0001
0010
0100
0000
0001
0000
0100
1000
0100
0010
1000
0000
,
0011
0000
0000
0010
0100
0000
1000
0100
0010
0100
0000
1000
0001
0100
1000
0000
,
0101
0000
0000
0011
0000
0000
1100
0000
0000
0110
0000
0000
0011
0000
0110
0000
,
1100
0000
0000
0010
1000
0000
0100
0010
0001
0100
0000
1000
0100
0010
1000
0000
,
1001
0000
0010
1000
0010
0100
1000
0000
0101
0000
0100
0010
0001
0010
0100
0000
,
1001
0000
0000
0001
0010
0000
0100
1000
0010
0100
0000
0100
0001
0010
0001
0000
,
1100
0000
0010
0100
0001
0000
0010
0000
0100
0000
1000
0000
0001
0100
1000
0000
,
0100
0000
0000
0100
0001
0000
0010
0100
1000
0100
0000
0100
0001
0100
1000
0000
,
0010
0100
0001
0010
0100
1000
0010
0001
0010
1000
0010
0001
0010
1000
0100
0010
,
1001
0000
0000
0000
;

//---------------dance-double - M.Emirzian----------------
#NOTES:
     dance-double:
     M.Emirzian:
     Challenge:
     10:
     0.821,0.000,0.227,0.019,1.000,582.000,24.000,2.000,2.000,2.000,0.000:
00000000
00000000
00000000
00000000
,
00000000
00000000
00000000
00000000
,
00000000
00000000
00000000
00000000
,
00000000
00000000
00000000
00000000
,
10000000
00010000
10000000
01000000
10000000
00000000
00010000
01000000
00010000
00100000
00010000
01000000
00001000
00010000
00001000
00000000
,
01000000
00001000
00010000
00000100
00001000
00000000
00000010
00000100
00000010
00001000
00000100
00001000
00000010
00000100
00000001
00000000
,
00000010
00000001
00000100
00000010
00001000
00000000
00000100
00001000
00000010
00001000
00000100
00010000
00001000
01000000
00010000
00000000
,
10000000
00100000
10000000
00010000
10000000
00000000
01000000
00100000
00010000
01000000
00010000
00100000
00001000
00010000
00001000
00000000
,
00001000
00010000
00001000
01000000
00001000
00000000
00010000
00000100
00001000
00000100
00010000
00001000
00010000
00000010
00001000
00000000
,
00000100
00000010
00000100
00001000
00000001
00000000
00000100
00000001
00000010
00000001
00000100
00000010
00001000
00000100
00010000
00000000
,
00001000
01000000
00010000
01000000
00001000
00000000
01000000
00010000
01000000
00100000
10000000
01000000
00100000
00010000
00100000
00000000
,
01000000
10000000
00010000
01000000
01010000
00000000
10010000
00000000
01000000
00100000
00010000
01000000
00001000
00010000
00000100
00010000
,
00011000
00000000
00000000
00010000
00001000
00000000
00000100
00000001
00001000
00000100
00000000
00000010
00000100
00001000
00000001
00000000
,
00000100
00000000
00000000
00000010
00001000
00000000
00000100
00001000
00000010
00001000
00000000
00000100
00010000
00001000
01000000
00000000
,
00010000
00000000
00000000
00100000
00010000
00000000
01000000
00100000
10000000
01000000
00000000
00100000
00010000
01000000
00001000
00000000
,
00010000
00000000
00000000
00000100
00001000
00000000
00000010
00000100
00000001
00001000
00000000
00000100
00000010
00000100
00001000
00000000
,
00000001
00000000
00000000
00000100
00001000
00000000
00010000
00000100
00010000
00001000
00000000
01000000
00010000
00100000
00010000
00000000
,
01000000
00000000
00000000
00100000
10000000
00000000
01000000
10000000
00100000
10000000
00000000
01000000
00010000
01000000
10000000
00000000
,
00100000
00000000
00000000
01000000
00001000
00000000
00010000
00000100
00001000
00000010
00000000
00000100
00000001
00001000
00000100
00000000
,
00000010
00000000
00000000
00000001
00000100
00000000
00000010
00001000
00000100
00010000
00000000
00000100
00001000
00000010
00010000
00000000
,
00001000
00000000
00000000
01000000
00010000
00000000
00100000
00010000
01000000
00100000
00000000
01000000
00010000
10000000
01000000
00000000
,
00100000
00000000
00000000
00010000
01000000
00000000
00010000
00100000
00010000
01000000
00000000
00001000
00010000
00000100
00001000
00000000
,
00000010
00000000
00000000
00000100
00000001
00000000
00000010
00000001
00000100
00000001
00000000
00001000
00000100
00001000
00000010
00000000
,
00010000
00000000
00000000
00000100
00001000
00000000
00000010
00010000
00001000
01000000
00000000
00010000
01000000
00010000
00100000
00000000
,
01000000
00000000
00000000
10000000
00010000
00000000
01000000
00100000
10000000
01000000
00000000
00100000
00010000
01000000
00001000
00000000
,
00010000
00000000
00000000
00000100
00001000
00000000
00000010
00000100
00001000
00000100
00000000
00000001
00000100
00000000
00000000
00000000
,
00020020
00000000
00000000
00000100
00000000
00031030
00000000
00000000
,
00011000
00000000
00000000
00000000
00000000
00001000
01000000
00010000
,
10000000
01000000
10000000
01000000
00100000
00010000
00100000
00010000
01000000
00100000
01000000
00010000
01000000
00100000
01000000
00001000
,
00010000
00000100
00010000
00001000
00010000
00000010
00001000
00000010
00000100
00000001
00000010
00000001
00000100
00000001
00000010
00000001
,
00000100
00000010
00001000
00000100
00010000
00001000
01000000
00010000
00100000
00010000
01000000
00100000
10000000
01000000
10000000
00100000
,
10000000
01000000
00100000
00010000
10000000
00100000
01000000
00010000
01000000
00100000
10000000
01000000
00100000
01000000
00100000
00010000
,
01000000
00000000
00001000
00010000
00001000
00000000
00010000
00000000
00000100
00000000
00001000
00000010
00000100
00000000
00000001
00000000
,
00000100
00000000
00000010
00001000
00000100
00000000
00010000
00000000
00100000
00000000
10000000
01000000
00100000
00000000
00001000
00000000
,
00000100
00000000
00000001
00001000
00000100
00000000
00010000
00000000
01000000
00000000
10000000
00010000
01000000
00000000
00001000
00000000
,
00000100
00000000
00000001
00001000
00000100
00000010
00000001
00000000
00001001
00000000
00000001
00000000
00001100
00000000
00001000
00000000
,
00000001
00000000
00000000
00000100
00000010
00000000
00001000
00000100
00001000
00000010
00000000
00010000
00001000
01000000
00010000
00000000
,
01010000
00000000
00000000
01001000
00000000
00000000
00011000
00000000
00000000
00101000
00000000
00000000
00010000
00000000
01000000
00000000
,
00100000
00000000
00000000
01000000
00010000
00000000
10000000
01000000
00100000
00010000
00000000
01000000
00001000
00010000
00000100
00000000
,
00001000
00000000
00000010
00001000
00000100
00000010
00000001
00000000
00000100
00000000
00000010
00001000
00000100
00001000
00000010
00000000
,
00000100
00000000
00000000
00000001
00001000
00000000
00000100
00010000
00001000
01000000
00000000
00010000
00100000
00010000
01000000
00000000
,
01001000
00000000
00000000
00011000
00000000
00000000
00100010
00000000
00000000
00011000
00000000
00000000
00001000
00000000
00100000
00000000
,
00010000
00000000
00000000
10000000
01000000
00000000
00100000
00010000
01000000
00100000
00000000
01000000
00010000
00100000
00001000
00000000
,
00010000
00000000
01000000
00100000
01000000
10000000
00010000
00000000
01000000
00000000
00001000
00010000
00000100
00001000
00000001
00000000
,
00000010
00000000
00000000
00000100
00001000
00000000
00000001
00000100
00000010
00001000
00000000
00000100
00001000
00000010
00010000
00000000
,
00011000
00000000
00000000
00010100
00000000
00000000
00001010
00000000
00000000
00011000
00000000
00000000
01000000
00000000
00010000
00000000
,
00100000
00000000
00000000
01000000
10000000
00000000
00010000
01000000
00100000
10000000
00000000
00010000
00100000
01000000
10000000
00000000
,
01000000
00000000
00100000
00010000
01000000
00001000
00010000
00000000
00000100
00000000
00001000
00000010
00000100
00000001
00001000
00000000
,
00000100
00000000
00000000
00000010
00000100
00000000
00001000
00000001
00000100
00000010
00000000
00001000
00000100
00010000
00001000
00000000
,
00010010
00000000
00000000
00011000
00000000
00000000
00100100
00000000
00000000
00011000
00000000
00000000
00001000
00000000
01000000
00000000
,
00010000
00000000
00000000
01000000
00100000
00000000
01000000
00010000
10000000
01000000
00000000
00100000
00010000
01000000
00001000
00000000
,
00010000
00000000
00000100
00001000
00000010
00000100
00000010
00000000
00001000
00000000
00000100
00000010
00000001
00000100
00000010
00000000
,
00001000
00000000
00000000
00000100
00010000
00000000
00001000
01000000
00010000
10000000
00000000
10000000
01000000
00100000
00010000
00000000
,
01000000
00100000
10000000
01000000
00100000
00001000
00010000
00000100
,
00001000
00000000
00000000
00000010
00000100
00000000
00000001
00000100
00000010
00001000
00000000
00000100
00000010
00000001
00001000
00000000
,
00000010
00001000
00000100
00001000
00000010
00001000
00000100
00010000
00001000
01000000
00010000
00100000
00010000
01000000
00100000
10000000
,
10010000
M00M0000
00000000
00000000
00000000
00000000
00000000
00000000
;

//---------------dance-single - K. Ward----------------
#NOTES:
     dance-single:
     K. Ward:
     Beginner:
     1:
     0.065,0.000,0.009,0.000,0.000,47.000,1.000,0.000,0.000,0.000,0.000:

0000
0000
0000
0000
,
0000
0000
0000
0000
,
0000
0000
0000
0000
,
0000
0000
0000
0000
,
0010
0000
0000
0000
,
0000
0000
0000
0000
,
0010
0000
0000
0000
,
0000
0000
0000
0000
,
0100
0000
0000
0000
,
0000
0000
0000
0000
,
0100
0000
0000
0000
,
0000
0000
0000
0000
,
0001
0000
0000
0000
,
1000
0000
0000
0000
,
0001
0000
0000
0000
,
1000
0000
0000
0000
,
0100
0000
0000
0000
,
0100
0000
0000
0000
,
0100
0000
0000
0000
,
0000
0000
0000
0000
,
1000
0000
0000
0000
,
0001
0000
0000
0000
,
0010
0000
0000
0000
,
0010
0000
0000
0000
,
0001
0000
0000
0000
,
1000
0000
0000
0000
,
0001
0000
0000
0000
,
0000
0000
0000
0000
,
0100
0000
0000
0000
,
0000
0000
0000
0000
,
0100
0000
0000
0000
,
0000
0000
0000
0000
,
0010
0000
0000
0000
,
0000
0000
0000
0000
,
0010
0000
0000
0000
,
0000
0000
0000
0000
,
1000
0000
0001
0000
,
1000
0000
0000
0000
,
0001
0000
1000
0000
,
0001
0000
0000
0000
,
1000
0000
0001
0000
,
0001
0000
0000
0000
,
0001
0000
1000
0000
,
1000
0000
0000
0000
,
0010
0000
0000
0000
,
0100
0000
0000
0000
,
0001
0000
0000
0000
,
1000
0000
0000
0000
,
1000
0000
0000
0000
,
0001
0000
0000
0000
,
0010
0000
0000
0000
,
0001
0000
0000
0000
,
1000
0000
0000
0000
,
1000
0000
0000
0000
,
0001
0000
0000
0000
,
0001
0000
0000
0000
,
1001
0000
0000
0000
;
